#TITLE:Zombie;
#SUBTITLE:;
#ARTIST:Purple Kiss;
#TITLETRANSLIT:;
#SUBTITLETRANSLIT:;
#ARTISTTRANSLIT:;
#GENRE:;
#CREDIT:;
#MUSIC:Zombie.ogg;
#BANNER:Zombie-bn.png;
#BACKGROUND:Zombie-bg.png;
#CDTITLE:;
#SAMPLESTART:61.791;
#SAMPLELENGTH:17.455;
#SELECTABLE:YES;
#OFFSET:0.367;
#BPMS:0.000=110.000;
#STOPS:;
#BGCHANGES:0.000=Zombie-bg.png=1.000=0=0=0=StretchNoLoop====,
0.750=Zombie.avi=1.000=0=0=1,
282.000=Zombie-bg.png=1.000=0=0=1,
99999.000=-nosongbg-=1.000=0=0=0=StretchNoLoop====
;
#FGCHANGES:;

//--------------- dance-single - ----------------
#NOTES:
     dance-single:
     :
     Beginner:
     2:
     0.114789,0.151957,0,0,0,124,124,0,0,0,0,0.114789,0.151957,0,0,0,124,124,0,0,0,0:
0000
0000
0000
0000
,
0000
0000
0000
0000
,
0000
0000
0000
0000
,
0000
0000
0000
0000
,
0000
0000
0000
0000
,
0000
0000
0000
0000
,
0000
0000
0000
0000
,
0000
0000
0000
0000
,
1000
0000
0010
0000
,
0100
0100
0100
0000
,
0001
0000
1000
0000
,
0100
0000
0000
0000
,
0010
0000
0100
0000
,
1000
0000
0001
0000
,
0100
0000
0010
0000
,
0100
0000
0100
0000
,
0001
0000
1000
0000
,
0100
0100
0100
0000
,
0010
0000
0100
0000
,
1000
0000
0001
0000
,
0100
0000
0010
0000
,
0100
0000
0001
0000
,
1000
0000
0100
0000
,
0010
0000
0100
0000
,
1000
0000
0001
0000
,
0100
0000
0100
0000
,
0010
0000
0010
0000
,
0100
0000
0000
0000
,
0000
0000
0000
0000
,
0001
0000
0001
0000
,
1000
0000
1000
0000
,
0100
0000
0100
0000
,
0010
0000
0010
0000
,
0100
0100
0100
0000
,
0010
0000
0100
0100
,
0100
0000
1000
0000
,
0001
0000
0000
0000
,
0001
0000
1000
0000
,
0010
0010
0010
0000
,
0100
0000
0001
0000
,
1000
1000
1000
0000
,
0100
0000
0010
0000
,
0100
0000
0010
0000
,
0001
0000
1000
0000
,
0001
0000
0100
0000
,
0010
0000
0010
0000
,
0100
0100
0100
0000
,
0001
0000
1000
0000
,
0100
0000
0000
0000
,
0010
0010
0010
0010
,
0010
0000
0000
0000
,
0001
0000
1000
0000
,
0010
0000
0100
0000
,
0010
0000
1000
0000
,
0001
0000
0010
0000
,
0100
0100
0100
0000
,
1000
0000
0001
0000
,
0001
0000
0100
0000
,
0010
0000
0000
0000
,
0100
0000
0001
0000
,
1000
1000
1000
0000
,
0100
0000
0010
0000
,
0001
0001
0001
0000
,
1000
0000
0010
0000
,
0100
0100
0100
0000
,
0001
0000
1000
0000
,
0100
0000
0000
1000
,
0001
0000
0000
0000
;

//--------------- dance-single - ----------------
#NOTES:
     dance-single:
     :
     Easy:
     5:
     0.18607,0.218701,0.0324,0.110161,0,201,196,5,17,0,0,0.18607,0.218701,0.0324,0.110161,0,201,196,5,17,0,0:
0000
0000
0000
0000
,
0000
0000
0000
0000
,
0000
0000
0000
0000
,
0000
0000
0000
0000
,
0000
0000
0000
0000
,
0000
0000
0000
0000
,
0000
0000
0000
0000
,
0000
0000
0000
0000
,
1000
0010
0010
0100
,
0010
0010
0010
1000
,
0001
0000
0002
0003
,
0200
0000
0300
0110
,
1000
0001
1000
0100
,
0010
0000
0100
0000
,
1000
0001
0100
0010
,
0100
0100
0200
0300
,
0010
1000
0100
0010
,
0100
1000
1001
0000
,
0001
0100
0010
0000
,
0100
0001
1000
0100
,
0010
0100
1000
0001
,
0100
0010
0100
0001
,
0010
0100
1000
0001
,
0100
0010
0100
0001
,
2000
0000
3200
0000
,
0320
0000
0230
0000
,
2300
0000
3002
0000
,
0023
0030
0020
0030
0000
0000
0000
0000
,
0000
0000
0000
0000
,
0010
0010
0100
0100
,
1000
0001
0100
0010
,
0100
0001
1000
0100
,
0010
0100
1000
0001
,
0100
0100
0100
0010
,
0100
0010
1000
0001
,
0010
0100
1000
0001
,
0200
0000
0300
0010
,
0100
0001
0001
1000
,
0001
0001
0100
0010
,
1001
1000
1000
0100
,
0010
0010
0001
0100
,
0010
0000
0100
0000
,
0001
0000
1000
0000
,
0100
0000
0010
0000
,
0100
0000
1000
0000
,
0001
0001
1000
1000
,
0010
0010
0100
0100
,
0001
0010
0100
1000
,
0002
0000
0000
0000
,
0010
0100
0010
0100
,
1003
0000
0000
0000
,
1001
1000
0010
0100
,
0010
1000
0100
0010
,
0001
1000
0001
0100
,
0010
0100
0001
1000
,
0100
0100
0100
0010
,
0100
1000
0001
1000
,
0001
0100
0010
0100
,
0002
0000
0003
1000
,
1000
0100
0100
0010
,
0100
0100
0100
1000
,
0001
0100
0100
0010
,
0100
0100
0100
0001
,
1000
0100
0100
0010
,
0100
0100
0100
1000
,
0001
0100
0010
0100
,
0002
0000
0003
1000
,
2002
0000
3003
0000
;

//--------------- dance-single - ----------------
#NOTES:
     dance-single:
     :
     Medium:
     10:
     0.277716,0.32623,0.00648,0.278642,0.05832,300,299,1,43,4,0,0.277716,0.32623,0.00648,0.278642,0.05832,300,299,1,43,4,0:
0000
0000
0000
0000
,
0000
0000
0000
0000
,
0000
0000
0000
0000
,
0000
0000
0000
0000
,
0000
0000
0000
0000
,
0000
0000
0000
0000
,
0000
0000
0000
0000
,
0000
0000
0000
0000
,
1000
0000
0001
0100
0010
0000
0100
0001
,
4000
0000
3100
0010
0001
0000
2000
0000
,
3020
0200
0330
0000
0001
0000
1000
0000
,
0001
0100
0010
0000
0100
0000
MMMM
0000
,
1000
0010
1000
0000
0200
0000
0310
0000
,
0001
0000
0000
1000
0000
0000
0001
0000
0000
1000
0000
0000
0001
0000
0000
0000
,
0010
0100
0010
0000
0001
0000
1000
0010
,
0100
0000
0000
0100
0000
0000
0200
0000
0000
0000
0000
0000
0310
0000
0000
0000
,
1000
0001
0020
0000
0130
1000
0002
0000
,
0103
0010
1000
0000
1000
0000
1001
0000
,
0001
0010
0001
0000
0100
0000
0010
0000
,
1000
0001
1000
0100
0020
0000
0100
0000
,
0031
1000
0001
0000
1000
0001
1000
0000
,
0010
0100
0010
0000
1000
0100
1000
0000
,
0001
0000
0010
0000
0100
0000
1000
0010
,
1000
0001
0010
0200
,
2300
0001
3020
0030
,
2000
3200
0320
0230
,
0300
2000
0001
3020
,
0130
0100
0100
0100
0000
0000
0000
0000
,
0000
0000
0000
0000
0001
1000
0001
0010
,
0200
0000
1300
0001
0200
0000
0310
1000
,
0200
0000
0000
0310
0000
0000
0000
0000
0000
0000
0100
0000
1000
0000
0000
0000
,
0001
0100
0010
0000
0100
0001
1000
0000
,
0002
0000
0000
0013
0000
0000
0000
0000
0100
0000
1000
0000
0001
0000
0000
0000
,
1000
0010
1000
0010
0100
0000
0001
0010
,
0100
0000
1000
0001
1000
0001
0100
0010
,
0000
1000
0001
0000
1000
0100
0020
0000
,
0031
1000
0000
0001
0000
1000
0000
0001
0000
0000
0000
0000
0200
0000
0000
0000
,
0310
0000
1000
0100
1000
0000
0001
0100
,
0001
1000
0001
0100
0001
0000
2000
0000
,
3100
0000
0010
0001
0010
0000
0001
0100
,
0004
0000
0003
1000
,
0200
0320
0230
0300
,
2000
3001
0200
0300
,
0010
0010
0200
0300
,
0000
0001
1000
0002
,
0013
0000
0100
1000
0100
0000
1000
0010
,
1000
0001
1000
0010
1000
0000
0001
0000
,
0010
0100
0010
0000
0100
0000
0200
0000
,
0000
0000
0000
0000
,
1000
1000
1000
1000
4300
0000
0000
0000
,
3000
0000
0000
0000
0000
0001
0200
0000
,
0310
1000
0010
0000
2000
0000
3100
0010
,
0200
0000
1300
0000
0001
0100
0010
0000
,
1000
0001
0010
0000
0100
1000
0001
0000
,
0200
0000
0000
0310
0000
0000
0000
0000
1000
0000
0100
0000
0010
0000
0000
0000
,
0001
1000
0001
1000
0100
0000
1000
0001
,
0100
0000
0010
1000
0010
0100
0010
1000
,
0000
0001
0010
0100
1000
0001
0100
0000
,
0001
1000
0000
0001
0000
1000
0000
0001
0000
0000
0000
0000
0020
0000
0000
0000
,
0130
0000
1000
0010
1000
0000
0001
0010
,
0001
1000
0001
0010
0001
0000
2000
0000
,
3010
0000
0100
0001
0100
0000
0010
1000
,
0010
0010
0010
1000
0100
0000
0020
0000
,
0130
0000
1000
0001
1000
0000
0001
0100
,
0001
1000
0001
0100
0001
0000
2000
0000
,
3100
0010
0001
0000
2000
0000
3010
0100
,
0001
1000
0000
0001
0000
1000
0000
0001
0000
0000
0000
0000
2000
0000
0000
0000
,
0200
3300
0000
0000
0000
0000
0000
0000
;

//--------------- dance-single - ----------------
#NOTES:
     dance-single:
     :
     Hard:
     12:
     0.438791,0.589684,0.04536,0.155521,0.382322,474,467,7,24,23,0,0.438791,0.589684,0.04536,0.155521,0.382322,474,467,7,24,23,0:
0000
0000
0000
0000
,
0000
0000
0000
0000
0000
M000
0000
0000
,
0000
0000
0000
0000
0000
000M
0000
0000
,
0000
0000
0000
0000
,
MMMM
0000
0000
0000
,
MMMM
0000
0000
0000
,
MMMM
0000
0000
0000
,
0000
0000
0000
0000
,
1001
0000
0001
0001
0001
0000
1000
1000
,
1000
0100
0001
0100
1000
0000
0010
0000
,
1001
0000
0000
0000
1000
0000
0010
0000
0100
0000
0000
0001
1000
0000
0100
0000
,
0010
0000
0001
1000
0001
0000
0100
0000
0100
0000
0000
0000
MMMM
0000
0000
0000
,
1000
0100
1000
0000
0001
0000
0100
0000
0020
0000
0000
0000
0030
0000
0100
0000
,
0010
0000
0000
1000
0000
0000
0001
0000
0000
0010
0000
0000
0100
0000
0000
0000
,
0010
0001
0010
0000
0100
0000
1000
0000
0001
0100
0000
0000
0010
0000
1000
0000
,
0100
0000
0000
0100
0000
0000
0200
0000
0310
0001
0000
1000
0000
1000
0001
0100
,
0010
0000
1000
0000
0100
0000
0001
0000
0100
0010
0001
0000
0100
0000
1000
0000
,
0001
0010
1000
0100
0010
0000
1001
0000
,
0001
0000
0001
0000
0001
0000
1000
0000
0010
0100
0000
0000
0010
0000
1000
0000
,
0100
0000
1000
0000
0001
0000
0100
0010
0000
1000
0001
0000
0010
0000
0100
0000
,
1000
0100
1000
0000
1000
0000
0001
0000
0100
0010
0100
0000
0100
0000
0001
0000
,
0010
0000
0010
0000
0100
1000
0100
0000
1000
0000
0001
0000
0100
0010
0100
0000
,
0001
0000
0010
0000
0100
1000
0100
0000
0010
0000
0001
0000
1000
0000
0001
0100
,
0001
0000
1000
0000
0010
0100
0010
0000
2000
0000
0100
0000
3002
0000
1000
0000
,
0203
0000
0000
0310
1000
0010
0100
0000
0001
0000
0000
0010
,
0100
1000
0100
1000
0010
1000
0002
0000
0000
0203
0000
0000
,
0310
0000
0000
1000
0001
1000
0100
0010
0000
0001
0000
0000
,
0100
0100
0100
0100
0000
0000
0000
0000
,
0001
1000
0001
1000
0001
1000
0001
0000
0100
0010
1000
0001
1000
0000
0100
0010
,
0100
1000
0000
0001
0100
0000
0010
0000
0100
0000
0001
1000
0100
0000
0010
0001
,
0020
0000
0000
0130
1000
0000
00MM
0000
1000
0000
0010
0100
0000
0010
0000
0000
,
1000
0001
1000
0000
0100
0000
0010
0000
0001
0100
0001
0000
1000
0000
0010
0100
,
0002
0000
0000
1003
0100
0000
MM00
0000
0001
0000
1000
0010
0000
1000
0100
0000
,
0010
0010
0010
0010
0101
0000
1000
1000
,
0011
0000
1000
0010
0001
0010
1000
0100
,
0010
0000
0100
1000
0100
0000
1000
0100
1000
0000
0001
0000
0100
0001
0000
0000
,
1000
0010
0000
0001
0000
0010
0000
1000
0000
0000
0001
0000
0020
0000
0000
0000
,
0130
0000
1000
1000
1000
0000
0001
0001
,
0001
0100
1000
0100
0001
0000
2000
0000
,
3100
0000
0010
0010
0010
0000
0001
0001
,
1000
0010
1000
0010
1000
0000
0001
0000
0100
0010
0000
0100
0002
0000
0000
0000
,
1003
0100
0000
0000
0010
0001
0000
0000
1000
0010
0100
0000
0000
0000
0001
0000
,
1000
0000
0100
0000
0010
0000
0100
0000
1000
0001
0100
0000
0000
0000
0000
0000
,
0010
0000
0000
0000
0010
0000
0000
0000
0100
0001
1000
0000
0000
0000
0000
0000
,
0000
0000
0100
0010
0001
0000
1000
0010
0100
0001
1000
0000
0200
0000
0000
0000
,
0310
0000
0000
0000
0001
1000
0001
0000
0001
0000
0000
0000
1000
0000
1000
0000
,
1000
0100
0001
0100
1000
0000
0001
0100
,
0010
0000
1000
0100
0010
0000
0100
1000
0001
0000
1000
0010
0100
0002
0000
0000
,
0000
0000
0000
0000
,
0100
0000
0100
0000
0100
0000
0100
0000
0103
0010
1000
0001
1000
0100
0010
0001
,
0100
0000
0000
0000
0000
0000
0000
0000
0000
0000
0000
0000
0010
0100
0010
0100
,
0001
1000
0000
0001
0010
0000
0100
0000
1000
0000
0001
0100
0010
0000
0100
0001
,
2000
0000
0000
3100
0020
0000
0030
0000
0001
0000
0100
0010
0000
0100
0000
0001
,
1000
0100
1000
0000
0001
0000
0100
0000
0010
1000
0001
0000
0010
0000
0100
1000
,
0002
0000
0000
0103
0010
0000
1000
0000
0001
0000
1000
0100
0000
1000
0010
0000
,
0100
0100
0100
0100
0011
0000
1000
1000
,
0101
0000
1000
0100
0001
0100
1000
0001
,
0100
0000
0010
1000
0010
0000
1000
0100
1000
0000
0001
0010
0001
2000
0000
0000
,
3001
0100
0000
1000
0000
0100
0000
0001
0000
0000
1000
0000
0200
0000
0310
0001
,
0100
0000
0010
0010
0010
0000
1000
1000
,
1000
0010
0001
0010
1000
0001
0020
0000
,
0130
0000
1000
1000
1000
0000
0001
0001
,
0100
0010
0100
0010
0100
0000
0001
0000
1000
0100
0000
0010
0002
0000
1003
0010
,
1000
0000
0100
0100
0100
0000
1000
1000
,
1000
0100
0001
0100
1000
0001
0200
0000
,
0310
0000
1000
0100
1000
0000
0001
0100
0001
0000
1000
0000
0010
0100
0000
0000
,
0001
0010
0000
1000
0000
0010
0000
0001
0000
0000
0000
0000
2000
0000
0000
0000
,
0002
3003
0000
0000
0000
0000
0000
0000
,
0000
0000
0000
0000
,
0000
0000
0000
0000
,
00M0
0000
0000
0000
;
