#VERSION:0.83;
#TITLE:You Belong Here;
#SUBTITLE:;
#ARTIST:JT Machinima(ft. Andrea Storm Kayden);
#TITLETRANSLIT:;
#SUBTITLETRANSLIT:;
#ARTISTTRANSLIT:;
#GENRE:;
#CREDIT:SirenwithanX;
#MUSIC:You Belong Here.ogg;
#BANNER:You Belong Here-banner.png;
#BACKGROUND:You Belong Here-bg.png;
#CDTITLE:SIrenwithanXLogo.png;
#SAMPLESTART:51.418;
#SAMPLELENGTH:13.750;
#SELECTABLE:YES;
#OFFSET:-0.078;
#BPMS:0.000=140.000
,209.000=154.540
,210.000=140.000
;
#STOPS:;
#SPEEDS:0.000=1.000=0.000=0;
#SCROLLS:0.000=1.000,
209.000=0.910,
210.000=1.000
;
#TICKCOUNTS:0.000=4;
#TIMESIGNATURES:0.000=4=4;
#LABELS:0.000=Song Start;
#COMBOS:0.000=1;
#ORIGIN:;
#PREVIEWVID:;
#JACKET:;
#DISPLAYBPM:140.000:140.000;
#CDIMAGE:;
#DISCIMAGE:;
#BGCHANGES:0.000=You Belong Here-bg.mp4=1.000=0=0=0=StretchNoLoop====,
99999.000=-nosongbg-=1.000=0=0=0=StretchNoLoop====
;
#FGCHANGES:;

//--------------- dance-single - SirenwithanX ----------------
#NOTEDATA:;
#STEPSTYPE:dance-single;
#DESCRIPTION:SirenwithanX;
#DIFFICULTY:Hard;
#METER:8;
#RADARVALUES:0.391311,0.461555,0.351821,0.15078,0,327,285,42,18,4,0,0,0,0,0.391311,0.461555,0.351821,0.15078,0,327,285,42,18,4,0,0,0,0;
#CHARTNAME:SirenwithanX;
#CHARTSTYLE:;
#CREDIT:SirenwithanX;
#NOTES:
0000
0000
0000
0000
,
0000
0000
0000
0000
,
0001
0100
0010
1000
,
0010
0100
0001
0000
,
1000
0010
0100
0001
,
0100
0010
1000
0000
,
0001
0000
0001
0000
0100
0000
1000
0010
,
1000
0001
1000
0000
0001
0000
1100
0000
,
0020
0031
0100
0001
,
0002
0000
1003
0000
1000
0010
0001
0000
,
0010
1001
0000
0100
,
2000
0000
3010
0000
0001
0000
0100
0002
,
1000
0103
1000
1001
,
0100
0010
0100
0000
0001
0000
0010
0000
,
MMMM
0000
0001
0002
,
0020
0033
0000
0010
0100
0000
2200
0000
,
3300
0000
0010
0000
1000
0000
2000
3000
,
0100
1000
0001
0000
0010
0000
0020
0000
,
0130
0010
0100
0200
,
0002
0303
0010
0021
,
0001
1030
0100
0200
,
1300
0000
0010
0000
1000
0001
1000
0000
,
0000
0000
1001
0000
0010
1000
0100
0000
,
1000
1000
1000
0001
,
1000
0010
0010
1001
,
0010
0000
0010
0001
0100
0000
0100
0000
,
0010
0000
0001
0000
1000
0010
1000
0000
,
0001
0000
0101
0000
0010
0000
1000
0100
,
1000
0100
0010
0100
,
0010
0001
1000
0100
,
2002
0000
3003
0000
0010
0100
1000
0010
,
1000
1000
0001
1000
,
0001
0000
1000
0000
0010
0000
0100
0001
,
0100
0101
0100
1000
,
1000
0001
1000
0000
1000
0000
0100
0000
,
0001
0000
0101
0000
0001
0100
0010
0000
,
0100
0000
1000
0000
0001
0000
1000
0001
,
0100
0010
1000
0010
0001
0000
0000
0000
,
0001
0000
0010
0001
1000
0100
1000
0100
,
1000
0010
1000
0100
,
1000
0000
0001
1000
0001
0100
0001
0000
,
0100
0000
0001
1000
0010
0000
1000
0000
,
0100
1100
0001
1000
,
0100
0000
1000
0010
1000
0000
0001
0000
,
0100
0010
0100
0010
,
1010
0001
0011
0001
,
1000
0001
0010
0100
,
0010
0001
0110
1000
,
0001
0100
0001
1000
,
0100
0000
0010
0001
0100
0000
0001
0000
,
1000
0001
0100
0001
,
0100
0010
1000
0100
,
0001
0100
2200
3300
,
1001
0010
0011
1000
,
1001
0100
1100
0001
,
1001
0000
0010
1000
0010
0100
0001
0000
,
1010
0100
0110
0001
,
1001
0000
0100
0000
0110
0000
1000
0010
,
1010
0000
0100
0001
0101
0000
0000
0000
,
1000
0100
1000
0010
0100
0000
0001
0000
,
0101
0000
1010
0000
,
0110
0000
0001
1000
1001
0000
0010
0100
,
0110
0000
1010
0010
,
0101
0000
0000
0000
1010
0000
0000
0100
,
0001
0000
1000
0000
,
0100
0010
0000
0000
1001
0000
0000
0010
,
0100
0010
0000
0000
1010
0000
0000
0100
,
0101
0000
0110
0000
1001
0000
0000
0100
,
0101
0000
0000
0000
0010
0000
0100
1001
;
