#VERSION:0.83;
#TITLE:ヲズワルド;
#SUBTITLE:;
#ARTIST:宮下遊;
#TITLETRANSLIT:Wozuwarudo;
#SUBTITLETRANSLIT:;
#ARTISTTRANSLIT:Miyashita Yuu;
#GENRE:Indie J-Rock;
#CREDIT:;
#MUSIC:Wozwald.ogg;
#BANNER:Wozwald.png;
#BACKGROUND:Wozwald-bg.png;
#CDTITLE:;
#SAMPLESTART:82.943;
#SAMPLELENGTH:27.446;
#SELECTABLE:YES;
#OFFSET:-0.074;
#BPMS:0.000=139.000;
#STOPS:;
#SPEEDS:0.000=1.000=0.000=0;
#SCROLLS:0.000=1.000;
#TICKCOUNTS:0.000=4;
#TIMESIGNATURES:0.000=4=4;
#LABELS:0.000=Song Start;
#COMBOS:0.000=1;
#ORIGIN:;
#TAGS:;
#PREVIEWVID:;
#JACKET:Wozwald-jacket.png;
#CDIMAGE:;
#DISCIMAGE:;
#BGCHANGES:0.000=Wozwald.avi=1.000=1=0=0=StretchNoLoop==CrossFade==,
99999.000=-nosongbg-=1.000=0=0=0=StretchNoLoop====
;
#FGCHANGES:;

//--------------- dance-single - Pruz ----------------
#NOTEDATA:;
#STEPSTYPE:dance-single;
#DESCRIPTION:Pruz;
#DIFFICULTY:Beginner;
#METER:3;
#RADARVALUES:0.102254,0.171658,0.013634,0.068169,0.006817,210,206,4,20,0,0,0,0,0,0.102254,0.171658,0.013634,0.068169,0.006817,210,206,4,20,0,0,0,0,0;
#CHARTNAME:Pruz;
#CHARTHASH:2147483647;
#BANNER:;
#CHARTSTYLE:;
#METERF:0.000000;
#LASTSECONDHINT:289.930115;
#CREDIT:Pruz;
#NOTES:
0000
0000
0000
0000
,
0000
0000
0000
0000
,
0000
0000
0000
0000
,
0000
0000
0000
0000
,
0000
0000
0000
0000
,
0000
0000
0000
0000
,
0000
0000
0000
0000
,
0000
0000
0000
0000
,
0000
0000
1000
0000
,
0000
0000
0001
0000
,
0000
0000
1000
0000
,
0000
0000
0010
0000
,
0000
0000
1000
0000
,
0000
0000
0001
0000
,
0000
0000
1000
0000
,
0000
0000
0100
0000
,
0000
0000
1000
0000
,
0000
0000
0001
0000
,
0000
0000
1000
0000
,
0000
0000
0010
0000
,
0000
0000
1000
0000
,
0000
0000
0001
0000
,
0000
0000
1000
0000
,
0000
0000
0100
0000
,
0000
0000
1000
0000
,
0000
0000
1000
0000
,
0000
0000
0001
0000
,
0000
0000
0001
0000
,
0000
0000
0010
0000
,
0000
0000
0001
0000
,
0000
0000
1000
0000
,
0000
0000
1000
0000
,
0000
0000
0010
0000
,
0000
0000
0010
0000
,
0000
0000
1000
0000
,
0000
0000
0001
0000
,
0000
0000
0010
0000
,
0000
0000
0010
0000
,
0000
0000
0001
0000
,
0000
0000
1000
0000
,
0200
0000
0000
0000
,
0300
0000
0000
0000
,
2000
0000
0000
0000
0000
0000
0000
3000
,
0000
0000
0000
0000
,
0002
0000
0000
0000
0000
0000
0000
0003
,
0000
0000
0000
0000
,
0200
0000
0000
0000
,
0000
0000
0300
0000
,
0000
0000
0001
0000
,
0000
0000
0001
0000
,
0000
0000
1000
0000
,
0000
0000
0010
0000
,
0000
0000
1000
0000
,
0000
0000
1000
0000
,
0000
0000
0001
0000
,
0000
0000
0010
0000
,
0000
0000
0001
0000
,
0000
0000
0001
0000
,
0000
0000
0100
0000
,
0000
0000
0010
0000
,
0000
0000
1000
0000
,
0000
0000
1000
0000
,
0000
0000
0000
0000
0200
0000
0000
0300
,
0000
0000
0000
1000
,
0000
0001
0000
0010
,
0000
0100
0000
0010
,
0000
0001
0000
0100
,
0000
0010
0000
1000
,
0000
0001
0000
0010
,
0000
0100
0000
0010
,
0000
0001
0000
0100
,
0000
0010
0000
1000
,
0000
0001
0000
0001
,
0000
1000
0000
1000
,
0000
0010
0000
0010
,
0000
1000
0000
0001
,
0000
0010
0000
0010
,
0000
0001
0000
0001
,
0000
1000
0000
1000
,
0000
0001
0000
1000
,
0000
0010
0000
0010
,
0000
0100
0000
0001
,
0000
0100
0000
0100
,
0000
0010
0000
1000
,
0000
0001
0000
0010
,
0000
0001
0000
0001
,
0000
1000
0000
0010
,
0000
1000
0000
1000
,
0000
0001
0000
0010
,
0000
0100
0000
1000
,
0000
0100
0000
0010
,
0000
0001
0000
1000
,
0000
0000
0001
0000
,
0000
0000
1000
0000
,
0000
0000
0010
0000
,
0200
0000
0000
0300
,
0000
0001
0000
0001
,
0000
1000
0000
1000
,
0000
0010
0000
0010
,
0000
0100
0000
0001
,
0000
1000
0000
1000
,
0000
0001
0000
0001
,
0000
0010
0000
0100
,
0000
1000
0000
0001
,
0000
1000
0000
1000
,
0000
0010
0000
0010
,
0000
0100
0000
0001
,
0000
1000
0000
0001
,
0000
0010
0000
0010
,
0000
0100
0000
0100
,
0000
1000
0000
0001
,
0000
1000
0200
0000
,
0300
0000
1000
0000
,
0000
0000
1000
0000
,
0000
0000
0001
0000
,
0000
0000
0010
0000
,
0000
0000
0001
0000
,
0000
0000
0001
0000
,
0000
0000
1000
0000
,
0000
0000
0010
0000
,
0000
0000
0100
0000
,
0000
0000
0001
0000
,
0000
0000
1000
0000
,
0000
0000
0100
0000
,
0000
0000
1000
0000
,
0000
0000
0001
0000
,
0000
0000
0100
0000
,
0000
0000
0000
0000
,
0000
0001
0000
0001
,
0000
1000
0000
1000
,
0000
0010
0000
0010
,
0000
0000
0000
0000
,
0000
1000
0000
1000
,
0000
0001
0000
0001
,
0000
0010
0000
0010
,
0000
0000
0000
0000
,
0000
0100
0000
0100
,
0000
1000
0000
1000
,
0000
0010
0000
0010
,
0000
0000
0000
0000
,
0000
0100
0000
0100
,
0000
0001
0000
0001
,
0000
0010
0000
0010
,
0000
0000
0000
0000
,
0002
0000
0003
0000
,
2000
0000
0000
3000
,
0002
0000
0000
0003
,
2000
0000
3000
0000
,
2002
0000
0000
0000
0000
0000
0000
0000
0000
0000
0000
0000
0000
0000
0000
0000
0000
0000
0000
0000
0000
0000
0000
0000
0000
0000
0000
0000
0000
0000
0000
0000
0000
0000
0000
0000
0000
0000
0000
0000
0000
0000
0000
0000
0000
0000
0000
0000
0000
0000
0000
0000
0000
0000
0000
0000
0000
0000
0000
0000
0000
0000
0000
0000
0000
0000
0000
0000
0000
0000
0000
0000
0000
0000
0000
0000
0000
0000
0000
0000
0000
0000
0000
0000
0000
0000
0000
0000
0000
0000
0000
0000
0000
0000
0000
0000
0000
0000
0000
0000
0000
0000
0000
0000
0000
0000
0000
0000
0000
0000
0000
0000
0000
0000
0000
0000
0000
0000
0000
0000
0000
0000
0000
0000
0000
0000
0000
0000
0000
0000
0000
0000
0000
0000
0000
0000
0000
0000
0000
0000
0000
0000
0000
0000
0000
0000
0000
0000
0000
0000
0000
0000
0000
0000
0000
0000
0000
0000
0000
0000
0000
0000
0000
0000
0000
0000
0000
0000
0000
0000
0000
0000
0000
0000
0000
0000
0000
0000
0000
0000
0000
0000
0000
0000
0000
0000
0000
0000
0000
0000
0000
3003
,
2002
0000
0000
0000
0000
0000
0000
0000
0000
0000
0000
0000
0000
0000
0000
0000
0000
0000
0000
0000
0000
0000
0000
0000
0000
0000
0000
0000
0000
0000
0000
0000
0000
0000
0000
0000
0000
0000
0000
0000
0000
0000
0000
0000
0000
0000
0000
0000
0000
0000
0000
0000
0000
0000
0000
0000
0000
0000
0000
0000
0000
0000
0000
0000
0000
0000
0000
0000
0000
0000
0000
0000
0000
0000
0000
0000
0000
0000
0000
0000
0000
0000
0000
0000
0000
0000
0000
0000
0000
0000
0000
0000
0000
0000
0000
0000
0000
0000
0000
0000
0000
0000
0000
0000
0000
0000
0000
0000
0000
0000
0000
0000
0000
0000
0000
0000
0000
0000
0000
0000
0000
0000
0000
0000
0000
0000
0000
0000
0000
0000
0000
0000
0000
0000
0000
0000
0000
0000
0000
0000
0000
0000
0000
0000
0000
0000
0000
0000
0000
0000
0000
0000
0000
0000
0000
0000
0000
0000
0000
0000
0000
0000
0000
0000
0000
0000
0000
0000
0000
0000
0000
0000
0000
0000
0000
0000
0000
0000
0000
0000
0000
0000
0000
0000
0000
0000
0000
0000
0000
0000
0000
3003
,
2002
0000
0000
0000
0000
0000
0000
0000
0000
0000
0000
0000
0000
0000
0000
0000
0000
0000
0000
0000
0000
0000
0000
0000
0000
0000
0000
0000
0000
0000
0000
0000
0000
0000
0000
0000
0000
0000
0000
0000
0000
0000
0000
0000
0000
0000
0000
0000
0000
0000
0000
0000
0000
0000
0000
0000
0000
0000
0000
0000
0000
0000
0000
0000
0000
0000
0000
0000
0000
0000
0000
0000
0000
0000
0000
0000
0000
0000
0000
0000
0000
0000
0000
0000
0000
0000
0000
0000
0000
0000
0000
0000
0000
0000
0000
0000
0000
0000
0000
0000
0000
0000
0000
0000
0000
0000
0000
0000
0000
0000
0000
0000
0000
0000
0000
0000
0000
0000
0000
0000
0000
0000
0000
0000
0000
0000
0000
0000
0000
0000
0000
0000
0000
0000
0000
0000
0000
0000
0000
0000
0000
0000
0000
0000
0000
0000
0000
0000
0000
0000
0000
0000
0000
0000
0000
0000
0000
0000
0000
0000
0000
0000
0000
0000
0000
0000
0000
0000
0000
0000
0000
0000
0000
0000
0000
0000
0000
0000
0000
0000
0000
0000
0000
0000
0000
0000
0000
0000
0000
0000
0000
3003
,
2002
0000
0000
0000
0000
0000
0000
0000
0000
0000
0000
0000
0000
0000
0000
0000
0000
0000
0000
0000
0000
0000
0000
0000
0000
0000
0000
0000
0000
0000
0000
0000
0000
0000
0000
0000
0000
0000
0000
0000
0000
0000
0000
0000
0000
0000
0000
0000
0000
0000
0000
0000
0000
0000
0000
0000
0000
0000
0000
0000
0000
0000
0000
0000
0000
0000
0000
0000
0000
0000
0000
0000
0000
0000
0000
0000
0000
0000
0000
0000
0000
0000
0000
0000
0000
0000
0000
0000
0000
0000
0000
0000
0000
0000
0000
0000
0000
0000
0000
0000
0000
0000
0000
0000
0000
0000
0000
0000
0000
0000
0000
0000
0000
0000
0000
0000
0000
0000
0000
0000
0000
0000
0000
0000
0000
0000
0000
0000
0000
0000
0000
0000
0000
0000
0000
0000
0000
0000
0000
0000
0000
0000
0000
0000
0000
0000
0000
0000
0000
0000
0000
0000
0000
0000
0000
0000
0000
0000
0000
0000
0000
0000
0000
0000
0000
0000
0000
0000
0000
0000
0000
0000
0000
0000
0000
0000
0000
0000
0000
0000
0000
0000
0000
0000
0000
0000
0000
0000
0000
0000
0000
3003
,
0000
0000
0000
0000
,
0000
0000
1000
0000
,
0000
0000
1000
0000
,
0000
0000
0001
0000
,
0000
0000
0010
0000
,
0000
0000
0001
0000
,
0000
0000
0001
0000
,
0000
0000
1000
0000
,
0000
0000
0010
0000
,
0000
0000
1000
0000
,
0000
0000
1000
0000
,
0000
0000
0100
0000
,
0000
0000
0010
0000
,
0000
0000
0001
0000
,
0000
0000
0001
0000
,
0000
0000
0000
0000
0200
0000
0000
0300
;

//--------------- dance-single - Pruz ----------------
#NOTEDATA:;
#STEPSTYPE:dance-single;
#DESCRIPTION:Pruz;
#DIFFICULTY:Easy;
#METER:6;
#RADARVALUES:0,0,0,0,0,0,0,0,0,0,0,0,0,0,0,0,0,0,0,0,0,0,0,0,0,0,0,0;
#CHARTNAME:Pruz;
#CHARTHASH:100;
#BANNER:;
#CHARTSTYLE:;
#METERF:0.000000;
#LASTSECONDHINT:289.714294;
#CREDIT:Pruz;
#NOTES:
0000
0000
0000
0000
,
0000
0000
0000
0000
,
0000
0000
0000
0000
,
0000
0000
0000
0000
,
0000
0000
0000
0000
,
0000
0000
0000
0000
,
0000
0000
0000
0000
,
0000
0000
0000
0000
,
0001
0000
1000
0001
,
0010
0000
0001
1000
,
0010
0000
0100
0001
,
0000
0000
0001
0000
,
1000
0000
0001
1000
,
0010
0000
1000
0001
,
0010
0000
0100
1000
,
0000
0000
1000
0000
,
0001
0000
1000
0001
,
0100
0000
0001
1000
,
0100
0000
1000
0001
,
0000
0000
0001
0000
,
1000
0000
0001
1000
,
0100
0000
1000
0001
,
0100
0000
0001
1000
,
0000
0000
1000
0000
,
0001
0010
0100
0000
,
1000
0000
0100
0000
,
1000
0010
0100
0000
,
0001
0000
0100
0000
,
0010
1000
0001
0000
,
0010
0001
1000
0000
,
0010
1000
0001
1000
,
0000
0000
1000
0001
,
0010
0001
1000
1000
,
0010
1000
0001
0001
,
0010
0100
1000
0001
,
1000
0100
0010
0000
,
0002
0003
1000
0001
,
0010
0010
0100
0020
,
0031
0000
1000
0000
0010
0000
0000
0100
,
0000
0100
0000
0010
0000
0100
0000
0000
,
0001
0000
0000
1000
0000
0000
1000
0001
,
0000
0001
0000
0000
0001
0000
0010
0000
,
0100
0000
0000
1000
0000
0000
0100
1000
,
0000
1000
0000
0000
0100
0000
0010
0000
,
0001
0000
0000
1000
0000
0000
1000
0001
,
0000
0001
0000
0000
0100
0000
0010
0000
,
1000
0000
0000
0001
0000
0000
0001
1000
,
0000
0010
0000
0000
0100
0000
0000
0000
,
0001
0000
0000
1001
0000
0000
1000
0000
,
0100
0000
0000
1100
0000
0000
1000
0000
,
0001
0010
0100
0010
,
0001
1000
0001
0200
,
0310
0000
0000
0110
0000
0000
0100
0000
,
0001
0000
0000
0101
0000
0000
0100
0000
,
0010
1000
0001
1000
,
0010
0100
0001
1000
,
0001
0000
0000
0011
0000
0000
0010
0000
,
0001
0000
0000
1001
0000
0000
1000
0000
,
0010
0100
0001
1000
,
0001
0010
0100
1000
,
0001
0000
0000
0101
0000
0000
0100
0000
,
0010
0000
0000
0110
0000
0000
0100
0000
,
0001
1000
0100
0010
,
0000
0000
0000
1001
,
0001
0001
0010
0100
,
1000
1000
0010
0100
,
0001
1000
0010
0010
,
1000
0001
0010
0100
,
1000
1000
0001
0010
,
0001
0001
1000
0010
,
1000
0001
0100
0010
,
1000
0001
0010
0100
,
1000
0001
0010
0010
,
0001
1000
0010
0010
,
1000
0001
0100
0100
,
0001
1001
0001
1001
,
1000
0100
0001
0100
,
1000
0001
0100
0001
,
1000
1000
0010
0100
,
0001
0001
0010
0100
,
1000
0001
0010
0001
,
1000
0010
0100
0001
,
1000
0001
0100
0001
,
1000
0100
0010
0001
,
1000
0001
0100
0100
,
0001
1000
0100
0100
,
1000
0001
0010
0001
,
1000
0100
1000
0001
,
0100
0100
0010
0010
,
2000
0000
3001
1000
0000
0000
0001
0000
,
0010
0010
0100
0100
,
2000
0000
3001
1000
0000
0000
0001
0000
,
0100
0000
0000
0000
0001
0000
0000
0000
2000
0000
0000
3000
0000
0000
0000
0000
,
0100
0000
0000
0000
1000
0000
0000
0000
0002
0000
0000
0003
0000
0000
0000
0000
,
0010
0100
0010
0001
,
2000
3000
0000
0000
,
0001
0000
0000
0011
0000
0000
0001
0000
,
1000
0000
0000
1010
0000
0000
1000
0000
,
0100
0001
0100
1000
,
0100
0010
0001
1000
,
0001
0000
0000
0101
0000
0000
0001
0000
,
1000
0000
0000
1100
0000
0000
1000
0000
,
0010
0001
0010
1000
,
0100
0010
0001
1000
,
0001
0000
0000
0011
0000
0000
0001
0000
,
1000
0000
0000
1010
0000
0000
1000
0000
,
0100
0001
0100
1000
,
0001
0010
0100
1000
,
0001
0000
0000
0101
0000
0000
0001
0000
,
1000
0000
0000
1100
0000
0000
1000
0000
,
0010
0001
0010
1000
,
0001
0010
0200
0000
,
1300
0000
0100
0010
,
0001
0000
0100
0010
,
1000
0000
0100
0001
,
0000
0000
0100
0000
,
1000
0000
0010
0100
,
0001
0000
0010
0100
,
1000
0000
0010
0001
,
0000
0000
0010
0000
,
1000
1000
0001
0010
,
0100
0100
0010
0001
,
1000
1000
0010
0100
,
0000
0000
0000
0000
,
0001
0001
0010
0100
,
1000
1000
0010
0100
,
0001
0001
1000
0100
,
0000
0000
0000
0000
,
1000
0001
0000
0001
,
1000
0010
0000
0010
,
0100
0001
0000
0001
,
2000
0000
0000
0000
0000
0000
0000
3000
,
0001
1000
0000
1000
,
0001
0010
0000
0010
,
0100
1000
0000
1000
,
0002
0000
0000
0000
0000
0000
0000
0003
,
1000
0001
0000
0001
,
1000
0100
0000
0100
,
0010
0001
0000
0001
,
2000
0000
0000
0000
0000
0000
0000
3000
,
0001
1000
0000
1000
,
0001
0100
0000
0100
,
0010
1000
0000
1000
,
0002
0000
0000
0000
0000
0000
0000
0003
,
0020
0100
0000
0030
,
0002
1000
0000
0003
,
0200
0010
0000
0300
,
0002
1000
0000
0003
,
2002
0000
0000
0000
0000
0000
0000
0000
0000
0000
0000
0000
0000
0000
0000
0000
0000
0000
0000
0000
0000
0000
0000
0000
0000
0000
0000
0000
0000
0000
0000
0000
0000
0000
0000
0000
0000
0000
0000
0000
0000
0000
0000
0000
0000
0000
0000
0000
0000
0000
0000
0000
0000
0000
0000
0000
0000
0000
0000
0000
0000
0000
0000
0000
0000
0000
0000
0000
0000
0000
0000
0000
0000
0000
0000
0000
0000
0000
0000
0000
0000
0000
0000
0000
0000
0000
0000
0000
0000
0000
0000
0000
0000
0000
0000
0000
0000
0000
0000
0000
0000
0000
0000
0000
0000
0000
0000
0000
0000
0000
0000
0000
0000
0000
0000
0000
0000
0000
0000
0000
0000
0000
0000
0000
0000
0000
0000
0000
0000
0000
0000
0000
0000
0000
0000
0000
0000
0000
0000
0000
0000
0000
0000
0000
0000
0000
0000
0000
0000
0000
0000
0000
0000
0000
0000
0000
0000
0000
0000
0000
0000
0000
0000
0000
0000
0000
0000
0000
0000
0000
0000
0000
0000
0000
0000
0000
0000
0000
0000
0000
0000
0000
0000
0000
0000
0000
0000
0000
0000
0000
0000
3003
,
2002
0000
0000
0000
0000
0000
0000
0000
0000
0000
0000
0000
0000
0000
0000
0000
0000
0000
0000
0000
0000
0000
0000
0000
0000
0000
0000
0000
0000
0000
0000
0000
0000
0000
0000
0000
0000
0000
0000
0000
0000
0000
0000
0000
0000
0000
0000
0000
0000
0000
0000
0000
0000
0000
0000
0000
0000
0000
0000
0000
0000
0000
0000
0000
0000
0000
0000
0000
0000
0000
0000
0000
0000
0000
0000
0000
0000
0000
0000
0000
0000
0000
0000
0000
0000
0000
0000
0000
0000
0000
0000
0000
0000
0000
0000
0000
0000
0000
0000
0000
0000
0000
0000
0000
0000
0000
0000
0000
0000
0000
0000
0000
0000
0000
0000
0000
0000
0000
0000
0000
0000
0000
0000
0000
0000
0000
0000
0000
0000
0000
0000
0000
0000
0000
0000
0000
0000
0000
0000
0000
0000
0000
0000
0000
0000
0000
0000
0000
0000
0000
0000
0000
0000
0000
0000
0000
0000
0000
0000
0000
0000
0000
0000
0000
0000
0000
0000
0000
0000
0000
0000
0000
0000
0000
0000
0000
0000
0000
0000
0000
0000
0000
0000
0000
0000
0000
0000
0000
0000
0000
0000
3003
,
2002
0000
0000
0000
0000
0000
0000
0000
0000
0000
0000
0000
0000
0000
0000
0000
0000
0000
0000
0000
0000
0000
0000
0000
0000
0000
0000
0000
0000
0000
0000
0000
0000
0000
0000
0000
0000
0000
0000
0000
0000
0000
0000
0000
0000
0000
0000
0000
0000
0000
0000
0000
0000
0000
0000
0000
0000
0000
0000
0000
0000
0000
0000
0000
0000
0000
0000
0000
0000
0000
0000
0000
0000
0000
0000
0000
0000
0000
0000
0000
0000
0000
0000
0000
0000
0000
0000
0000
0000
0000
0000
0000
0000
0000
0000
0000
0000
0000
0000
0000
0000
0000
0000
0000
0000
0000
0000
0000
0000
0000
0000
0000
0000
0000
0000
0000
0000
0000
0000
0000
0000
0000
0000
0000
0000
0000
0000
0000
0000
0000
0000
0000
0000
0000
0000
0000
0000
0000
0000
0000
0000
0000
0000
0000
0000
0000
0000
0000
0000
0000
0000
0000
0000
0000
0000
0000
0000
0000
0000
0000
0000
0000
0000
0000
0000
0000
0000
0000
0000
0000
0000
0000
0000
0000
0000
0000
0000
0000
0000
0000
0000
0000
0000
0000
0000
0000
0000
0000
0000
0000
0000
3003
,
2002
0000
0000
0000
0000
0000
0000
0000
0000
0000
0000
0000
0000
0000
0000
0000
0000
0000
0000
0000
0000
0000
0000
0000
0000
0000
0000
0000
0000
0000
0000
0000
0000
0000
0000
0000
0000
0000
0000
0000
0000
0000
0000
0000
0000
0000
0000
0000
0000
0000
0000
0000
0000
0000
0000
0000
0000
0000
0000
0000
0000
0000
0000
0000
0000
0000
0000
0000
0000
0000
0000
0000
0000
0000
0000
0000
0000
0000
0000
0000
0000
0000
0000
0000
0000
0000
0000
0000
0000
0000
0000
0000
0000
0000
0000
0000
0000
0000
0000
0000
0000
0000
0000
0000
0000
0000
0000
0000
0000
0000
0000
0000
0000
0000
0000
0000
0000
0000
0000
0000
0000
0000
0000
0000
0000
0000
0000
0000
0000
0000
0000
0000
0000
0000
0000
0000
0000
0000
0000
0000
0000
0000
0000
0000
0000
0000
0000
0000
0000
0000
0000
0000
0000
0000
0000
0000
0000
0000
0000
0000
0000
0000
0000
0000
0000
0000
0000
0000
0000
0000
0000
0000
0000
0000
0000
0000
0000
0000
0000
0000
0000
0000
0000
0000
0000
0000
0000
0000
0000
0000
0000
3003
,
0000
0000
0000
0000
,
1000
0000
0000
1100
0000
0000
0100
0000
,
1000
0000
0000
1001
0000
0000
0001
0000
,
0100
1000
0100
0001
,
0010
0100
1000
0001
,
1000
0000
0000
1010
0000
0000
1000
0000
,
0001
0000
0000
0011
0000
0000
0010
0000
,
0001
0100
1000
0100
,
0001
0010
0100
1000
,
0001
0000
0000
0010
0000
0000
0001
0000
,
1000
0000
0000
0010
0000
0000
1000
0000
,
0100
0010
0001
1000
,
0001
0100
0010
1000
,
0001
0000
0000
0011
0000
0000
0010
0000
,
0001
0000
0000
1001
0000
0000
1000
0000
,
0010
0100
0001
1000
;

//--------------- dance-single - Pruz ----------------
#NOTEDATA:;
#STEPSTYPE:dance-single;
#DESCRIPTION:Pruz;
#DIFFICULTY:Medium;
#METER:9;
#RADARVALUES:0,0,0,0,0,0,0,0,0,0,0,0,0,0,0,0,0,0,0,0,0,0,0,0,0,0,0,0;
#CHARTNAME:Pruz;
#CHARTHASH:94;
#BANNER:;
#CHARTSTYLE:;
#METERF:0.000000;
#LASTSECONDHINT:289.930115;
#CREDIT:Pruz;
#NOTES:
0000
0000
0000
0000
,
0000
0000
0000
0000
,
0000
0000
0000
0000
,
0000
0000
0000
0000
,
0000
0000
0000
0000
,
0000
0000
0000
0000
,
0000
0000
0000
0000
,
0000
0000
0000
0000
,
2000
3000
0000
0100
0000
1000
0001
0000
,
0002
0003
0000
0100
0000
0001
1000
0000
,
1000
0000
0000
0010
0000
0100
0001
2000
,
3000
0200
0300
0020
0030
0200
0300
0000
,
2000
3000
0000
0100
0000
1000
0001
0000
,
0002
0003
0000
0100
0000
0001
1000
0000
,
2000
3000
0000
0010
0000
0100
0001
2000
,
3000
0020
0030
0200
0300
0020
0030
0000
,
2000
3000
0000
0100
0000
0010
0001
0000
,
2000
3000
0000
0010
0000
0100
0001
0000
,
1000
0000
0000
0001
0000
0010
0001
2000
,
3000
0200
0300
0002
0003
0200
0300
0000
,
2000
3000
0000
0001
0000
0100
0010
0000
,
2000
3000
0000
0001
0000
0010
0100
0000
,
2000
3000
0000
0100
0000
0010
0001
2000
,
3000
0020
0030
0002
0003
0020
0030
0000
,
1000
0000
0000
0001
0000
0001
0000
0000
,
0000
0000
0000
0010
0000
0010
0000
0000
,
0000
0000
0000
0100
0000
0100
0000
1000
,
0000
0001
0000
0100
0001
1000
0100
1000
,
0001
0000
0000
0011
0000
0001
0000
0000
,
0000
0000
0000
1010
0000
1000
0000
0000
,
0000
0000
0000
0001
0000
0001
0000
0100
,
0000
0010
0000
1000
0001
1000
0100
0000
,
1000
0000
0000
0001
0000
0001
0000
0000
,
0000
0000
0000
0010
0000
0010
0000
0000
,
0000
0000
0000
0100
0000
0100
0000
1000
,
0000
0001
0000
0100
0001
1000
0001
0100
,
0020
0000
0000
1030
0000
1000
0000
0000
,
0000
0000
0000
0100
0000
0100
0000
0000
,
0000
0000
0000
0010
0000
0010
0000
0001
,
0000
1000
0000
0001
0100
0001
1000
0001
,
0020
0000
0000
0130
0000
0000
1000
0001
,
0000
0001
0000
1000
0010
0000
0100
0000
,
0002
0000
0000
1003
0000
0100
0010
0001
,
0000
0001
0000
1000
0001
0000
1000
0000
,
0020
0000
0000
0130
0000
0000
0001
1000
,
0000
1000
0000
0001
0010
0000
0100
0000
,
1000
0000
0000
0001
0000
1000
0010
0100
,
0000
0001
0010
0100
1000
0000
0000
0000
,
0001
1000
0000
1010
0000
0000
0010
0000
,
1000
0001
0000
0011
0000
0010
0000
0000
,
0002
0203
2300
3200
,
0310
1000
0001
0000
0010
0000
0200
0000
,
1300
0001
0000
0101
0000
0000
0100
0000
,
0010
1000
0000
1100
0000
0100
0000
0000
,
2000
3020
0032
0023
,
1030
0001
0010
0000
0100
0000
2000
3000
,
0001
1000
0000
1010
0000
0000
0010
0000
,
1000
0001
0000
0011
0000
0001
0000
0000
,
2000
3200
0302
0203
,
1300
0001
0020
0000
0130
0000
2000
3000
,
0001
1000
0000
1100
0000
0000
0100
0000
,
1000
0001
0000
0101
0000
0100
0000
0000
,
0002
0000
0203
0000
2300
0000
3200
0301
,
0000
0000
0000
1001
,
1000
0000
0000
0010
0000
0010
1000
0000
,
0001
0000
0000
0010
0000
0010
0001
0000
,
1000
0000
0000
0100
0000
0100
1000
0000
,
0001
0000
0000
0100
0000
0100
0001
0000
,
1000
0000
0000
0010
0000
0010
1000
0000
,
0001
0000
0000
0010
0000
0010
0001
0000
,
1000
0000
0000
0100
0000
0100
1000
0000
,
0001
1000
0000
0010
0000
0010
0100
0000
,
0002
0000
0000
0000
1000
0000
0000
0000
0010
0000
0000
1003
0000
0000
0000
0000
,
2000
0000
0000
0000
0001
0000
0000
0000
0100
0000
0000
3001
0000
0000
0000
0000
,
0100
0010
1000
0001
,
0020
0000
0000
0030
1000
0000
0000
0000
0020
0000
0000
0030
0001
0000
0000
0000
,
2000
0000
3001
0000
0020
0000
0031
0000
2000
0000
3001
0000
0200
0000
0000
0300
,
0010
0000
0000
0000
2000
0000
0000
3001
0000
0000
0000
0000
0001
0000
0000
0000
,
0010
0000
0100
0000
1000
0001
0100
0000
,
0020
0000
0130
0000
0001
1000
1000
1000
,
0001
0000
0000
0010
0000
0000
0100
0000
1000
0000
0000
0010
0000
0000
0100
0000
,
0001
0000
0000
0010
0000
0000
0100
0000
0010
0000
0000
0000
0001
0000
0000
0000
,
1000
0000
0000
0010
0000
0000
0100
0000
0001
0000
0000
0010
0000
0000
0100
0000
,
1000
0000
0000
0100
0000
0000
0010
0000
0100
0000
1000
0000
1000
0000
1000
0000
,
0001
0000
0000
0010
0000
0000
0100
0000
1000
0000
0000
0000
0001
0000
0000
0000
,
1000
0000
0000
0010
0000
0000
0100
0000
0001
0000
0000
0000
1000
0000
0000
0000
,
0100
0000
0001
0000
0100
0000
1000
0001
,
0100
0000
0000
0000
0010
0000
0000
0000
1000
0000
0000
0001
0000
0000
0000
0000
,
0010
0000
0000
0000
0100
0000
0000
0010
0000
0000
0001
0000
1000
0000
0000
0000
,
0020
0000
1030
0001
0000
0001
0020
0000
,
0130
0000
0100
0000
1000
0000
0001
1000
,
0020
0000
0130
0001
2000
0000
3001
0000
,
0010
0000
0000
0000
0010
0000
0000
0000
0100
0000
0000
1000
0000
0000
0000
0000
,
0010
0000
0000
0000
0010
0000
0000
0000
0100
0000
0000
0001
0000
0000
0000
0000
,
1000
0020
0031
0020
,
1030
0000
0000
0000
,
1000
0001
0000
0011
0000
0000
0010
0000
,
0001
1000
0000
1010
0000
0010
0000
0000
,
2000
3200
0302
0203
,
0310
0001
1000
0000
0010
0000
0200
0000
,
0301
1000
0000
1100
0000
0000
0100
0000
,
0010
0001
0000
0101
0000
0100
0000
0000
,
0002
0023
2030
3020
,
0031
1000
0010
0000
0100
0000
0002
0003
,
1000
0001
0000
0011
0000
0000
0010
0000
,
0001
1000
0000
1010
0000
1000
0000
0000
,
0002
0203
2300
3200
,
0301
1000
0020
0000
0130
0000
0002
0003
,
1000
0001
0000
0101
0000
0000
0100
0000
,
0001
1000
0000
1100
0000
0100
0000
0000
,
2000
0000
3200
0000
0302
0000
0203
1300
,
0100
0010
0001
0000
0200
0000
0000
0000
,
0320
0030
0000
1000
0000
0001
1000
0000
,
0200
0300
0000
1000
0000
0001
1000
0000
,
0020
0030
0000
0100
0000
0001
1000
0100
,
0000
0100
0000
0010
0000
0010
0000
0000
,
0200
0300
0000
1000
0000
0001
1000
0000
,
0020
0030
0000
1000
0000
0001
1000
0000
,
0200
0300
0000
0010
0000
0001
1000
0010
,
0000
0010
0000
0100
0000
0100
0000
0000
,
0001
0000
0000
1000
0000
0100
1000
0000
,
0001
0000
0000
0010
0000
0100
1000
0000
,
0001
0000
0000
1000
0000
0010
1000
0000
,
0001
0000
0000
0000
0010
0000
0000
0100
0000
0000
1000
0000
0000
0000
0000
0000
,
0002
0000
0000
0103
0000
0001
1000
0000
,
0001
0000
0000
0010
0000
0001
1000
0000
,
0010
0000
0000
0100
0000
0001
1000
0100
,
0000
0100
0000
0000
0000
0000
0000
0000
,
1001
0000
2000
3020
0130
0000
0002
0003
,
1001
0000
2000
3200
0310
0000
0002
0003
,
1001
0000
2000
3020
0130
0000
0002
0003
,
1001
0001
0000
0010
0000
0100
0000
1000
,
1001
0000
2000
3200
0310
0000
0002
0003
,
1001
0000
2000
3020
0130
0000
0002
0003
,
1001
0000
2000
3200
0310
0000
0002
0003
,
1001
0001
0000
0100
0000
0010
0000
1000
,
1001
0000
2000
3020
0130
0000
0002
0003
,
1001
0000
2000
3200
0310
0000
0002
0003
,
1001
0000
2000
3020
0130
0000
0002
0003
,
1001
0001
0000
0010
0000
0100
0000
1000
,
1001
0000
2000
3200
0310
0000
0002
0003
,
1001
0000
2000
3020
0130
0000
0002
0003
,
1001
0000
2000
3200
0310
0000
0002
0003
,
1001
0001
0000
0100
0000
0010
0000
1000
,
1002
1000
0000
0100
0000
1003
0000
0000
,
2001
0001
0000
0100
0000
0001
3000
0000
,
1002
1000
0000
0010
0000
1003
0000
0000
,
2001
0001
0000
0010
0000
0001
3000
0000
,
2002
0000
0000
0000
0000
0000
0000
0000
0000
0000
0000
0000
0000
0000
0000
0000
0000
0000
0000
0000
0000
0000
0000
0000
0000
0000
0000
0000
0000
0000
0000
0000
0000
0000
0000
0000
0000
0000
0000
0000
0000
0000
0000
0000
0000
0000
0000
0000
0000
0000
0000
0000
0000
0000
0000
0000
0000
0000
0000
0000
0000
0000
0000
0000
0000
0000
0000
0000
0000
0000
0000
0000
0000
0000
0000
0000
0000
0000
0000
0000
0000
0000
0000
0000
0000
0000
0000
0000
0000
0000
0000
0000
0000
0000
0000
0000
0000
0000
0000
0000
0000
0000
0000
0000
0000
0000
0000
0000
0000
0000
0000
0000
0000
0000
0000
0000
0000
0000
0000
0000
0000
0000
0000
0000
0000
0000
0000
0000
0000
0000
0000
0000
0000
0000
0000
0000
0000
0000
0000
0000
0000
0000
0000
0000
0000
0000
0000
0000
0000
0000
0000
0000
0000
0000
0000
0000
0000
0000
0000
0000
0000
0000
0000
0000
0000
0000
0000
0000
0000
0000
0000
0000
0000
0000
0000
0000
0000
0000
0000
0000
0000
0000
0000
0000
0000
0000
0000
0000
0000
0000
0000
3003
,
0220
0000
0000
0000
0000
0000
0000
0000
0000
0000
0000
0000
0000
0000
0000
0000
0000
0000
0000
0000
0000
0000
0000
0000
0000
0000
0000
0000
0000
0000
0000
0000
0000
0000
0000
0000
0000
0000
0000
0000
0000
0000
0000
0000
0000
0000
0000
0000
0000
0000
0000
0000
0000
0000
0000
0000
0000
0000
0000
0000
0000
0000
0000
0000
0000
0000
0000
0000
0000
0000
0000
0000
0000
0000
0000
0000
0000
0000
0000
0000
0000
0000
0000
0000
0000
0000
0000
0000
0000
0000
0000
0000
0000
0000
0000
0000
0000
0000
0000
0000
0000
0000
0000
0000
0000
0000
0000
0000
0000
0000
0000
0000
0000
0000
0000
0000
0000
0000
0000
0000
0000
0000
0000
0000
0000
0000
0000
0000
0000
0000
0000
0000
0000
0000
0000
0000
0000
0000
0000
0000
0000
0000
0000
0000
0000
0000
0000
0000
0000
0000
0000
0000
0000
0000
0000
0000
0000
0000
0000
0000
0000
0000
0000
0000
0000
0000
0000
0000
0000
0000
0000
0000
0000
0000
0000
0000
0000
0000
0000
0000
0000
0000
0000
0000
0000
0000
0000
0000
0000
0000
0000
0330
,
2002
0000
0000
0000
0000
0000
0000
0000
0000
0000
0000
0000
0000
0000
0000
0000
0000
0000
0000
0000
0000
0000
0000
0000
0000
0000
0000
0000
0000
0000
0000
0000
0000
0000
0000
0000
0000
0000
0000
0000
0000
0000
0000
0000
0000
0000
0000
0000
0000
0000
0000
0000
0000
0000
0000
0000
0000
0000
0000
0000
0000
0000
0000
0000
0000
0000
0000
0000
0000
0000
0000
0000
0000
0000
0000
0000
0000
0000
0000
0000
0000
0000
0000
0000
0000
0000
0000
0000
0000
0000
0000
0000
0000
0000
0000
0000
0000
0000
0000
0000
0000
0000
0000
0000
0000
0000
0000
0000
0000
0000
0000
0000
0000
0000
0000
0000
0000
0000
0000
0000
0000
0000
0000
0000
0000
0000
0000
0000
0000
0000
0000
0000
0000
0000
0000
0000
0000
0000
0000
0000
0000
0000
0000
0000
0000
0000
0000
0000
0000
0000
0000
0000
0000
0000
0000
0000
0000
0000
0000
0000
0000
0000
0000
0000
0000
0000
0000
0000
0000
0000
0000
0000
0000
0000
0000
0000
0000
0000
0000
0000
0000
0000
0000
0000
0000
0000
0000
0000
0000
0000
0000
3003
,
0220
0000
0000
0000
0000
0000
0000
0000
0000
0000
0000
0000
0000
0000
0000
0000
0000
0000
0000
0000
0000
0000
0000
0000
0000
0000
0000
0000
0000
0000
0000
0000
0000
0000
0000
0000
0000
0000
0000
0000
0000
0000
0000
0000
0000
0000
0000
0000
0000
0000
0000
0000
0000
0000
0000
0000
0000
0000
0000
0000
0000
0000
0000
0000
0000
0000
0000
0000
0000
0000
0000
0000
0000
0000
0000
0000
0000
0000
0000
0000
0000
0000
0000
0000
0000
0000
0000
0000
0000
0000
0000
0000
0000
0000
0000
0000
0000
0000
0000
0000
0000
0000
0000
0000
0000
0000
0000
0000
0000
0000
0000
0000
0000
0000
0000
0000
0000
0000
0000
0000
0000
0000
0000
0000
0000
0000
0000
0000
0000
0000
0000
0000
0000
0000
0000
0000
0000
0000
0000
0000
0000
0000
0000
0000
0000
0000
0000
0000
0000
0000
0000
0000
0000
0000
0000
0000
0000
0000
0000
0000
0000
0000
0000
0000
0000
0000
0000
0000
0000
0000
0000
0000
0000
0000
0000
0000
0000
0000
0000
0000
0000
0000
0000
0000
0000
0000
0000
0000
0000
0000
0000
0330
,
0000
0000
0000
0000
,
0001
1000
0000
1010
0000
0000
0010
0000
,
1000
0001
0000
0011
0000
0010
0000
0000
,
0002
0203
2300
3200
,
0310
1000
0001
0000
0010
0000
0200
0000
,
1300
0001
0000
0101
0000
0000
0100
0000
,
0010
1000
0000
1100
0000
0100
0000
0000
,
2000
3020
0032
0023
,
1030
0001
0010
0000
0100
0000
2000
3000
,
0001
1000
0000
1010
0000
0000
0010
0000
,
1000
0001
0000
0011
0000
0001
0000
0000
,
2000
3200
0302
0203
,
1300
0001
0020
0000
0130
0000
2000
3000
,
0001
1000
0000
1100
0000
0000
0100
0000
,
1000
0001
0000
0101
0000
0100
0000
0000
,
0002
0000
0203
0000
2300
0000
3200
0301
;

//--------------- dance-single - Pruz ----------------
#NOTEDATA:;
#STEPSTYPE:dance-single;
#DESCRIPTION:Pruz;
#DIFFICULTY:Hard;
#METER:11;
#RADARVALUES:0,0,0,0,0,0,0,0,0,0,0,0,0,0,0,0,0,0,0,0,0,0,0,0,0,0,0,0;
#CHARTNAME:Pruz;
#CHARTHASH:1101004800;
#BANNER:;
#CHARTSTYLE:;
#METERF:0.000000;
#LASTSECONDHINT:289.930115;
#CREDIT:Pruz;
#NOTES:
0000
0000
0000
0000
,
0000
0000
0000
0000
,
0000
0000
0000
0000
,
0000
0000
0000
0000
,
0000
0000
0000
0000
,
0000
0000
0000
0000
,
0000
0000
0000
0000
,
0000
0000
0000
0000
,
2000
3001
0000
0010
0001
1000
0100
0000
,
2000
3001
0000
0100
0001
1000
0010
0000
,
2000
3000
0000
0002
0103
1000
0100
0010
,
0000
1010
0000
1000
0001
0100
0000
0000
,
0002
1003
0000
0100
1000
0001
0010
0000
,
0002
1003
0000
0010
1000
0001
0100
0000
,
0002
0003
0000
2000
3010
0001
0010
0100
,
0000
0101
0000
0001
1000
0100
0000
0000
,
2000
3001
0000
0010
0001
1000
0100
0000
,
2000
3010
0000
0100
0001
1000
0010
0000
,
2000
3000
0000
0001
0100
1000
0100
0010
,
0000
1010
0000
1000
0001
0100
0000
0000
,
0002
1003
0000
0100
1000
0001
0010
0000
,
0002
1003
0000
0010
1000
0001
0100
0000
,
0020
0030
0000
2000
3010
0001
0010
0100
,
0000
0101
0000
0001
1000
0100
0000
1000
,
1000
0001
0000
1000
0010
0100
0001
0001
,
0000
1000
0100
0010
0001
0001
0000
1000
,
1000
0000
0100
1000
0001
0100
0000
0010
,
1000
0001
0000
1000
0100
1000
0001
1000
,
0010
0100
0001
0101
0000
0001
0001
1000
,
0100
0010
0001
0011
0000
0001
0001
1000
,
0010
0000
0000
0000
0100
0000
0001
0000
1000
0000
0001
0000
0000
0000
0020
0030
,
0000
0000
0200
0300
1000
0000
0001
0000
0010
0000
0001
0000
1000
0000
0000
0000
,
0100
0100
1000
0001
0100
0010
0000
0010
,
1000
0000
0001
1000
0100
1000
0001
0000
,
0010
0000
0001
1000
0001
0100
0000
0001
,
1000
0001
0000
0010
0001
1000
0100
0010
,
0002
0000
0000
1003
0010
1000
0001
1000
,
0100
0000
0010
0001
1000
0001
0200
0000
,
0310
0000
0000
0000
0100
0000
0001
0000
1000
0000
0001
0000
0010
0000
0200
0300
,
0000
0000
0200
0300
0000
0000
2000
3000
0001
0000
0020
0030
0001
0000
2000
3000
,
0100
0000
0000
0010
0000
0000
0100
1000
,
0000
0001
0000
1000
0010
1000
0001
0010
,
0100
0000
0000
0010
0000
0100
1000
0001
,
0000
0010
0001
1000
0001
0100
0010
0000
,
1000
0000
0000
0001
0000
0000
1000
0100
,
0000
0010
0000
0100
1000
0001
1000
0100
,
0010
0000
0000
0001
0000
1000
0001
0100
,
0000
0001
1000
0100
0010
0000
0000
0000
,
0002
1003
0000
1010
0010
0000
1000
0000
,
0001
1000
0000
1100
0100
0010
0000
0000
,
0002
0000
1003
0000
1010
0000
0010
1000
,
0001
1000
0100
0000
0110
0000
0010
0000
,
0002
1003
0000
1010
0010
0000
0100
0000
,
0001
1000
0000
1100
0100
0010
0000
0000
,
0002
0000
1003
0000
1010
0000
0010
1000
,
0001
1000
0100
0000
1100
0000
1000
0000
,
0002
1003
0000
1010
0010
0000
0100
0000
,
0001
1000
0000
1100
0100
1000
0000
0000
,
0002
0000
0103
0000
0101
0000
0001
1000
,
0100
1000
0001
0000
0011
0000
0001
0000
,
2000
3010
0000
0110
0100
0000
0001
0000
,
1000
0001
0000
0011
0001
1000
0000
0000
,
0002
0000
0103
0000
0110
0000
0010
1000
,
0000
0000
0000
1001
,
2000
3001
0000
0000
0001
0000
0010
0000
0000
0000
0010
0000
0100
0000
0000
0000
,
2000
3001
0000
0000
0001
0000
0100
0000
0000
0000
0100
0000
0010
0000
0000
0000
,
2000
3001
0000
0000
0001
0000
0010
0000
0000
0000
0010
0000
0001
0000
0000
0000
,
2000
3001
0000
0000
1000
0000
0010
0000
0000
0000
0010
0000
1000
0000
0000
0000
,
0002
1003
0000
0000
1000
0000
0010
0000
0000
0000
0010
0000
0100
0000
0000
0000
,
0002
1003
0000
0000
1000
0000
0100
0000
0000
0000
0100
0000
0010
0000
0000
0000
,
0002
1003
0000
0000
1000
0000
0010
0000
0000
0000
0010
0000
1000
0000
0000
0000
,
0002
1003
0000
0000
0001
0000
0010
0000
0000
0000
0010
0000
0001
0000
1000
0000
,
0100
0000
0001
0000
0100
0000
1000
0000
0001
0000
0000
0001
0000
0000
0100
0000
,
0001
0000
1000
0000
0001
0000
0100
0000
0010
0000
0000
1000
0000
0000
0001
0000
,
1000
0000
0100
0000
0001
0000
0100
0000
1000
0000
0000
1000
0000
0000
1000
0000
,
0001
0000
0100
0000
0001
0000
1000
0000
0001
0000
0000
0010
0000
0000
0001
0000
,
1000
0002
0103
0002
1003
0002
0013
0000
,
0200
0000
0000
0000
2300
0000
0000
3001
0000
0000
0000
0000
0100
0000
0001
0000
,
1000
0000
0100
0000
0010
0001
1000
0000
,
0020
0000
0130
0001
1000
0001
0001
0001
,
2000
0000
3000
0100
0000
0000
0010
0000
0002
0000
0003
1000
0000
0000
0010
0000
,
0200
0000
0300
0001
0000
0000
1000
0000
0001
0000
0000
0000
0010
0000
0100
0000
,
2000
0000
3000
0100
0000
0000
0010
0000
0002
0000
0003
0100
0000
0000
0010
0000
,
2000
3002
1003
0000
0100
1000
1000
1000
,
0001
0000
0000
0100
0000
0000
0010
0000
1000
0000
0000
0000
0002
0000
0003
0000
,
2000
0000
3000
0200
0000
0300
0020
0000
0031
0000
0000
0000
1000
0000
0000
0000
,
0001
0010
0100
0000
1000
0000
0001
0100
,
0010
0000
0000
0000
1000
0000
0000
0000
0001
0000
0000
0010
0000
0000
0001
0000
,
1000
0000
0001
0000
0100
0000
0000
0010
0000
0000
1000
0000
0001
0000
0000
0000
,
2000
0000
3100
0010
0000
0100
2000
0000
,
3001
0100
0001
1000
0100
0000
1000
0001
,
0100
0000
0010
1000
0001
0000
0010
0000
,
0100
0000
1000
0000
0001
0000
1000
0000
0200
0000
0000
0310
0000
0000
0001
0000
,
0100
0000
0001
0000
1000
0000
0001
0000
0200
0000
0000
0310
0000
0000
1000
0000
,
0002
0000
0023
0000
0230
0000
1300
0001
,
2000
3001
1000
1001
,
2000
3001
0000
0011
0010
0000
0002
0003
,
2000
3001
0000
0101
0100
0010
0000
0000
,
2000
0000
3001
0000
0011
0000
0010
0001
,
1000
0001
0100
0000
0110
0000
0010
0000
,
2000
3001
0000
0011
0010
0000
0100
0000
,
2000
3001
0000
0101
0100
0010
0000
0000
,
2000
0000
3001
0000
0011
0000
0010
0001
,
1000
0001
0100
0000
0101
0000
0001
0000
,
2000
3001
0000
0011
0010
0000
0200
0300
,
2000
3001
0000
0101
0100
0001
0000
0000
,
1000
0000
0100
0000
1100
0000
1000
0001
,
0100
0001
1000
0000
1010
0000
1000
0000
,
0002
0013
0000
0110
0100
0000
2000
0000
,
3002
0103
0000
0110
0010
1000
0000
0000
,
0001
0000
0010
0000
0110
0000
0100
1000
,
0001
0100
0010
0000
0210
0000
0000
0000
,
0301
1000
0000
1000
0010
0100
0001
0000
,
0001
0010
0000
0010
0100
1000
0001
0000
,
0100
0000
0000
0001
1000
0100
1000
0001
,
0000
0010
0000
0100
1000
0001
0000
0000
,
0100
0001
0000
0001
0010
0100
1000
0000
,
1000
0010
0000
0010
0100
0001
1000
0000
,
0001
0000
0000
0010
0100
1000
0100
0010
,
0000
0001
0000
1000
0010
0100
0000
0000
,
0001
1000
0000
0001
0010
0100
1000
0000
,
0001
1000
0000
0010
0100
0001
1000
0000
,
0100
0010
0000
0001
1000
0010
1000
0001
,
0100
0000
0010
0000
1000
0000
0001
1000
0000
0000
2000
0000
3000
0000
0000
0000
,
0002
0023
0030
0020
0130
1000
0001
0000
,
0100
0010
0000
1000
0001
0010
0200
0000
,
1300
0000
0001
0000
0000
0000
0001
0000
0100
0000
0010
0000
1000
0000
0002
0003
,
0000
0000
2000
3000
0000
0000
0000
0000
0000
0000
0000
0000
0000
0000
0000
0000
,
1002
0000
1003
0010
0100
0000
0100
0001
,
1002
0000
1003
0100
0010
0000
0010
0001
,
1002
0000
1003
0010
0001
0000
0010
1000
,
2001
0001
0000
3002
0000
1000
0000
1003
,
2001
0000
3001
0010
0100
0000
0100
1000
,
2001
0000
3001
0100
0010
0000
0010
1000
,
2001
0000
3001
0010
1000
0000
0010
0001
,
1002
1000
0000
2003
0000
0001
0000
3001
,
0102
0000
0103
0001
1000
0000
1000
0100
,
1200
0000
1300
0001
0100
0000
0001
1000
,
2010
0000
3010
1000
0001
0000
0010
0001
,
0012
0010
0000
0023
0000
0100
0000
0130
,
2100
0000
3100
1000
0001
0000
0001
0100
,
0201
0000
0301
1000
0100
0000
1000
0001
,
0012
0000
0013
0001
1000
0000
0010
1000
,
2010
0010
0000
3200
0000
0001
0000
1300
,
1002
1000
0010
0010
0000
1003
1000
0000
,
2001
0001
0010
0010
0000
0001
3001
0000
,
1002
1000
0100
0100
0000
1003
1000
0000
,
2001
0001
0100
0100
0000
0001
3001
0000
,
2002
0000
0000
0000
0000
0000
0000
0000
0000
0000
0000
0000
0000
0000
0000
0000
0000
0000
0000
0000
0000
0000
0000
0000
0000
0000
0000
0000
0000
0000
0000
0000
0000
0000
0000
0000
0000
0000
0000
0000
0000
0000
0000
0000
0000
0000
0000
0000
0000
0000
0000
0000
0000
0000
0000
0000
0000
0000
0000
0000
0000
0000
0000
0000
0000
0000
0000
0000
0000
0000
0000
0000
0000
0000
0000
0000
0000
0000
0000
0000
0000
0000
0000
0000
0000
0000
0000
0000
0000
0000
0000
0000
0000
0000
0000
0000
0000
0000
0000
0000
0000
0000
0000
0000
0000
0000
0000
0000
0000
0000
0000
0000
0000
0000
0000
0000
0000
0000
0000
0000
0000
0000
0000
0000
0000
0000
0000
0000
0000
0000
0000
0000
0000
0000
0000
0000
0000
0000
0000
0000
0000
0000
0000
0000
0000
0000
0000
0000
0000
0000
0000
0000
0000
0000
0000
0000
0000
0000
0000
0000
0000
0000
0000
0000
0000
0000
0000
0000
0000
0000
0000
0000
0000
0000
0000
0000
0000
0000
0000
0000
0000
0000
0000
0000
0000
0000
0000
0000
0000
0000
0000
3003
,
0220
0000
0000
0000
0000
0000
0000
0000
0000
0000
0000
0000
0000
0000
0000
0000
0000
0000
0000
0000
0000
0000
0000
0000
0000
0000
0000
0000
0000
0000
0000
0000
0000
0000
0000
0000
0000
0000
0000
0000
0000
0000
0000
0000
0000
0000
0000
0000
0000
0000
0000
0000
0000
0000
0000
0000
0000
0000
0000
0000
0000
0000
0000
0000
0000
0000
0000
0000
0000
0000
0000
0000
0000
0000
0000
0000
0000
0000
0000
0000
0000
0000
0000
0000
0000
0000
0000
0000
0000
0000
0000
0000
0000
0000
0000
0000
0000
0000
0000
0000
0000
0000
0000
0000
0000
0000
0000
0000
0000
0000
0000
0000
0000
0000
0000
0000
0000
0000
0000
0000
0000
0000
0000
0000
0000
0000
0000
0000
0000
0000
0000
0000
0000
0000
0000
0000
0000
0000
0000
0000
0000
0000
0000
0000
0000
0000
0000
0000
0000
0000
0000
0000
0000
0000
0000
0000
0000
0000
0000
0000
0000
0000
0000
0000
0000
0000
0000
0000
0000
0000
0000
0000
0000
0000
0000
0000
0000
0000
0000
0000
0000
0000
0000
0000
0000
0000
0000
0000
0000
0000
0000
0330
,
2002
0000
0000
0000
0000
0000
0000
0000
0000
0000
0000
0000
0000
0000
0000
0000
0000
0000
0000
0000
0000
0000
0000
0000
0000
0000
0000
0000
0000
0000
0000
0000
0000
0000
0000
0000
0000
0000
0000
0000
0000
0000
0000
0000
0000
0000
0000
0000
0000
0000
0000
0000
0000
0000
0000
0000
0000
0000
0000
0000
0000
0000
0000
0000
0000
0000
0000
0000
0000
0000
0000
0000
0000
0000
0000
0000
0000
0000
0000
0000
0000
0000
0000
0000
0000
0000
0000
0000
0000
0000
0000
0000
0000
0000
0000
0000
0000
0000
0000
0000
0000
0000
0000
0000
0000
0000
0000
0000
0000
0000
0000
0000
0000
0000
0000
0000
0000
0000
0000
0000
0000
0000
0000
0000
0000
0000
0000
0000
0000
0000
0000
0000
0000
0000
0000
0000
0000
0000
0000
0000
0000
0000
0000
0000
0000
0000
0000
0000
0000
0000
0000
0000
0000
0000
0000
0000
0000
0000
0000
0000
0000
0000
0000
0000
0000
0000
0000
0000
0000
0000
0000
0000
0000
0000
0000
0000
0000
0000
0000
0000
0000
0000
0000
0000
0000
0000
0000
0000
0000
0000
0000
3003
,
0220
0000
0000
0000
0000
0000
0000
0000
0000
0000
0000
0000
0000
0000
0000
0000
0000
0000
0000
0000
0000
0000
0000
0000
0000
0000
0000
0000
0000
0000
0000
0000
0000
0000
0000
0000
0000
0000
0000
0000
0000
0000
0000
0000
0000
0000
0000
0000
0000
0000
0000
0000
0000
0000
0000
0000
0000
0000
0000
0000
0000
0000
0000
0000
0000
0000
0000
0000
0000
0000
0000
0000
0000
0000
0000
0000
0000
0000
0000
0000
0000
0000
0000
0000
0000
0000
0000
0000
0000
0000
0000
0000
0000
0000
0000
0000
0000
0000
0000
0000
0000
0000
0000
0000
0000
0000
0000
0000
0000
0000
0000
0000
0000
0000
0000
0000
0000
0000
0000
0000
0000
0000
0000
0000
0000
0000
0000
0000
0000
0000
0000
0000
0000
0000
0000
0000
0000
0000
0000
0000
0000
0000
0000
0000
0000
0000
0000
0000
0000
0000
0000
0000
0000
0000
0000
0000
0000
0000
0000
0000
0000
0000
0000
0000
0000
0000
0000
0000
0000
0000
0000
0000
0000
0000
0000
0000
0000
0000
0000
0000
0000
0000
0000
0000
0000
0000
0000
0000
0000
0000
0000
0330
,
0000
0000
0000
0000
,
0002
1003
0000
1010
0010
0000
1000
0000
,
0002
1003
0000
1100
0100
0010
0000
0000
,
0002
0000
1003
0000
1010
0000
0010
1000
,
0001
1000
0100
0000
0110
0000
0020
0000
,
0032
1003
0000
1010
0010
0000
0200
0000
,
0302
1003
0000
1100
0100
0010
0000
0000
,
0002
0000
1003
0000
1010
0000
0010
1000
,
0001
1000
0100
0000
1100
0000
2000
0000
,
3001
1000
0000
1010
0010
0000
0200
0000
,
0301
1000
0000
1100
0100
1000
0000
0000
,
0001
0000
0100
0000
0101
0000
0001
1000
,
0100
1000
0001
0000
0011
0000
0002
0000
,
2003
3010
0000
0110
0100
0000
0002
0000
,
2003
3001
0000
0011
0001
1000
0000
0000
,
0002
0000
0203
0000
0320
0000
2030
3001
;

//--------------- dance-single - Pruz ----------------
#NOTEDATA:;
#STEPSTYPE:dance-single;
#DESCRIPTION:Pruz;
#DIFFICULTY:Challenge;
#METER:13;
#RADARVALUES:0,0,0,0,0,0,0,0,0,0,0,0,0,0,0,0,0,0,0,0,0,0,0,0,0,0,0,0;
#CHARTNAME:Pruz;
#CHARTHASH:1869901935;
#BANNER:;
#CHARTSTYLE:;
#METERF:0.000000;
#LASTSECONDHINT:207.484085;
#CREDIT:Pruz;
#NOTES:
0000
0000
0000
0000
,
0000
0000
0000
0000
,
0000
0000
0000
0000
,
0000
0000
0000
0000
,
0000
0000
0000
0000
,
0000
0000
0000
0000
,
0000
0000
0000
0000
,
0000
0000
0000
0000
,
0001
1000
0000
0010
1010
1000
0001
0000
,
0001
1000
0000
0100
1100
1000
0001
0000
,
1000
0000
0000
0010
1010
1000
0001
0100
,
0000
0000
1000
0000
0100
0000
0001
0000
1000
0000
1000
0000
0100
0010
0001
0000
,
1000
0001
0000
0100
0101
0001
1000
0000
,
1000
0001
0000
0010
0011
0001
1000
0000
,
0001
0000
0000
0100
0101
0001
1000
0100
,
0000
0000
0001
0000
0100
0000
1000
0000
0001
0000
0001
0000
0100
0010
1000
0000
,
0001
1000
0000
0010
1010
1000
0001
0000
,
0001
1000
0000
0100
1100
1000
0001
0000
,
1000
0000
0000
0010
1010
1000
0001
0100
,
0000
0000
1000
0000
0100
0000
0001
0000
1000
0000
1000
0000
0100
0010
0001
0000
,
1000
0001
0000
0100
0101
0001
1000
0000
,
1000
0001
0000
0010
0011
0001
1000
0000
,
0001
0000
0000
0100
0101
0001
1000
0100
,
0000
0000
0001
0000
0100
0000
1000
0000
0001
0000
0001
0000
0100
0010
1000
0000
,
0001
1000
0010
1000
0001
0010
0100
1000
,
0000
0001
1000
0010
0100
0001
0000
0001
,
1000
0010
1000
0001
0010
0100
1000
1000
,
0001
1000
0000
0001
0101
0200
1300
0200
,
0301
0000
0100
0010
1000
0000
1001
0000
1000
0000
0200
0000
0301
0000
0200
0000
,
1300
0000
0100
0010
0001
0000
1001
0000
1000
0000
0010
0000
0100
0000
0001
0000
,
1000
0001
0010
0000
0100
0000
0010
0000
0001
0000
1000
0001
0000
0000
0100
0000
,
0010
0000
0100
0000
0001
0000
1000
0000
0010
0100
0001
0000
1000
0000
0000
0000
,
1100
0100
1000
0200
0301
0200
1300
0100
,
0010
0001
1000
0020
0031
0020
1030
0010
,
0100
0000
0001
0000
1000
0000
0100
0000
0020
0000
0030
1000
0000
0000
0020
0000
,
0031
0010
0100
1000
0001
0100
0100
0001
,
0000
0000
0000
0000
0000
0000
0020
0000
0000
0000
0030
0000
0000
0000
0000
2000
0000
0000
3020
0000
0000
0030
0000
0000
0100
0000
0000
0000
0000
0000
1000
0000
0000
0000
0000
0000
0100
0000
0000
0000
0000
0000
0010
0000
0000
0000
0000
0000
,
0001
1000
0010
0100
0001
0001
2000
0000
,
3100
1000
0001
0100
0010
1000
0001
0010
,
0000
0000
0100
0000
0000
0000
2000
3000
0000
0000
0002
0003
0000
0000
2000
3000
,
0010
0000
0000
0100
0000
0000
0001
0010
,
0000
0010
0000
0100
1000
0100
0010
0001
,
0100
0000
0000
0010
0000
0100
0001
0010
,
0000
0010
0000
0100
0010
0001
1000
0010
,
0100
0000
0000
0010
0000
0000
1000
0100
,
0000
0100
0000
0010
0001
0010
0100
1000
,
0010
0000
0000
0100
0000
0010
1000
0100
,
0000
0100
0010
0001
1000
0000
0000
0000
,
0001
0010
0000
0110
0100
1000
0001
0000
,
1000
0010
0000
0110
0100
0002
1003
0200
,
0301
0200
1300
0200
0310
0001
1000
0010
,
0001
0010
1000
0000
1001
0000
0002
0000
,
1003
0010
0000
0110
0100
0001
1000
0000
,
0001
0010
0000
0110
0100
2000
3001
0200
,
1300
0200
0301
0200
0310
1000
0001
0010
,
1000
0010
0001
0000
1001
0000
2000
0000
,
3010
0001
0000
0011
0010
1000
0001
0000
,
1000
0100
0000
0101
0100
2000
3001
0200
,
1300
0200
0301
0010
0100
1000
0001
0100
,
1000
0100
0001
1000
0010
0100
0001
0000
,
0010
1000
0000
1010
0010
0001
1000
0000
,
0001
0100
0000
1100
0100
0002
1003
0200
,
0301
0200
1300
0010
0100
0001
1000
0100
,
0000
0000
0000
1001
,
0001
0010
0100
0000
0001
0000
0200
0000
1300
0000
0200
0000
0301
0000
0100
0000
,
1000
0010
0100
0000
0001
0000
0200
0000
1300
0000
0200
0000
0301
0000
0100
0000
,
0010
1000
0001
0000
0010
0000
2000
0000
3010
0000
0200
0000
1300
0000
0001
0000
,
0010
0001
1000
0000
0010
0000
0200
0000
1300
0000
0200
0000
0301
0000
1000
0000
,
0001
0010
0100
0000
0001
0000
0200
0000
1300
0000
0200
0000
0301
0000
0100
0000
,
1000
0010
0100
0000
0001
0000
0200
0000
1300
0000
0200
0000
0301
0000
0100
0000
,
0010
1000
0001
0000
0010
0000
2000
0000
3010
0000
0200
0000
1300
0000
0001
0000
,
0010
0001
1000
0000
0010
0000
0200
0000
1300
0000
0200
0000
0301
0000
1000
0000
,
0010
0000
1000
0000
0001
0000
1000
0000
0100
0000
0010
0001
0000
1000
0000
0001
,
0010
0000
0001
0000
1000
0000
0010
1000
0000
0001
0000
1000
0010
0000
0100
0000
,
1000
0000
0100
0000
0001
0000
1000
0000
0001
0100
0010
1000
0001
0000
0000
1000
,
0200
0000
0000
0301
0200
0000
0000
1300
0200
0000
0000
0301
0200
0000
0320
0000
,
0031
0000
2000
0000
3001
0000
0020
0000
0031
0000
2000
0000
3001
0100
0010
1000
,
0001
0000
0000
0000
0200
0000
0300
0020
0000
0030
2000
0000
3002
0000
0023
0000
,
1030
0010
0001
0100
0010
1000
0001
1000
,
0200
0000
0000
0301
0100
0000
1000
0000
0001
0000
0100
0000
0100
0000
0100
0000
,
0020
0000
0000
0000
0030
0000
1000
0000
0000
0001
0000
0000
0000
0000
0000
0001
0000
0000
1000
0000
0000
0000
0000
0000
0200
0000
0000
0000
0300
0000
1000
0000
0000
0001
0000
0000
0000
0000
0000
0001
0000
0000
1000
0000
0000
0000
0000
0000
,
0020
0000
0000
0000
0030
0000
1000
0000
0000
0001
0000
0000
0000
0000
0000
0001
0000
0000
1000
0000
0000
0100
0000
0000
0001
0000
0000
0000
0000
0000
0000
0000
0000
0000
0000
0000
0100
0000
0000
0000
0000
0000
1000
0000
0000
0001
0000
0000
,
1000
0000
0010
0100
0000
0100
0010
0000
1000
0000
0001
0010
0000
0100
0010
0000
,
0001
0000
0100
0000
1000
0000
0100
0001
0000
0000
0010
0000
0010
0000
0100
0000
,
0010
0001
0000
1000
0000
0001
0010
0000
0100
0000
0000
0000
1000
0000
1000
0000
,
0010
1000
0000
0001
0000
1000
0010
0000
0100
0000
0000
0000
0001
0000
0001
0000
,
1000
0000
0100
0010
0001
0000
1000
0000
0001
0000
0200
0000
1300
0000
0200
0000
,
0310
0000
1000
0001
0010
0000
0001
0000
1000
0000
0010
0100
0000
0000
0001
0000
,
1000
0010
1000
0001
0010
0100
1000
0100
,
0002
0000
0103
0010
0000
0001
2000
0000
,
3010
1000
0001
0010
1000
0010
0001
1000
,
0002
0000
0000
0103
0000
0000
0002
0000
2003
0000
3010
0000
0100
0000
0001
1000
,
0001
0000
0010
0000
0100
0000
0010
0000
0011
0000
0000
1000
0000
0000
0001
0000
,
1000
0000
0010
0000
0100
0000
0010
0000
1010
0000
0000
0001
0000
0000
1000
0000
,
0020
0000
0032
0000
0203
0000
2300
3002
,
2003
0000
0000
0000
3002
0003
0000
0000
2000
3000
0000
0000
2002
3003
0000
0000
,
1001
1000
0000
1010
0010
0100
0001
0000
,
1001
1000
0000
1010
0010
0200
0301
2000
,
3100
0002
0103
2000
3001
0010
0100
1000
,
0001
0000
0100
0000
0010
0000
0000
1000
0001
0000
0000
0000
1000
0000
0000
0000
,
1100
1000
0000
1001
0001
0100
0001
1000
,
1100
1000
0000
1001
0001
0200
0310
2000
,
3100
0002
0103
2000
3001
0010
0100
1000
,
0001
0000
0100
0000
0010
0000
0000
1000
0001
0000
0000
0000
1000
0000
0000
0000
,
1100
1000
0000
1001
0001
0100
0001
1000
,
1100
1000
0000
1001
0001
0200
0310
2000
,
3100
0002
0103
2000
3001
0010
0100
1000
,
0001
0000
0100
0000
0010
0000
0000
1000
0001
0000
0000
0000
1000
0000
0100
0000
,
0002
0203
0300
0020
0000
0031
2000
0000
,
3020
0230
0300
0002
0000
2003
3100
0002
,
0103
1000
0100
0010
0001
1000
0010
0200
,
0301
0200
0310
0000
0200
0000
0000
0000
,
0301
1000
0000
0100
1100
1000
0001
0000
,
0001
1000
0000
0010
1010
1000
0001
0000
,
1000
0000
0000
0100
1100
1000
0001
0010
,
0000
0000
1000
0000
0010
0000
0001
0000
1000
0000
1000
0000
0010
0100
0001
0000
,
1000
0001
0000
0010
0011
0001
1000
0000
,
1000
0001
0000
0100
0101
0001
1000
0000
,
0001
0000
0000
0010
0011
0001
1000
0010
,
0000
0000
0001
0000
0010
0000
1000
0000
0001
0000
0001
0000
0010
0100
1000
0000
,
1100
0100
1000
0200
0301
0200
1300
0100
,
0010
0001
1000
0020
0031
0020
1030
0010
,
0100
0000
0001
0000
1000
0000
0100
0000
0020
0000
0030
1000
0000
0000
0020
0000
,
0031
0000
0010
0000
0100
0000
0000
1000
0000
0000
0100
0000
0010
0000
0010
0000
,
0001
0000
0000
0000
0000
0000
0020
0000
0000
0000
0030
0000
0000
0000
0000
2000
0000
0000
3020
0000
0000
0030
0000
0000
0100
0000
0000
0000
0000
0000
1000
0000
0000
0000
0000
0000
0100
0000
0000
0000
0000
0000
0010
0000
0000
0000
0000
0000
,
0001
1000
0010
0100
0001
0001
2000
0000
,
3100
1000
0001
0100
0010
1000
0001
0010
,
0000
0000
0100
0000
0000
0000
2000
3000
1000
0001
0000
0002
0003
0000
0000
0000
,
0021
0000
0130
0010
0001
0010
0100
0100
,
1200
0000
0310
0100
1000
0100
0010
0010
,
0012
0000
1003
0010
0100
0001
0100
0010
,
2010
0001
0000
0100
0000
0010
0000
3001
,
0201
0000
0310
0100
0001
0100
0010
0010
,
1020
0000
0130
0010
1000
0010
0100
0100
,
0102
0000
1003
0100
0010
0001
0010
0100
,
2100
0001
0000
0010
0000
0100
0000
3001
,
0021
0000
0130
0010
1000
0010
0100
0100
,
1200
0000
0310
0100
0001
0100
0010
0010
,
0012
0000
1003
0010
0100
1000
0100
0010
,
2010
0001
0000
0100
0000
0010
0000
3001
,
0201
0000
0310
0100
1000
0100
0010
0010
,
1020
0000
0130
0010
0001
0010
0100
0100
,
0102
0000
1003
0100
0010
1000
0010
0100
,
2100
0001
0000
0010
0000
0100
0000
3001
,
1002
0000
0000
0000
1003
0010
0100
0010
1000
0000
0001
1000
0002
0000
0013
0000
,
0210
0000
0000
0000
0310
0001
1000
0001
0010
0000
0100
0010
0200
0000
1300
0000
,
2001
0000
0000
0000
3001
0010
0100
0010
0001
0000
1000
0001
1000
0000
0010
0000
,
0010
0100
0000
0100
0001
0000
0001
1000
0000
1000
0010
0000
0100
0001
1000
0001
,
2002
0000
0000
0000
0000
0000
0000
0000
0000
0000
0000
0000
0000
0000
0000
0000
0000
0000
0000
0000
0000
0000
0000
0000
0000
0000
0000
0000
0000
0000
0000
0000
0000
0000
0000
0000
0000
0000
0000
0000
0000
0000
0000
0000
0000
0000
0000
0000
0000
0000
0000
0000
0000
0000
0000
0000
0000
0000
0000
0000
0000
0000
0000
0000
0000
0000
0000
0000
0000
0000
0000
0000
0000
0000
0000
0000
0000
0000
0000
0000
0000
0000
0000
0000
0000
0000
0000
0000
0000
0000
0000
0000
0000
0000
0000
0000
0000
0000
0000
0000
0000
0000
0000
0000
0000
0000
0000
0000
0000
0000
0000
0000
0000
0000
0000
0000
0000
0000
0000
0000
0000
0000
0000
0000
0000
0000
0000
0000
0000
0000
0000
0000
0000
0000
0000
0000
0000
0000
0000
0000
0000
0000
0000
0000
0000
0000
0000
0000
0000
0000
0000
0000
0000
0000
0000
0000
0000
0000
0000
0000
0000
0000
0000
0000
0000
0000
0000
0000
0000
0000
0000
0000
0000
0000
0000
0000
0000
0000
0000
0000
0000
0000
0000
0000
0000
0000
0000
0000
0000
0000
0000
3003
,
0220
0000
0000
0000
0000
0000
0000
0000
0000
0000
0000
0000
0000
0000
0000
0000
0000
0000
0000
0000
0000
0000
0000
0000
0000
0000
0000
0000
0000
0000
0000
0000
0000
0000
0000
0000
0000
0000
0000
0000
0000
0000
0000
0000
0000
0000
0000
0000
0000
0000
0000
0000
0000
0000
0000
0000
0000
0000
0000
0000
0000
0000
0000
0000
0000
0000
0000
0000
0000
0000
0000
0000
0000
0000
0000
0000
0000
0000
0000
0000
0000
0000
0000
0000
0000
0000
0000
0000
0000
0000
0000
0000
0000
0000
0000
0000
0000
0000
0000
0000
0000
0000
0000
0000
0000
0000
0000
0000
0000
0000
0000
0000
0000
0000
0000
0000
0000
0000
0000
0000
0000
0000
0000
0000
0000
0000
0000
0000
0000
0000
0000
0000
0000
0000
0000
0000
0000
0000
0000
0000
0000
0000
0000
0000
0000
0000
0000
0000
0000
0000
0000
0000
0000
0000
0000
0000
0000
0000
0000
0000
0000
0000
0000
0000
0000
0000
0000
0000
0000
0000
0000
0000
0000
0000
0000
0000
0000
0000
0000
0000
0000
0000
0000
0000
0000
0000
0000
0000
0000
0000
0000
0330
,
2002
0000
0000
0000
0000
0000
0000
0000
0000
0000
0000
0000
0000
0000
0000
0000
0000
0000
0000
0000
0000
0000
0000
0000
0000
0000
0000
0000
0000
0000
0000
0000
0000
0000
0000
0000
0000
0000
0000
0000
0000
0000
0000
0000
0000
0000
0000
0000
0000
0000
0000
0000
0000
0000
0000
0000
0000
0000
0000
0000
0000
0000
0000
0000
0000
0000
0000
0000
0000
0000
0000
0000
0000
0000
0000
0000
0000
0000
0000
0000
0000
0000
0000
0000
0000
0000
0000
0000
0000
0000
0000
0000
0000
0000
0000
0000
0000
0000
0000
0000
0000
0000
0000
0000
0000
0000
0000
0000
0000
0000
0000
0000
0000
0000
0000
0000
0000
0000
0000
0000
0000
0000
0000
0000
0000
0000
0000
0000
0000
0000
0000
0000
0000
0000
0000
0000
0000
0000
0000
0000
0000
0000
0000
0000
0000
0000
0000
0000
0000
0000
0000
0000
0000
0000
0000
0000
0000
0000
0000
0000
0000
0000
0000
0000
0000
0000
0000
0000
0000
0000
0000
0000
0000
0000
0000
0000
0000
0000
0000
0000
0000
0000
0000
0000
0000
0000
0000
0000
0000
0000
0000
3003
,
0220
0000
0000
0000
,
0330
0000
0000
0000
,
1001
0001
0000
0001
0011
0010
0100
0000
,
0110
0011
0000
0001
1001
1000
0010
0100
,
0001
0100
1000
0100
0001
0010
0100
1000
,
0100
0001
0100
1000
0010
0100
0002
0003
,
1001
1000
0000
1000
1010
0010
0100
0000
,
0110
1010
0000
1000
1001
0001
0010
0100
,
1000
0100
0001
0100
1000
0010
0100
0001
,
0100
1000
0100
0001
0010
0100
2000
3000
,
1002
2003
0000
3200
0310
0001
1000
0000
,
2001
3002
0000
0203
0310
1000
0001
0000
,
1000
0100
0010
0100
1000
0010
0100
0001
,
1000
0100
0010
0000
0012
0000
1003
0000
,
2001
3002
0000
0203
0310
1000
0001
0000
,
1002
2003
3200
0320
0030
0002
1003
0000
,
0001
0100
0010
0100
0001
0010
0100
1000
;
