#TITLE:Welcome To The Gates Of Hell [MODS+];
#SUBTITLE:;
#ARTIST:B. B. C.;
#TITLETRANSLIT:;
#SUBTITLETRANSLIT:;
#ARTISTTRANSLIT:;
#GENRE:TECHNO;
#CREDIT:;
#BANNER:Welcome To The Gates Of Hell.png;
#BACKGROUND:Welcome To The Gates Of Hell-bg.png;
#LYRICSPATH:;
#CDTITLE:;
#MUSIC:Welcome To The Gates Of Hell.ogg;
#OFFSET:-0.016281;
#SAMPLESTART:62.855000;
#SAMPLELENGTH:13.964000;
#SELECTABLE:YES;
#BPMS:0.000000=137.494003
;
#STOPS:
;
#BGCHANGES:0.000=Welcome To The Gates Of Hell.avi=1.000=0=0=1=====,
220.000=Welcome To The Gates Of Hell-2.png=1.000=0=0=1=====,
99999=-nosongbg-=1.000=0=0=0 // don't automatically add -songbackground-
;
#KEYSOUNDS:;
#ATTACKS:TIME=3.520000:LEN=92.480003:MODS=Reverse:TIME=7.010000:LEN=10.470000:MODS=Drunk:TIME=20.969999:LEN=12.220000:MODS=Beat:TIME=33.189999:LEN=29.670000:MODS=Drunk:TIME=83.809998:LEN=10.040000:MODS=Drunk,Twirl:TIME=93.849998:LEN=2.180000:MODS=Beat:TIME=62.860001:LEN=20.070000:MODS=Beat:TIME=96.029999:LEN=5.000000:MODS=Stealth,Dark;

//---------------dance-single - ----------------
#NOTES:
     dance-single:
     :
     Hard:
     12:
     0.540666,0.617437,0.132975,0.143203,0.404038,370.000000,357.000000,13.000000,14.000000,0.000000,0.000000,0.540666,0.617437,0.132975,0.143203,0.404038,370.000000,357.000000,13.000000,14.000000,0.000000,0.000000:
0000
0000
0000
0000
,
0000
0000
0000
0000
,
0000
0000
0000
0000
,
0000
0000
0000
0000
,
1000
0010
0000
0000
0001
0000
0001
0000
1000
0100
0000
0000
0001
0000
0001
0000
,
1000
0100
0000
0000
0010
0000
0010
0000
0001
1000
0000
0000
0001
0000
0001
0000
,
0100
1000
0000
0000
0001
0000
0001
0000
0010
1000
0000
0000
0001
0000
0001
0000
,
0010
0100
0000
0000
1000
0000
1000
0000
0001
0100
0000
0000
0010
0000
0010
0000
,
1000
0100
0000
0000
0001
0000
0001
0000
0100
1000
0000
0000
0001
0000
0001
0000
,
0100
1000
0000
0000
0100
0000
0100
0000
0001
1000
0000
0000
0100
0000
0100
0000
,
0020
0000
1000
1000
0000
0000
0001
0031
,
0000
0000
0000
0000
1000
0000
1000
0000
0001
1000
0001
1000
0020
0000
0000
0000
,
0130
0001
0010
0001
0100
0010
1000
0001
,
0010
0100
1000
0010
1000
0100
0010
0000
,
0001
1000
0010
1000
0001
0100
0001
1000
,
0100
0001
0100
0010
1000
0010
0001
0000
,
1000
0100
1000
0010
0100
0001
1000
0100
,
0010
0001
0100
0001
0010
0100
1000
0000
,
0001
0100
0010
1000
0100
0010
0001
1000
,
0020
0000
0000
0030
,
0202
0000
0000
0303
,
0100
0001
0000
0000
1000
0000
1000
0100
0010
0100
0000
0000
0010
0000
0010
0000
,
2200
0000
0000
3300
,
0100
1000
0000
0000
0001
0000
0001
0100
0010
0100
0000
0000
0010
0000
0010
0000
,
2000
0000
0000
0010
0000
0010
0000
0001
0000
0001
3000
0000
1000
0000
1000
0000
,
0002
0000
0000
0010
0000
0010
0000
1000
0000
1000
0003
0000
0001
0000
1000
0000
,
0001
0010
0001
0100
0010
1000
0100
1000
,
0010
0000
0100
0000
0001
0000
1000
0000
0100
0010
0100
0010
0001
1000
0001
1000
,
0010
0000
0000
0010
0000
0100
0001
0100
0000
0001
0000
0100
0010
0000
0010
0000
,
1000
0000
0000
1000
0000
0100
1000
0100
0000
1000
0000
0100
0010
0000
0010
0000
,
0001
0000
0000
0001
0000
1000
0001
1000
0000
0010
0000
0100
0001
0000
0001
0000
,
2000
0000
0000
0000
0000
0000
0000
3000
,
0001
0010
0000
0000
1000
0000
1000
0000
0001
0100
0000
0000
1000
0000
1000
0000
,
0001
0100
0000
0000
0010
0000
0010
0000
1000
0001
0000
0000
1000
0000
1000
0000
,
0100
0001
0000
0000
1000
0000
1000
0000
0010
0001
0000
0000
1000
0000
1000
0000
,
0010
0100
0000
0000
0001
0000
0001
0000
1000
0001
1000
0001
0010
0000
0000
0000
,
0100
1000
0010
1000
0100
0010
0001
1000
,
0010
0100
0001
0010
0001
0100
0010
0000
,
1000
0001
0010
1000
0010
0001
0010
0000
,
0200
0000
0000
0300
,
1100
0000
0000
0000
1001
0000
0000
0000
0001
0100
0000
0010
0000
0000
0020
0000
,
0000
0000
0000
0031
0010
0000
0000
0000
1000
0000
0001
0000
0010
0000
1000
0000
,
0010
0000
0000
0000
1100
0000
0000
0000
1000
0001
0000
0100
0000
0000
0200
0000
,
0000
0000
1300
0000
0100
0000
0001
0000
1000
0100
0000
0100
0000
0000
0000
0000
,
0011
0000
0000
0000
1010
0000
0000
0000
1000
0010
0000
0100
0000
0000
0200
0000
,
0000
0000
0000
1300
0100
0000
0000
0000
0001
0000
1000
0000
0100
0000
0010
0000
,
0001
0000
0000
0000
0101
0000
0000
0000
0010
1000
0000
0001
0000
0000
0001
0000
,
1000
0000
0100
0000
0010
0001
0000
1000
0000
0010
0000
0001
0000
0000
0000
0000
,
0010
0000
1000
0000
0100
0000
1000
0000
0010
0000
0100
0001
0000
1000
0100
0000
,
0001
0100
1000
0100
0010
0001
1000
0010
,
0001
0000
0010
0000
1000
0000
0010
0000
0100
0000
0001
0010
0000
0001
0100
0000
,
0010
1000
0100
1000
0010
0100
0001
1000
,
0100
0000
0001
0000
0100
0000
1000
0000
0100
0000
0010
0001
0000
1000
0010
0000
,
0001
0010
1000
0010
0100
0001
1000
0100
,
0011
0000
0000
0000
1001
0000
0000
0000
1010
0000
0000
0101
0000
0000
1001
0000
;

//---------------dance-single - ----------------
#NOTES:
     dance-single:
     :
     Medium:
     9:
     0.365315,0.392914,0.194348,0.112517,0.092059,250.000000,231.000000,19.000000,11.000000,0.000000,0.000000,0.365315,0.392914,0.194348,0.112517,0.092059,250.000000,231.000000,19.000000,11.000000,0.000000,0.000000:
0000
0000
0000
0000
,
0000
0000
0000
0000
,
0000
0000
0000
0000
,
0000
0000
0000
0000
,
1000
0000
0001
0100
0001
0000
1010
0000
,
0001
0000
1000
0100
1000
0000
0011
0000
,
1000
0000
0001
1000
0001
0000
1010
0000
,
0100
0000
0001
0100
0001
0000
1100
0000
,
0010
0000
0001
1000
0010
0000
0101
0000
,
1000
0000
0100
0010
0001
0000
1000
0010
,
0200
0000
0000
0000
,
0301
0000
1000
0000
0001
0010
0100
1000
,
0001
0100
1000
0100
,
0010
0000
1000
0000
0001
0010
0100
0000
,
1000
0100
0001
0100
,
0010
0000
0001
0000
1000
0010
0100
0000
,
0001
0010
0001
0100
,
0010
0000
1000
0000
0100
0010
0001
0000
,
1000
0010
0100
0001
,
0020
0000
0000
0030
,
2200
0000
0000
3300
,
0100
1000
0100
0000
1000
0001
1000
0000
,
0202
0000
0000
0303
,
0100
0001
0100
0000
0001
1000
0001
0000
,
2000
0010
3010
1000
,
0002
0010
0013
0001
,
0100
0010
1000
0010
,
0100
0000
0001
0000
1000
0100
0010
0001
,
0010
0000
0000
0001
0000
0001
0000
0001
0000
0000
0000
0000
1000
0000
0100
0000
,
1000
0000
0000
0010
0000
0010
0000
0010
0000
0000
0000
0000
0100
0000
0001
0000
,
0100
0000
0000
0001
0000
1000
0000
0001
0000
0000
0000
0000
1000
0000
0100
0000
,
0020
0000
0000
0030
,
0001
0000
1000
0010
1000
0000
0001
0100
,
0001
0000
0010
0001
0010
0000
0100
1000
,
0100
0000
1000
0001
0100
0000
0010
1000
,
0100
0000
0010
0001
1000
0010
0100
0001
,
1000
0100
0001
0100
,
0010
0001
1000
0010
,
0100
1000
0100
0001
,
2002
0000
0000
3003
,
1100
0000
0000
0000
0011
0000
0000
0000
1000
0000
0000
1000
0000
0000
1000
0000
,
0000
0000
0000
0001
0100
0000
0000
0000
1010
0000
0000
0000
0001
0000
0010
0000
,
0100
0000
0000
0000
1010
0000
0000
0000
0001
0000
0000
0001
0000
0000
0001
0000
,
0000
0000
0000
1000
0100
0000
0000
0000
0011
0000
0000
0000
1000
0000
0010
0000
,
0100
0000
0000
0000
0011
0000
0000
0000
1000
0000
0000
0001
0000
0000
1000
0000
,
0000
0000
0000
0010
0100
0000
0000
0000
1001
0000
0000
0000
0001
0000
0010
0000
,
0100
0000
0000
0000
1010
0000
0000
0000
0001
0000
0000
1000
0000
0000
0001
0000
,
0000
0000
0000
0010
0100
0000
0000
0000
1000
0000
0001
0000
1000
0000
0000
0000
,
0001
0010
1000
0010
,
0001
0000
0010
0000
0100
1000
0010
0000
,
0001
0010
1000
0010
,
0100
0000
0001
0000
1000
0100
0010
0000
,
0001
1000
0010
0001
,
1000
0000
0100
0000
0001
1000
0001
0000
,
0011
0000
0000
0000
1100
0000
0000
0000
1000
0000
0000
0001
0000
0000
1001
0000
;

//---------------dance-single - ----------------
#NOTES:
     dance-single:
     :
     Easy:
     7:
     0.284946,0.364849,0.102288,0.061373,0.005114,195.000000,185.000000,10.000000,6.000000,0.000000,0.000000,0.284946,0.364849,0.102288,0.061373,0.005114,195.000000,185.000000,10.000000,6.000000,0.000000,0.000000:
// measure 0
0000
0000
0000
0000
,  // measure 1
0000
0000
0000
0000
,  // measure 2
0000
0000
0000
0000
,  // measure 3
0000
0000
0000
0000
,  // measure 4
1000
0001
0001
0010
,  // measure 5
0010
0001
0001
1000
,  // measure 6
1000
0100
0100
1000
,  // measure 7
1000
0010
0010
0100
,  // measure 8
0100
0001
1000
1000
,  // measure 9
0001
0010
0100
0010
,  // measure 10
0200
0000
0000
0300
,  // measure 11
0000
0000
0000
0000
,  // measure 12
1000
0100
1000
0010
,  // measure 13
0100
0001
0010
0001
,  // measure 14
1000
0100
0010
0001
,  // measure 15
0100
0010
1000
0001
,  // measure 16
0010
1000
0010
0001
,  // measure 17
1000
0010
0001
0010
,  // measure 18
0100
0001
1000
0001
,  // measure 19
0020
0000
0000
0030
,  // measure 20
1100
0000
0000
0000
,  // measure 21
1000
1000
0001
0001
,  // measure 22
0101
0000
0000
0000
,  // measure 23
0001
0001
1000
1000
,  // measure 24
0200
0000
0000
0300
,  // measure 25
0020
0000
0000
0030
,  // measure 26
0001
0010
0001
1000
,  // measure 27
0001
0000
0100
0000
0010
0010
0010
0010
,  // measure 28
0010
1000
0001
0010
,  // measure 29
0100
1000
0001
0100
,  // measure 30
0010
1000
0001
0010
,  // measure 31
0200
0000
0000
0300
,  // measure 32
1000
1000
0010
0010
,  // measure 33
1000
1000
0001
0001
,  // measure 34
0100
0100
0001
0001
,  // measure 35
0010
0000
0010
0000
0100
0100
0100
0000
,  // measure 36
1000
0100
0001
0100
,  // measure 37
0010
0001
0100
1000
,  // measure 38
0100
0001
0100
0020
,  // measure 39
0000
0000
0030
1001
,  // measure 40
1000
0010
1000
0101
,  // measure 41
0001
0010
0001
1100
,  // measure 42
1000
0001
1000
0010
,  // measure 43
0001
0000
0010
0000
0100
0100
0100
0000
,  // measure 44
0001
0100
0001
1010
,  // measure 45
1000
0100
1000
0011
,  // measure 46
1000
0001
1000
0010
,  // measure 47
0100
0000
0001
0000
0010
0010
0010
0000
,  // measure 48
0100
0100
1000
1000
,  // measure 49
0001
0000
0001
0000
0100
0100
0100
0000
,  // measure 50
0010
0010
1000
1000
,  // measure 51
0100
0000
0100
0000
0010
0010
0010
0000
,  // measure 52
0001
0001
1000
1000
,  // measure 53
0010
0000
0010
0000
0100
0100
0100
0000
,  // measure 54
0101
0000
0000
0000
1010
0000
0000
0000
0001
0000
0000
1000
0000
0000
1001
0000
;
