#VERSION:0.83;
#TITLE:W.I.T.C.H.;
#SUBTITLE:;
#ARTIST:Devon Cole;
#TITLETRANSLIT:;
#SUBTITLETRANSLIT:;
#ARTISTTRANSLIT:;
#GENRE:;
#ORIGIN:;
#CREDIT:Spirit;
#BANNER:W.I.T.C.H. -bn.PNG;
#BACKGROUND:;
#PREVIEWVID:;
#JACKET:;
#CDIMAGE:;
#DISCIMAGE:;
#LYRICSPATH:;
#CDTITLE:;
#MUSIC:W.I.T.C.H. .ogg;
#OFFSET:-0.298000;
#SAMPLESTART:49.487328;
#SAMPLELENGTH:12.000000;
#SELECTABLE:YES;
#BPMS:0.000=122.000;
#STOPS:;
#DELAYS:;
#WARPS:;
#TIMESIGNATURES:0.000=4=4;
#TICKCOUNTS:0.000=4;
#COMBOS:0.000=1;
#SPEEDS:0.000=1.000=0.000=0;
#SCROLLS:0.000=1.000;
#FAKES:;
#LABELS:0.000=Song Start;
#BGCHANGES:-0.606=W.I.T.C.H. -bg.avi=1.000=0=0=0=StretchNoLoop====,
99999=-nosongbg-=1.000=0=0=0 // don't automatically add -songbackground-
;
#KEYSOUNDS:;
#ATTACKS:
;

//---------------dance-single - Spirit----------------
#NOTEDATA:;
#CHARTNAME:Spirit;
#STEPSTYPE:dance-single;
#DESCRIPTION:Spirit;
#CHARTSTYLE:;
#DIFFICULTY:Hard;
#METER:11;
#RADARVALUES:0.449301,0.551533,0.303875,0.243100,0.075969,414.000000,372.000000,40.000000,32.000000,20.000000,1.000000,0.000000,0.000000,0.000000,0.449301,0.551533,0.303875,0.243100,0.075969,414.000000,372.000000,40.000000,32.000000,20.000000,1.000000,0.000000,0.000000,0.000000;
#CREDIT:Spirit;
#NOTES:
// measure 0
0000
0000
0000
0000
,  // measure 1
0000
0000
0000
0000
0000
0000
0000
0000
0001
0100
0001
0100
0001
0000
0000
0000
,  // measure 2
0200
0000
1000
0000
0001
0000
0310
1000
,  // measure 3
0200
0000
0001
0000
1000
0000
0310
0001
,  // measure 4
2000
0000
3010
0000
0101
1000
0100
1000
,  // measure 5
0001
1000
0010
0100
0001
0100
0000
1010
,  // measure 6
0000
0100
0001
0100
0000
1000
0001
1000
,  // measure 7
0100
1000
0010
1000
0100
0000
0100
1000
,  // measure 8
0000
0011
0000
1000
0100
0010
0001
1000
,  // measure 9
0100
1000
0010
2000
0002
0000
3003
1000
,  // measure 10
0001
1000
0001
00M0
1000
0001
1000
00M0
,  // measure 11
0010
1000
0010
00M0
0100
0001
0100
00M0
,  // measure 12
0002
0000
0010
0000
0100
0000
0010
0103
,  // measure 13
2000
0000
0010
0000
0100
0000
3010
1000
,  // measure 14
0001
1000
0001
00M0
1000
0100
1000
00M0
,  // measure 15
0010
1000
0010
00M0
1000
0001
1000
00M0
,  // measure 16
0002
0000
0010
0000
0100
0000
0010
0103
,  // measure 17
2000
0000
0010
0000
0100
0000
0010
3000
,  // measure 18
1000
0001
2000
3000
0001
1000
0002
0003
,  // measure 19
1000
0001
2000
3000
0001
1000
0002
0003
,  // measure 20
1000
0000
0010
0000
1000
0000
0100
0000
1000
0000
0000
0010
0000
0000
0202
0000
,  // measure 21
0000
0000
0000
0303
0000
0010
0001
0000
,  // measure 22
1000
0100
2000
3000
0001
0010
0002
0003
,  // measure 23
1000
0100
0002
0003
0100
1000
0020
0030
,  // measure 24
0100
0000
0000
0010
0000
0000
0100
0000
0000
0010
0000
0000
0200
0000
0000
0000
0020
0000
0000
0000
0000
0000
0000
0000
,  // measure 25
0000
0000
0330
2000
0002
3003
MMMM
0000
,  // measure 26
0010
MMMM
0010
MMMM
,  // measure 27
1001
0110
1001
0110
0002
0003
0010
0001
,  // measure 28
1000
0000
0001
0000
0110
1001
0010
0110
,  // measure 29
0000
1000
0001
2002
0000
0000
3003
1000
,  // measure 30
0100
1000
0001
0000
0100
0010
1000
0000
,  // measure 31
0001
1000
0100
0020
0000
0030
1001
0110
,  // measure 32
1001
0110
0000
0100
0110
1001
0010
0110
,  // measure 33
0000
0000
1000
0000
0001
0000
1001
0000
0000
0000
1000
0000
0100
0000
0010
0001
,  // measure 34
0010
1001
1001
0000
,  // measure 35
0001
1000
0001
0100
0001
0000
0000
0001
,  // measure 36
0001
0010
1100
0000
0011
0010
0100
1000
,  // measure 37
0000
0000
0010
0000
1000
0000
1000
0000
0000
0000
1000
0010
1000
0001
0100
0020
,  // measure 38
0000
0030
1001
0000
1001
0000
0000
0000
,  // measure 39
1000
0010
0100
0001
0010
0100
0100
0100
,  // measure 40
0100
1000
0011
0000
1100
0001
0100
0010
,  // measure 41
0000
2000
0000
0002
0000
0003
3001
0000
,  // measure 42
1000
1000
0100
0000
0011
0000
0000
1000
,  // measure 43
0001
0100
0001
0100
0000
0000
0010
0001
,  // measure 44
0100
0001
0010
0000
1100
0000
0100
1000
,  // measure 45
0010
0000
0100
0000
0001
0000
0100
0000
0000
0000
0001
0010
0001
0010
0001
0010
,  // measure 46
0001
1000
0010
0100
0001
0010
0001
0100
,  // measure 47
0001
0010
0100
0010
0000
0000
0010
0001
,  // measure 48
1000
0001
0100
0000
1010
0000
0100
0001
,  // measure 49
1000
0100
0010
0200
0000
0000
0000
0000
,  // measure 50
0300
0000
1000
0000
0001
0000
0000
0000
0100
0000
0000
0001
0000
0000
1010
0000
,  // measure 51
0000
0000
0001
0000
1000
0000
0000
0000
0100
0000
1000
0100
0000
0000
0011
0000
,  // measure 52
0000
0000
1000
0000
0001
0000
0000
0000
1000
0000
0000
0010
0000
0000
1000
0000
,  // measure 53
0100
0010
0001
0002
0000
0000
0003
1111
,  // measure 54
0000
0000
0001
0000
1000
0000
0000
0000
0100
0000
0000
1000
0000
0000
0011
0000
,  // measure 55
0000
0000
1000
0000
0001
0000
0000
0000
0100
0000
0001
0100
0000
0000
1010
0000
,  // measure 56
0000
0000
1000
0000
1000
0000
0000
0000
0100
0000
0000
1000
0000
0000
0000
0000
,  // measure 57
0100
0010
0000
0100
0010
0000
0011
0000
,  // measure 58
1100
0000
1010
0000
0101
0001
0100
0000
,  // measure 59
1000
0100
0001
0100
1000
0000
0001
1000
,  // measure 60
0010
0010
0010
0000
0100
0100
0100
1000
,  // measure 61
0000
0000
0001
0000
0100
0000
0001
0000
1000
0000
0000
0010
0000
0000
0100
0000
,  // measure 62
0000
0001
0010
0001
0100
0001
0010
0100
,  // measure 63
1000
0001
0010
0001
0000
0000
0010
0001
,  // measure 64
0010
0001
0000
0100
0100
0100
0010
0100
,  // measure 65
0000
0000
0001
0000
0100
0000
0001
0000
0000
0000
0000
0000
1000
0010
1000
0010
,  // measure 66
1000
0000
0000
0000
;
