#VERSION:0.83;
#TITLE:VORACITY;
#SUBTITLE:;
#ARTIST:MYTH & ROID;
#TITLETRANSLIT:;
#SUBTITLETRANSLIT:;
#ARTISTTRANSLIT:;
#GENRE:;
#ORIGIN:;
#CREDIT:;
#BANNER:VORACITY.png;
#BACKGROUND:VORACITY-bg.png;
#PREVIEWVID:;
#JACKET:VORACITY-jacket.png;
#CDIMAGE:;
#DISCIMAGE:;
#LYRICSPATH:VORACITY.lrc;
#CDTITLE:;
#MUSIC:VORACITY.ogg;
#OFFSET:-0.012000;
#SAMPLESTART:57.005108;
#SAMPLELENGTH:16.134001;
#SELECTABLE:YES;
#BPMS:0.000=200.000,
104.000=100.000,
112.000=200.000,
144.000=100.000,
160.000=200.000;
#STOPS:164.000=0.600;
#DELAYS:;
#WARPS:;
#TIMESIGNATURES:0.000=4=4;
#TICKCOUNTS:0.000=4;
#COMBOS:0.000=1;
#SPEEDS:0.000=1.000=0.000=0;
#SCROLLS:0.000=1.000;
#FAKES:;
#LABELS:0.000=Song Start;
#BGCHANGES:-0.300=VORACITY.avi=1.000=0=0=0=StretchNoLoop====,
99999=-nosongbg-=1.000=0=0=0 // don't automatically add -songbackground-
;
#KEYSOUNDS:;
#ATTACKS:
;

//---------------dance-single - ----------------
#NOTEDATA:;
#CHARTNAME:;
#STEPSTYPE:dance-single;
#DESCRIPTION:;
#CHARTSTYLE:;
#DIFFICULTY:Hard;
#METER:12;
#RADARVALUES:0.590672,0.679751,0.845500,0.608348,0.469150,401.000000,319.000000,82.000000,59.000000,0.000000,0.000000,0.000000,0.000000,0.000000,0.590672,0.679751,0.845500,0.608348,0.469150,401.000000,319.000000,82.000000,59.000000,0.000000,0.000000,0.000000,0.000000,0.000000;
#CREDIT:Ben Speirs;
#NOTES:
0000
0000
0000
0000
,
0000
0000
0000
0000
0000
0000
0000
0000
0000
0000
0000
1002
,
0000
0000
0000
0000
,
0203
0000
0000
0000
0000
0000
0000
0000
0000
0000
0000
0320
,
0000
0000
0000
0000
,
2030
0010
0100
3001
,
0101
0000
0000
0000
,
2200
0000
0000
3300
,
1001
2000
3020
0130
,
0101
1100
0101
1001
,
1010
0000
0000
0001
0000
0100
0001
0000
1000
0010
0000
0000
,
1000
0000
0100
1000
0000
0001
0010
0000
0000
0011
0000
0000
,
0101
0000
0000
1000
0000
0010
1000
0000
0001
0100
0000
0000
,
0001
0000
0010
0001
0000
1000
0100
0000
0000
1100
0000
0000
,
1001
0000
0000
0001
0000
0100
0010
0000
0100
0001
0000
0000
,
1000
0000
0010
0100
0000
0010
1000
0000
0000
0001
0000
0000
,
1001
0000
0000
0000
,
2000
0000
3002
0000
,
0133
0000
0000
0001
0000
1000
0100
0000
1000
0010
0000
0010
,
0200
0302
1003
0110
,
1001
0000
0000
1000
0000
0001
0010
0000
0001
0100
0000
0100
,
0020
2030
3001
0110
,
1001
0000
0000
0000
0000
1100
0000
0000
0000
1001
0000
0000
,
0000
0000
0101
0000
0000
0000
1001
0000
0000
0110
0000
0000
,
1001
0000
0000
0000
0000
1010
0000
0000
0000
1001
0000
0000
,
0000
0000
0011
0000
0000
0000
1001
0000
0000
0110
0000
0000
,
1002
0000
2003
0000
,
3200
0320
0332
1003
,
1001
0000
0000
1000
0000
0100
1000
0000
0001
1000
0000
0010
,
0200
0000
0000
2300
0000
0000
3230
0000
0000
0301
0000
1000
,
0001
0000
0000
0001
0000
0010
0001
0000
1000
0001
0000
0100
,
0020
0032
0323
1030
,
1010
0000
0000
0000
0000
1001
0000
0000
0000
1100
0000
0000
,
0000
0000
1001
0000
0000
0000
1100
0000
0000
0110
0000
0000
,
0011
0000
0000
0000
0000
1001
0000
0000
0000
0101
0000
0000
,
0000
0000
1001
0000
0000
0000
0011
0000
0000
0110
0000
0000
,
2001
0000
3200
0000
0320
0000
0030
0001
,
0100
1000
0000
0001
0010
1000
0000
0000
,
0002
0000
0023
0000
0230
0000
0300
1000
,
0020
0032
2000
3003
,
1001
0110
1001
1100
,
0101
0000
0000
0000
0000
2001
0000
0000
0000
3100
0000
0000
,
1100
0000
0000
0101
0000
0000
1000
0000
0010
1000
0000
0000
,
0001
0000
0010
0001
0000
1000
0010
0000
0000
1001
0000
0000
,
0101
0000
0000
1010
0000
0000
0001
0000
0100
0001
0000
1000
,
0100
0000
0010
0001
0000
0000
2000
0000
0000
0100
0000
0000
,
3010
1010
0002
0100
,
0013
0011
2001
3100
,
1002
0000
0000
0103
0000
0000
0001
0000
0100
0010
0000
2000
,
0000
0000
3001
0000
0000
1200
0000
0000
0310
0001
0000
0001
,
1000
0000
1000
0010
0000
0010
0100
0000
0100
0001
0000
0001
,
1000
0000
0001
0100
0000
0201
0000
0000
0310
1000
0000
1000
,
0100
0000
0100
0010
0000
0010
0002
0000
0203
0000
2300
0000
,
3200
0313
1010
2000
,
3200
3310
0011
0002
,
0203
0310
2010
3001
,
0012
1003
1001
0110
,
1001
0000
0001
0100
0000
0010
1000
0000
0000
0001
0000
0100
,
1000
0000
0100
0010
0000
0000
1000
0000
0100
0001
0000
0100
,
0010
0000
0000
1100
0000
0000
1001
0000
0000
0001
0000
0010
,
1000
0000
0010
0100
0000
0000
1000
0000
0010
0001
0000
0010
,
0100
0000
0000
0001
0000
0000
0101
0000
0000
0000
0000
1001
,
0000
0000
0000
0011
0000
0000
0000
0000
0110
0000
0000
0000
,
1001
0000
0000
0100
0000
0000
1010
0000
0000
0000
0000
1001
,
0000
0000
0000
1100
0000
0000
0000
0000
0110
0000
0000
0000
,
2002
0000
0000
0003
0000
0000
3001
0000
0100
0010
0000
0100
,
1000
0000
0100
0001
0000
0001
1000
0000
0001
0020
0000
0000
,
0230
1300
2001
0010
,
0100
0000
0000
3100
0000
0000
1000
0000
0100
0010
0000
0010
,
0002
1003
0001
0100
,
0010
1000
0010
1000
0000
0000
0001
0010
0001
0010
0000
0000
,
0100
1000
0100
1000
0000
0000
0001
0000
1000
0010
0000
0010
,
0100
0000
0001
1000
0000
0000
0000
0000
0020
0000
0000
0000
,
0130
1001
0000
0000
;

//---------------dance-single - ----------------
#NOTEDATA:;
#CHARTNAME:;
#STEPSTYPE:dance-single;
#DESCRIPTION:;
#CHARTSTYLE:;
#DIFFICULTY:Medium;
#METER:9;
#RADARVALUES:0.412439,0.566459,0.536171,0.268085,0.231997,280.000000,228.000000,52.000000,26.000000,0.000000,0.000000,0.000000,0.000000,0.000000,0.412439,0.566459,0.536171,0.268085,0.231997,280.000000,228.000000,52.000000,26.000000,0.000000,0.000000,0.000000,0.000000,0.000000;
#CREDIT:Ben Speirs;
#NOTES:
0000
0000
0000
0000
,
0000
0000
0000
0000
0000
0000
0000
0000
0000
0000
0000
2001
,
0000
0000
0000
0000
,
3200
0000
0000
0000
0000
0000
0000
0000
0000
0000
0000
0320
,
0000
0000
0000
0000
,
0032
0000
0000
0000
,
1003
0000
0000
0000
,
2020
0000
0000
3030
,
1001
0000
0000
0000
,
1000
0001
0100
0010
,
1001
0000
0000
0000
0000
1000
0000
0000
0000
0100
0000
0000
,
0000
0000
0100
0000
0000
0000
0010
0000
0000
0001
0000
0000
,
0100
0000
0000
0000
0000
0100
0000
0000
0000
0010
0000
0000
,
0000
0000
0010
0000
0000
0000
1000
0000
0000
0001
0000
0000
,
1001
0000
0000
0000
0000
1000
0000
0000
0000
0001
0000
0000
,
0000
0000
0010
0000
0000
0000
0001
0000
0000
1000
0000
0000
,
0100
0000
0000
0000
,
2000
0000
3002
0000
,
0103
0010
0100
0001
,
0010
0010
0100
0000
,
1000
0100
0010
0010
,
0100
1000
0001
0000
,
1001
0000
0000
0000
0000
1000
0000
0000
0000
0110
0000
0000
,
0000
0000
0010
0000
0000
0000
1001
0000
0000
0000
0000
0000
,
1001
0000
0000
0000
0000
0001
0000
0000
0000
0110
0000
0000
,
0000
0000
0010
0000
0000
0000
0001
0000
0000
1000
0000
0000
,
2001
3000
0002
0003
,
0200
0300
0020
1030
,
1001
0000
0000
0001
0000
0000
0100
0000
0000
0010
0000
1000
,
0010
0100
0001
0000
,
1000
0000
0000
0100
0000
0000
0010
0000
0000
0001
0000
0010
,
0001
1000
0001
0000
,
1001
0000
0000
0000
0000
1001
0000
0000
0000
1100
0000
0000
,
0000
0000
1100
0000
0000
0000
1100
0000
0000
0110
0000
0000
,
0011
0000
0000
0000
0000
0011
0000
0000
0000
1001
0000
0000
,
0000
0000
1001
0000
0000
0000
0101
0000
0000
0110
0000
0000
,
1010
0000
2000
0000
3002
0000
0003
1000
,
0100
1000
0000
0001
0100
0001
0000
0000
,
1000
0000
0002
0000
2003
0000
3000
0010
,
0020
0230
0302
0003
,
1001
1100
1001
0101
,
1001
0000
0000
0000
0000
2010
0000
0000
0000
3001
0000
0000
,
0101
0101
1000
0100
,
0010
0000
0100
0010
0000
0002
0000
0000
0000
1003
0000
0000
,
1100
0000
0000
1100
0000
0000
0001
0000
1000
0010
0000
0000
,
1000
0000
0001
0010
0000
0000
0001
0000
0000
0100
0000
0000
,
0010
0010
1000
0100
,
0010
0010
0110
0000
,
1001
0000
0000
0000
0000
0000
1000
0000
0100
1000
0000
0100
,
0000
0000
0000
0000
0000
2001
0000
0000
0000
3100
0000
0000
,
0010
0010
0001
1000
,
0010
0000
1000
0000
0000
0002
0000
0000
0000
0103
0000
0000
,
0010
0000
0000
0010
0000
0000
0100
0000
0001
0000
1000
0000
,
0002
0000
1003
0100
,
0010
0010
0001
0100
,
0010
0010
1010
1000
,
0100
0000
0011
0001
,
1000
0000
0000
0010
0000
0000
1001
0000
0000
0000
0000
0001
,
0000
0000
0000
0100
0000
0000
0000
0000
0100
0000
0000
0000
,
0010
0000
0000
1000
0000
0000
0100
0000
0000
0000
0000
0100
,
0000
0000
0000
0010
0000
0000
0000
0000
0010
0000
0000
0000
,
0001
0000
0000
1000
0000
0000
1001
0000
0000
0000
0000
1001
,
0000
0000
0000
1100
0000
0000
0000
0000
1100
0000
0000
0000
,
1001
0000
0000
0000
0000
0000
1001
0000
0000
0000
0000
1001
,
0000
0000
0000
0101
0000
0000
0000
0000
0101
0000
0000
0000
,
1001
0000
0000
0000
0000
0000
1000
0000
0000
0100
0000
1000
,
0100
0000
0000
0010
0000
0000
0001
0000
0010
0001
0000
0000
,
1000
0001
0200
0000
,
0000
0000
0310
1000
,
0001
1000
0001
0000
,
1000
0000
0100
1000
0000
0000
0100
0000
0010
0100
0000
0000
,
0010
0000
0001
0010
0000
0000
0001
0000
0000
0000
0000
1000
,
0000
0000
0000
0010
0000
0000
0000
0000
0200
0000
0000
0000
,
0310
1001
0000
0000
;

//---------------dance-single - ----------------
#NOTEDATA:;
#CHARTNAME:;
#STEPSTYPE:dance-single;
#DESCRIPTION:;
#CHARTSTYLE:;
#DIFFICULTY:Easy;
#METER:6;
#RADARVALUES:0.269558,0.339876,0.113421,0.134043,0.000000,183.000000,172.000000,11.000000,13.000000,0.000000,0.000000,0.000000,0.000000,0.000000,0.269558,0.339876,0.113421,0.134043,0.000000,183.000000,172.000000,11.000000,13.000000,0.000000,0.000000,0.000000,0.000000,0.000000;
#CREDIT:Ben Speirs;
#NOTES:
0000
0000
0000
0000
,
0000
0000
0000
0000
,
2000
0000
0000
0000
,
3002
0000
0000
0000
,
0203
0000
0000
0000
,
0320
0000
0000
0000
,
1030
0000
0000
0000
,
2002
0000
0000
3003
,
0001
0000
0000
0000
,
1000
0001
1000
0000
,
0001
0100
0010
0000
,
0100
0000
0100
0000
,
0010
1000
0100
0000
,
0010
0000
0100
0000
,
1000
0100
0010
0000
,
0001
0000
1000
0001
,
0100
0000
0000
0000
,
0001
0000
1000
0000
,
0001
0100
0001
0000
,
0100
0100
0010
0000
,
1000
0100
1000
0000
,
0100
0100
0010
0000
,
0001
0000
0000
1001
,
0000
0000
1000
0010
,
1000
0000
0000
1001
,
0000
0000
0001
0010
,
0001
0000
1000
0000
,
0010
0000
0100
0000
,
0001
0000
0100
0000
,
0010
1000
0010
1000
,
0010
0000
1000
0000
,
0001
0010
0001
0010
,
0001
0000
0000
1001
,
0000
0000
0001
1000
,
0010
0000
0000
0110
,
0000
0000
0100
0010
,
2000
3000
0200
0300
,
0010
0010
0001
0000
,
0002
0003
0200
0300
,
0010
0010
1000
0000
,
0001
1000
0001
1000
,
0010
0000
1000
0100
,
1000
0000
0001
0100
,
0001
0000
1000
0100
,
0010
0000
0001
0100
,
0010
0000
1000
0010
,
1000
0100
0010
0001
,
1000
0000
1001
0000
,
1001
0000
0001
0100
,
0010
0000
1000
1000
,
0010
0010
0100
0000
,
0100
0000
0001
0001
,
0010
0010
0100
0000
,
0100
0000
1000
0100
,
0010
0000
0001
0100
,
0010
0000
1000
0010
,
0100
0001
0010
0100
,
1000
0000
2002
0000
,
0000
0000
3003
0000
,
0001
1000
0010
0000
,
0010
0000
0100
0001
,
1000
0000
0001
0000
,
0000
1001
0000
0000
,
1000
0010
0100
0000
,
0000
0110
0000
0000
,
0010
0000
1000
0000
,
1000
0000
0100
0000
,
0100
0010
0002
0000
,
0000
0003
1000
1000
,
0001
0000
0001
0100
,
0010
0010
1000
1000
,
0001
0000
1000
0000
,
0100
0100
0000
0000
,
0000
1001
0000
0000
;

//---------------dance-single - ----------------
#NOTEDATA:;
#CHARTNAME:;
#STEPSTYPE:dance-single;
#DESCRIPTION:;
#CHARTSTYLE:;
#DIFFICULTY:Beginner;
#METER:3;
#RADARVALUES:0.134043,0.188820,0.030933,0.000000,0.000000,91.000000,88.000000,3.000000,0.000000,0.000000,0.000000,0.000000,0.000000,0.000000,0.134043,0.188820,0.030933,0.000000,0.000000,91.000000,88.000000,3.000000,0.000000,0.000000,0.000000,0.000000,0.000000,0.000000;
#CREDIT:Ben Speirs;
#NOTES:
0000
0000
0000
0000
,
0000
0000
0000
0000
,
1000
0000
0000
0000
,
1000
0000
0000
0000
,
0001
0000
0000
0000
,
0001
0000
0000
0000
,
0100
0000
0000
0000
,
0100
0000
0000
0000
,
0010
0000
0000
0000
,
0010
0000
0000
0000
,
1000
0000
0000
0000
,
1000
0000
0000
0000
,
0001
0000
0000
0000
,
0001
0000
0000
0000
,
0010
0000
0000
0000
,
0010
0000
0000
0000
,
0100
0000
0000
0000
,
0000
0000
0000
0000
,
1001
0000
0000
0000
,
1000
0000
1000
0000
,
1000
0000
0000
0000
,
0010
0000
0000
0000
,
0100
0000
0000
0100
,
0000
0000
0000
0000
,
0010
0000
0000
0010
,
0000
0000
0000
0000
,
1000
0000
0000
0000
,
0001
0000
0000
0000
,
0100
0000
0000
0000
,
0100
0000
0100
0000
,
0100
0000
0000
0000
,
0010
0000
0010
0000
,
0010
0000
0000
0010
,
0000
0000
0000
0000
,
1000
0000
0000
1000
,
0000
0000
0000
0000
,
0001
0000
0000
0000
,
1000
0000
1000
0000
,
1000
0000
0000
0000
,
0100
0000
0100
0000
,
0100
0000
0000
0000
,
1001
0000
0000
1000
,
0000
1000
0000
1000
,
0000
0000
0000
0001
,
0000
0001
0000
0001
,
0000
0000
0000
0100
,
0100
0000
0000
0100
,
0100
0000
0100
0000
,
0000
0000
0010
0000
,
0000
0000
0000
0010
,
0000
0010
0000
0010
,
0000
0000
0000
0100
,
0000
0100
0000
0100
,
0000
0000
0000
0001
,
0001
0000
0000
0001
,
0001
0000
0000
1000
,
1000
0000
0000
1000
,
1000
0000
1000
0000
,
0000
0000
0010
0000
,
0000
0000
0100
0000
,
0000
0000
0001
0000
,
0000
0000
1000
0000
,
0000
1000
0000
0000
,
0000
0000
0001
0000
,
0000
0001
0000
0000
,
0000
0000
0100
0000
,
0000
0000
0100
0000
,
0000
0000
0010
0000
,
0000
0000
0010
0000
,
0000
0000
1000
0000
,
1000
0000
1000
0000
,
1000
0000
1000
0000
,
0000
0000
0000
0000
,
0000
1001
0000
0000
;

//---------------dance-double - ----------------
#NOTEDATA:;
#CHARTNAME:;
#STEPSTYPE:dance-double;
#DESCRIPTION:;
#CHARTSTYLE:;
#DIFFICULTY:Hard;
#METER:12;
#RADARVALUES:0.581834,0.641987,0.783634,0.453683,0.510393,395.000000,319.000000,76.000000,44.000000,0.000000,0.000000,0.000000,0.000000,0.000000,0.581834,0.641987,0.783634,0.453683,0.510393,395.000000,319.000000,76.000000,44.000000,0.000000,0.000000,0.000000,0.000000,0.000000;
#CREDIT:Ben Speirs;
#NOTES:
// measure 0
00000000
00000000
00000000
00000000
,  // measure 1
00000000
00000000
00000000
00000000
00000000
00000000
00000000
00000000
00000000
00000000
00000000
00022000
,  // measure 2
00000000
00000000
00000000
00033000
,  // measure 3
00020200
00000000
00000000
00000000
00000000
00000000
00000000
00000000
00000000
00030300
00000000
00000220
,  // measure 4
00000000
00000000
00000000
00000330
,  // measure 5
00001002
00000100
00000010
00001003
,  // measure 6
00001100
00000000
00000000
00000000
,  // measure 7
00022000
00000000
00000000
00033000
,  // measure 8
00110000
00000000
00000000
00000000
,  // measure 9
10010000
11000000
10010000
01010000
,  // measure 10
10010000
00000000
00000000
10000000
00000000
00010000
01000000
00000000
00010000
10000000
00000000
00000000
,  // measure 11
00010000
00000000
10000000
00100000
00000000
10000000
00020000
00000000
00000000
00230000
00000000
00000000
,  // measure 12
00301000
00000000
00000000
00010000
00000000
00000100
00000010
00000000
00000100
00010000
00000000
00000000
,  // measure 13
00000100
00000000
00010000
00000010
00000000
00010000
00000200
00000000
00000000
00000310
00000000
00000000
,  // measure 14
00001001
00000000
00000000
00000001
00000000
00001000
00000010
00000000
00001000
00000001
00000000
00000000
,  // measure 15
00001000
00000000
00000001
00000100
00000000
00000001
00002000
00000000
00000000
00003100
00000000
00000000
,  // measure 16
00010100
00000000
00000000
00000000
,  // measure 17
00020000
00000000
00230000
00000000
,  // measure 18
10300000
00000000
00000000
00010000
00000000
01000000
00010000
00000000
10000000
00010000
00000000
00100000
,  // measure 19
00020000
02030000
03001000
00010100
,  // measure 20
00000101
00000000
00000000
00001000
00000000
00000010
00001000
00000000
00000001
00001000
00000000
00000100
,  // measure 21
00002000
00003020
00010030
00001000
,  // measure 22
00011000
00000000
00000000
00000000
00000000
00101000
00000000
00000000
00000000
10001000
00000000
00000000
,  // measure 23
00000000
00000000
01001000
00000000
00000000
00000000
00011000
00000000
00000000
00101000
00000000
00000000
,  // measure 24
00011000
00000000
00000000
00000000
00000000
00010100
00000000
00000000
00000000
00010001
00000000
00000000
,  // measure 25
00000000
00000000
00010010
00000000
00000000
00000000
00011000
00000000
00000000
00010100
00000000
00000000
,  // measure 26
00021000
00000000
00200000
00030000
,  // measure 27
00002000
00300000
00003020
00000130
,  // measure 28
00001001
00000000
00000000
00000001
00000000
00000100
00001000
00000000
00000100
00000010
00000000
00001000
,  // measure 29
00000200
00000000
00000000
00020300
00000000
00000000
00031000
00000000
00001000
00100000
00000000
00000000
,  // measure 30
10010000
00000000
00000000
10000000
00000000
00100000
00010000
00000000
00100000
01000000
00000000
00010000
,  // measure 31
00200000
00000000
00000000
00302000
00000000
00000000
00013000
00000000
00010000
00000100
00000000
00000000
,  // measure 32
00010100
00000000
00000000
00000000
00000000
00000110
00000000
00000000
00000000
00000011
00000000
00000000
,  // measure 33
00000000
00000000
00000110
00000000
00000000
00000000
00001100
00000000
00000000
00011000
00000000
00000000
,  // measure 34
00101000
00000000
00000000
00000000
00000000
01100000
00000000
00000000
00000000
11000000
00000000
00000000
,  // measure 35
00000000
00000000
01100000
00000000
00000000
00000000
00110000
00000000
00000000
00011000
00000000
00000000
,  // measure 36
00010200
00000000
00020300
00000000
00230000
00000000
00300000
10000000
,  // measure 37
00100000
00010000
00000000
00001000
00000100
00000001
00000000
00000000
,  // measure 38
00001000
00000000
00000002
00000000
00000023
00000000
00001030
00010000
,  // measure 39
02000000
23000000
30200000
00310000
,  // measure 40
00011000
00101000
00011000
00010010
,  // measure 41
00011000
00000000
00000000
00000000
00000000
00001001
00000000
00000000
00000001
00000100
00000000
00000000
,  // measure 42
00000010
00000000
00001000
00000100
00000000
00000000
00010000
00000000
00001000
00010000
00000000
00001000
,  // measure 43
00100000
00000000
00010000
00000000
00000000
01010000
00000000
00000000
10000000
01000000
00000000
00000000
,  // measure 44
10000000
00000000
00010000
01000000
00000000
00000000
00010000
00000000
00100000
00010000
00000000
00100000
,  // measure 45
00001000
00000000
00010000
00000100
00000000
00000000
00002000
00000000
00000000
00000100
00000000
00000000
,  // measure 46
00003010
00001010
00000002
00000100
,  // measure 47
00000010
00000003
00000000
00000011
00000000
00000000
00001001
00000000
00000000
00000000
00000000
00000000
,  // measure 48
00011000
00000000
00000000
00000000
00000000
00000000
00010000
00000000
00001000
00010000
00000000
00001000
,  // measure 49
00000000
00000000
00100000
00000000
00000000
10010000
00000000
00000000
00010000
10000000
00000000
10000000
,  // measure 50
00100000
00000000
00100000
01000000
00000000
01000000
00010000
00000000
00010000
00100000
00000000
00100000
,  // measure 51
00001000
00000000
00010000
00000100
00000000
00000010
00000000
00000000
00000010
00000001
00000000
00000001
,  // measure 52
00001000
00000000
00001000
00000010
00000000
00000010
00001000
00000000
00000001
00000000
00001000
00000000
,  // measure 53
00000200
00010300
00010100
00010000
,  // measure 54
00001000
00100000
00110000
00010000
,  // measure 55
10000000
00100000
10100000
00010000
,  // measure 56
01010000
10000000
10010000
01100000
,  // measure 57
10010000
00000000
00000000
01100000
00000000
00000000
10010000
00000000
00000000
00010000
00000000
01000000
,  // measure 58
10000000
00000000
01000000
00100000
00000000
00000000
01000000
00000000
00010000
00100000
00000000
00001000
,  // measure 59
00010000
00000000
00000000
00000100
00000000
00000000
00001001
00000000
00000000
00001000
00000000
00000010
,  // measure 60
00000001
00000000
00000010
00000100
00000000
00000000
00000010
00000000
00001000
00000100
00000000
00010000
,  // measure 61
00001000
00000000
00001000
00100000
00000000
00100000
00010000
00000000
00000000
00000000
00000000
10010000
,  // measure 62
00000000
00000000
00000000
00011000
00000000
00000000
00000000
00000000
00001001
00000000
00000000
00000000
,  // measure 63
00000220
00000000
00000000
00033330
00000000
00000000
00000001
00000000
00000000
00000000
00000000
00001001
,  // measure 64
00000000
00000000
00000000
00011000
00000000
00000000
00000000
00000000
10010000
00000000
00000000
00000000
,  // measure 65
02200000
00000000
00000000
03300000
00000000
00000000
10010000
00000000
00000000
10000000
00000000
01000000
,  // measure 66
10000000
00000000
00010000
01000000
00000000
01000000
00100000
00000000
01000000
00010000
00000000
00100000
,  // measure 67
00001000
00000000
00010000
00000100
00000000
00000000
00002000
00000000
00000000
00000100
00000000
00000000
,  // measure 68
00000001
00000000
00000000
00003010
00000000
00000000
00001000
00000000
00000010
00000100
00000000
00000100
,  // measure 69
00000001
00001003
00000001
00000103
,  // measure 70
00000010
00001000
00000010
00001000
00000000
00000000
00000100
00010000
00000100
00010000
00000000
00000000
,  // measure 71
00001000
00100000
00001000
00100000
00000000
00000000
00010000
00000000
10000000
00010000
00000000
10000000
,  // measure 72
00100000
00000000
01000000
00001000
00000000
00000000
00000000
00000000
00020000
00000000
00000000
00000000
,  // measure 73
00031000
00011000
00000000
00000000
;

//---------------dance-double - ----------------
#NOTEDATA:;
#CHARTNAME:;
#STEPSTYPE:dance-double;
#DESCRIPTION:;
#CHARTSTYLE:;
#DIFFICULTY:Medium;
#METER:10;
#RADARVALUES:0.430115,0.528695,0.556793,0.340262,0.237153,292.000000,238.000000,54.000000,33.000000,0.000000,0.000000,0.000000,0.000000,0.000000,0.430115,0.528695,0.556793,0.340262,0.237153,292.000000,238.000000,54.000000,33.000000,0.000000,0.000000,0.000000,0.000000,0.000000;
#CREDIT:Ben Speirs;
#NOTES:
// measure 0
00000000
00000000
00000000
00000000
,  // measure 1
00000000
00000000
00000000
00000000
00000000
00000000
00000000
00000000
00000000
00000000
00000000
00022000
,  // measure 2
00000000
00000000
00000000
00033000
,  // measure 3
00202000
00000000
00000000
00000000
00000000
00000000
00000000
00000000
00000000
00303000
00000000
02200000
,  // measure 4
00000000
00000000
00000000
03300000
,  // measure 5
20020000
00000000
00000000
30030000
,  // measure 6
10100000
00000000
00000000
00000000
,  // measure 7
02020000
00000000
00000000
03030000
,  // measure 8
00011000
00000000
00000000
00000000
,  // measure 9
00020000
00030200
00000320
00000031
,  // measure 10
00001001
00000000
00000000
00000000
00000000
00000001
00000000
00000000
00000000
00000100
00000000
00000000
,  // measure 11
00000000
00000000
00000100
00000000
00000000
00000000
00000010
00000000
00000000
00001000
00000000
00000000
,  // measure 12
00000100
00000000
00000000
00000000
00000000
00000100
00000000
00000000
00000000
00010000
00000000
00000000
,  // measure 13
00000000
00000000
00010000
00000000
00000000
00000000
00001000
00000000
00000000
00100000
00000000
00000000
,  // measure 14
00110000
00000000
00000000
00000000
00000000
00010000
00000000
00000000
00000000
10000000
00000000
00000000
,  // measure 15
00000000
00000000
10000000
00000000
00000000
00000000
00010000
00000000
00000000
01000000
00000000
00000000
,  // measure 16
01100000
00000000
00000000
00000000
,  // measure 17
20000000
00000000
00000000
30000000
30000000
00000000
00020000
00000000
00000000
00030000
00030000
00000000
,  // measure 18
10000000
00000000
00000000
01000000
00000000
00000000
00100000
00000000
00000000
00010000
00000000
01000000
,  // measure 19
00010000
01000000
00001000
00010000
,  // measure 20
00000100
00000000
00000000
00000010
00000000
00000000
00000001
00000000
00000000
00001000
00000000
00000010
,  // measure 21
00001000
00000001
00000010
00000100
,  // measure 22
00001100
00000000
00000000
00000000
00000000
00001100
00000000
00000000
00000000
00011000
00000000
00000000
,  // measure 23
00000000
00000000
00011000
00000000
00000000
00000000
00010000
00000000
00000000
00001000
00000000
00000000
,  // measure 24
00101000
00000000
00000000
00000000
00000000
00101000
00000000
00000000
00000000
00110000
00000000
00000000
,  // measure 25
00000000
00000000
00110000
00000000
00000000
00000000
00010000
00000000
00000000
10000000
00000000
00000000
,  // measure 26
20010000
00000000
30200000
00000000
,  // measure 27
00320000
00000000
00032000
00003020
,  // measure 28
00000031
00001000
00000001
00000100
,  // measure 29
00000010
00000000
00000000
00000010
00000000
00000000
00000010
00000000
00000000
00001000
00000000
00000100
,  // measure 30
00010000
00001000
00100000
00010000
,  // measure 31
01000000
00000000
00000000
01000000
00000000
00000000
01000000
00000000
00000000
00010000
00000000
10000000
,  // measure 32
00100000
00000000
00000000
00000000
00000000
10100000
00000000
00000000
00000000
00010000
00000000
00000000
,  // measure 33
00000000
00000000
01010000
00000000
00000000
00000000
00011000
00000000
00000000
00011000
00000000
00000000
,  // measure 34
00000100
00000000
00000000
00000000
00000000
00001100
00000000
00000000
00000000
00000001
00000000
00000000
,  // measure 35
00000000
00000000
00000011
00000000
00000000
00000000
00001001
00000000
00000000
00000110
00000000
00000000
,  // measure 36
00001002
00000000
00000203
00000000
00000320
00000000
00000030
00001000
,  // measure 37
00000100
00001000
00000000
00000100
00010000
00000100
00000000
00000000
,  // measure 38
00000000
00000000
00020000
00000000
00032000
00000000
00103000
00010000
,  // measure 39
02000000
03200000
20300000
30010000
,  // measure 40
10010000
01100000
10010000
01100000
,  // measure 41
10010000
00000000
00000000
00000000
00000000
02010000
00000000
00000000
00000000
03100000
00000000
00000000
,  // measure 42
10000000
00000000
00000000
00010000
00000000
00000000
00100000
00000000
00010000
01000000
00000000
00000000
,  // measure 43
00010000
00000000
01000000
00001000
00000000
00000000
00010000
00000000
00000000
00010000
00000000
00000000
,  // measure 44
00000100
00000000
00000000
00000100
00000000
00000000
00001000
00000000
00000100
00000010
00000000
00000000
,  // measure 45
00000001
00000000
00001000
00000001
00000000
00000000
00001000
00000000
00000000
00000001
00000000
00000000
,  // measure 46
00000100
00001000
00010000
00100000
,  // measure 47
10000000
00010000
10010000
00000000
,  // measure 48
00011000
00000000
00000000
00000000
00000000
00000000
00001001
00000000
00000000
00000000
00000000
00000110
,  // measure 49
00000000
00000000
00000000
00000000
00000000
00001001
00000000
00000000
00000000
00000001
00000000
00000000
,  // measure 50
00000100
00000000
00000000
00000100
00000000
00000000
00000010
00000000
00001000
00000010
00000000
00000000
,  // measure 51
00010000
00000000
00001000
00010000
00000000
00000000
00001000
00000000
00000000
00100000
00000000
00000000
,  // measure 52
00010000
00000000
00000000
10000000
00000000
00000000
00010000
00000000
01000000
00000000
00010000
00000000
,  // measure 53
02000000
00000000
03100000
10000000
,  // measure 54
01000000
00010000
00001000
00000010
,  // measure 55
00000001
00000100
00000101
00000000
,  // measure 56
00001010
00000000
00001000
00000100
,  // measure 57
00010000
00000000
00000000
00001000
00000000
00000000
00011000
00000000
00000000
00000000
00000000
00001000
,  // measure 58
00000000
00000000
00000000
00100000
00000000
00000000
00000000
00000000
00100000
00000000
00000000
00000000
,  // measure 59
00001000
00000000
00000000
00010000
00000000
00000000
00011000
00000000
00000000
00000000
00000000
00010000
,  // measure 60
00000000
00000000
00000000
00000010
00000000
00000000
00000000
00000000
00000010
00000000
00000000
00000000
,  // measure 61
00010000
00000000
00000000
00001000
00000000
00000000
00011000
00000000
00000000
00000000
00000000
00101000
,  // measure 62
00000000
00000000
00000000
00011000
00000000
00000000
00000000
00000000
00010010
00000000
00000000
00000000
,  // measure 63
00011000
00000000
00000000
00000000
00000000
00000000
00011000
00000000
00000000
00000000
00000000
01001000
,  // measure 64
00000000
00000000
00000000
00011000
00000000
00000000
00000000
00000000
00010100
00000000
00000000
00000000
,  // measure 65
00012000
00000000
00103000
00010000
,  // measure 66
01000000
00000000
00000000
00100000
00000000
00000000
10000000
00000000
00010000
10000000
00000000
00000000
,  // measure 67
00010000
01000000
00002000
00000000
,  // measure 68
00013000
00010000
00000100
00000010
,  // measure 69
00000001
00000000
00001000
00001000
,  // measure 70
00000001
00000000
00000100
00000001
00000000
00000000
00001000
00000000
00000100
00001000
00000000
00000000
,  // measure 71
00000100
00000000
00010000
00000100
00000000
00000000
00010000
00000000
00000000
00001000
00000000
00000000
,  // measure 72
00100000
00000000
00000000
00010000
00000000
00000000
00000000
00000000
02000000
00000000
00000000
00000000
,  // measure 73
03100000
10010000
00000000
00000000
;

//---------------dance-double - ----------------
#NOTEDATA:;
#CHARTNAME:;
#STEPSTYPE:dance-double;
#DESCRIPTION:;
#CHARTSTYLE:;
#DIFFICULTY:Easy;
#METER:6;
#RADARVALUES:0.257774,0.339876,0.092799,0.103110,0.000000,175.000000,166.000000,9.000000,10.000000,0.000000,0.000000,0.000000,0.000000,0.000000,0.257774,0.339876,0.092799,0.103110,0.000000,175.000000,166.000000,9.000000,10.000000,0.000000,0.000000,0.000000,0.000000,0.000000;
#CREDIT:Ben Speirs;
#NOTES:
// measure 0
00000000
00000000
00000000
00000000
,  // measure 1
00000000
00000000
00000000
00000000
,  // measure 2
00020000
00000000
00000000
00000000
,  // measure 3
00030200
00000000
00000000
00000000
,  // measure 4
00000320
00000000
00000000
00000000
,  // measure 5
00000032
00000000
00000000
00000000
,  // measure 6
00001003
00000000
00000000
00000000
,  // measure 7
00002002
00000000
00000000
00003003
,  // measure 8
00000001
00000000
00000000
00000000
,  // measure 9
00001000
00001000
00000100
00000100
,  // measure 10
00010000
00000000
00010000
00000000
,  // measure 11
00001000
00000000
00001000
00100000
,  // measure 12
00010000
00000000
00010000
00000000
,  // measure 13
10000000
00000000
10000000
00100000
,  // measure 14
01000000
00000000
01000000
00000000
,  // measure 15
00010000
00000000
00010000
00100000
,  // measure 16
00001000
00000000
00000000
00000000
,  // measure 17
00020000
00030000
00000200
00000300
,  // measure 18
00000010
00000001
00000010
00000001
,  // measure 19
00001000
00000000
00000100
00000000
,  // measure 20
00010000
00001000
00010000
00001000
,  // measure 21
00100000
00000000
00010000
00000000
,  // measure 22
10000000
00000000
00000000
10100000
,  // measure 23
00000000
00000000
00010000
10000000
,  // measure 24
00010000
00000000
00000000
01010000
,  // measure 25
00000000
00000000
00010000
01000000
,  // measure 26
00001000
00000000
00010000
00000000
,  // measure 27
00000100
00000000
00000010
00000000
,  // measure 28
00000001
00000000
00000001
00000000
,  // measure 29
00001000
00000100
00001000
00000100
,  // measure 30
00010000
00000000
00010000
00000000
,  // measure 31
00001000
00100000
00001000
00100000
,  // measure 32
00010000
00000000
00000000
10010000
,  // measure 33
00000000
00000000
00001000
00010000
,  // measure 34
00001000
00000000
00000000
00011000
,  // measure 35
00000000
00000000
00000001
00001000
,  // measure 36
00000001
00000000
00000100
00000000
,  // measure 37
00000010
00000010
00001000
00000000
,  // measure 38
00000100
00000000
00010000
00000000
,  // measure 39
00001000
00001000
00100000
00000000
,  // measure 40
00010000
00100000
01000000
10000000
,  // measure 41
10010000
00000000
10000000
00000000
,  // measure 42
00010000
00000000
01000000
01000000
,  // measure 43
00001000
00001000
00010000
00000000
,  // measure 44
00000100
00000000
00001000
00001000
,  // measure 45
00000001
00000000
00001000
00000010
,  // measure 46
00001000
00000000
00000001
00000100
,  // measure 47
00000001
00000000
00001000
00000000
,  // measure 48
00000100
00000000
00010000
00000000
,  // measure 49
00010000
00000000
00001000
00010000
,  // measure 50
00001000
00000000
00100000
00010000
,  // measure 51
00100000
00000000
00010000
10000000
,  // measure 52
00010000
00000000
10000000
00100000
,  // measure 53
10000000
00000000
00010000
00000000
,  // measure 54
01000000
00000000
00001000
00000000
,  // measure 55
00010000
00000000
00000100
00000100
,  // measure 56
00000010
00000010
00000001
00001000
,  // measure 57
00000001
00000100
00000200
00000000
,  // measure 58
00000300
00000000
00000020
00000000
,  // measure 59
00000030
00000000
00001000
00000000
,  // measure 60
00000100
00000000
00010000
00000000
,  // measure 61
00001000
00100000
00010000
00000000
,  // measure 62
00000000
10010000
00000000
00000000
,  // measure 63
10000000
00000000
10000000
00000000
,  // measure 64
00000000
10010000
00000000
00000000
,  // measure 65
00010000
00000000
01000000
00000000
,  // measure 66
01000000
00000000
00001000
00000000
,  // measure 67
00001000
00000000
00010000
00000000
,  // measure 68
00000100
00000000
00000010
00000001
,  // measure 69
00001000
00000000
00000001
00000000
,  // measure 70
00001000
00000100
00001000
00000100
,  // measure 71
00010000
00000000
00001000
00100000
,  // measure 72
00010000
01000000
00000000
00000000
,  // measure 73
00000000
10010000
00000000
00000000
;
