#TITLE:VAMPIR;
#SUBTITLE:;
#ARTIST:IC3PEAK feat. Oli Sykes;
#TITLETRANSLIT:;
#SUBTITLETRANSLIT:;
#ARTISTTRANSLIT:;
#GENRE:;
#CREDIT:;
#BANNER:VAMPIR.png;
#BACKGROUND:VAMPIR-bg.png;
#LYRICSPATH:;
#CDTITLE:;
#MUSIC:VAMPIR.ogg;
#OFFSET:0.000000;
#SAMPLESTART:31.412981;
#SAMPLELENGTH:13.459998;
#SELECTABLE:YES;
#BPMS:0.000000=107.000000
,36.000000=214.000000
,108.000000=107.000000
,168.000000=214.000000
,176.000000=107.000000
,179.000000=214.000000
,276.000000=107.000000
;
#STOPS:179.000000=0.280500
;
#BGCHANGES:;
#KEYSOUNDS:;
#ATTACKS:;

//---------------dance-single - ----------------
#NOTES:
     dance-single:
     :
     Beginner:
     6:
     0.000000,0.000000,0.000000,0.000000,0.000000,0.000000,0.000000,0.000000,0.000000,0.000000,0.000000,0.000000,0.000000,0.000000,0.000000,0.000000,0.000000,0.000000,0.000000,0.000000,0.000000,0.000000:
0000
0000
0000
0000
,
0000
0000
0000
0000
,
0000
0000
0000
0000
,
1000
0000
1000
0000
,
0001
0001
0001
0000
,
1000
0000
0010
0010
,
0010
0000
0100
0000
,
0001
0000
0010
0010
,
0010
0000
0100
0000
,
2000
0000
0000
3000
,
0000
0000
0000
0000
,
0001
0000
0100
0000
,
0001
0000
0010
0000
,
0100
0000
0010
0000
,
0001
0001
0001
0000
,
1000
0000
0100
0000
,
1000
0000
0010
0000
,
0100
0000
0010
0000
,
1000
1000
1000
0000
,
0001
0000
2002
3003
,
1001
0000
0010
0000
,
0100
0000
2002
3003
,
1001
0000
0100
0000
,
0010
0000
2002
3003
,
1001
0000
0010
0000
,
0100
0000
2002
3003
,
2002
0000
3003
0000
,
0001
0000
0100
0000
,
1000
0000
0100
0000
,
0001
0000
0010
0000
,
1000
0000
0010
0000
,
0002
0003
0001
0000
,
2000
3000
1000
0000
,
0020
0030
0010
0000
,
0200
0300
0100
0000
,
0001
0000
0000
0000
,
1000
0000
1000
0000
,
0100
0000
0000
0000
,
0010
0000
0010
0000
,
0200
0300
0100
0000
,
0010
0010
0010
0000
,
0002
0003
0001
0000
,
1001
0000
1001
0000
,
2002
0000
3003
0000
,
2000
0000
0000
3000
,
1000
0000
0001
0000
,
0100
0000
0010
0000
,
1000
1000
1000
0000
,
0001
0001
0001
0000
,
0110
0000
1001
0000
,
0110
0000
1001
0000
,
1000
1000
1000
0000
,
0010
0010
0010
0000
,
0100
0000
0110
0000
,
2002
0000
3003
0000
,
0001
0000
1001
0000
,
0220
0000
0330
0000
,
0010
0000
0110
0000
,
2002
0000
3003
0000
,
1000
0000
1001
0000
,
0220
0000
0330
0000
,
0001
0000
2002
3003
,
1001
0000
0010
0000
,
0100
0000
2002
3003
,
1001
0000
0001
0000
,
0100
0000
0220
0330
,
0110
0000
1000
0000
,
0100
0000
0220
0330
,
0220
0000
0000
0000
,
0330
0000
0000
0000
;

//---------------dance-single - ----------------
#NOTES:
     dance-single:
     :
     Easy:
     8:
     0.000000,0.000000,0.000000,0.000000,0.000000,0.000000,0.000000,0.000000,0.000000,0.000000,0.000000,0.000000,0.000000,0.000000,0.000000,0.000000,0.000000,0.000000,0.000000,0.000000,0.000000,0.000000:
0000
0000
0000
0000
,
0000
0000
0000
0000
,
0000
0000
0000
0000
,
1000
0010
0100
0010
,
1000
0001
0020
0030
,
0001
0100
0010
1000
,
0001
0010
0200
0300
,
1000
0010
0100
0001
,
0010
0100
0020
0030
,
0002
0000
0000
0003
,
0000
0000
0000
0000
,
1000
0000
1000
0000
,
0010
0100
0010
0000
,
1000
0001
0010
0100
,
1000
0010
2000
3000
,
0001
0000
0001
0000
,
0100
0010
0100
0000
,
0001
0010
0100
0010
,
0001
0100
0020
0030
,
1000
0000
2002
3003
,
0022
0033
1000
1000
,
0001
0100
0202
0303
,
2020
3030
0001
1000
,
0100
0000
0220
0330
,
0022
0033
1000
0010
,
0100
0001
2002
3003
,
0220
0000
0000
0330
,
2000
3000
0002
0003
,
0010
0000
0100
0000
1000
0001
1000
0000
,
0020
0030
0200
0300
,
0001
0000
0010
0000
0100
1000
0100
0000
,
0020
0031
2000
3010
,
0200
0000
0301
0000
1000
0010
1000
0000
,
0002
0013
0200
0310
,
0002
0000
0103
0000
0010
1000
0001
0000
,
1000
0000
0001
0000
,
1000
0000
0100
0010
0001
0000
0000
0000
,
0100
0000
0001
0000
,
1000
0000
0010
0100
0002
0000
0003
0000
,
1000
0010
1000
0001
,
0010
0000
0100
1000
0200
0000
0310
0000
,
0001
0000
0100
0000
0010
0100
0010
0000
,
1001
1001
1001
1001
,
2002
0000
0000
3003
,
0002
0000
0000
0003
,
1001
0000
1000
0000
,
0001
0000
0010
0001
,
1000
0010
0100
0001
,
0100
0010
2000
3000
,
1001
0000
0110
0000
,
1001
0000
0110
0000
,
0001
0010
0100
1000
,
0100
0010
0002
0003
,
1000
0010
2020
3030
,
0202
0303
1000
0001
,
1000
0100
2200
3300
,
0022
0000
0033
0001
,
0100
0010
0220
0330
,
2002
3003
1000
0100
,
0010
0100
2002
3003
,
2002
0000
0000
3003
,
1000
0001
0202
0303
,
0220
0330
0010
1000
,
0100
0010
0220
0330
,
0022
0033
0002
1003
,
0010
0100
0202
0303
,
2020
3030
0001
0010
,
0100
1000
2002
3003
,
0220
0000
0000
0000
,
0330
0000
0000
0000
;

//---------------dance-single - ----------------
#NOTES:
     dance-single:
     :
     Medium:
     10:
     0.000000,0.000000,0.000000,0.000000,0.000000,0.000000,0.000000,0.000000,0.000000,0.000000,0.000000,0.000000,0.000000,0.000000,0.000000,0.000000,0.000000,0.000000,0.000000,0.000000,0.000000,0.000000:
0000
0000
0000
0000
,
0000
0000
0000
0000
,
0000
0000
0000
0000
,
0001
1000
0000
0100
0010
0100
1000
0000
,
0010
0100
0010
0000
2000
0000
3001
0000
,
0010
0001
0000
1000
0001
0100
0010
0000
,
0200
0301
2000
3100
,
0010
0001
0000
1000
0010
0100
0010
0000
,
2000
3100
0020
0031
,
2000
0000
0000
3000
,
0000
0000
0000
0000
,
0001
0010
0001
0100
,
0001
0010
0001
0000
,
1000
0010
0001
0010
,
1000
0001
1000
0000
,
1000
0100
1000
0010
,
0100
0010
1000
0000
,
0001
0010
1000
0010
,
0001
0100
0010
0000
,
1000
0010
2020
3030
,
2002
3003
1000
0100
,
0010
0001
0010
0000
0022
0000
0033
0000
,
2002
0000
3003
0000
0001
0000
0100
0010
,
0100
0001
0202
0303
,
2002
3003
1000
0001
,
0010
0100
0010
0000
0220
0000
0330
0000
,
2002
0000
0000
3003
,
2000
0000
3001
0000
0001
1000
0100
0000
,
0010
0001
1000
0001
0100
0010
0110
0000
,
2000
0000
3100
0000
0100
1000
0010
0000
,
0100
0001
1000
0001
0010
0100
0110
0000
,
0010
0001
0100
0000
0010
1000
0100
0000
,
1000
0010
0001
0010
1000
0001
0100
0000
,
0010
1000
0100
0000
0010
0001
0100
0000
,
0001
0010
1000
0010
0001
1000
0001
0000
,
1000
0010
1000
0001
0010
0100
0010
0001
,
1000
0010
0100
0001
2000
0000
3000
0000
,
0001
0100
0010
1000
0100
1000
0001
0100
,
0010
1000
0001
0010
0200
0000
0300
1000
,
0001
1000
0001
0100
1000
0100
0001
1000
,
0100
0010
0001
1000
0020
0000
1030
0000
,
1000
0100
0001
0100
1000
0100
0001
0100
,
0110
0110
1001
0110
,
2002
0000
0000
3003
,
0220
0000
0000
0330
,
0001
0000
0101
0000
,
0001
0000
0011
0000
,
1000
0100
0001
0100
,
1000
0001
0010
0000
,
1100
0000
1001
0000
,
1010
0000
1001
0000
,
1000
0010
0001
0010
,
1000
0001
0010
0000
,
0100
1000
2001
3001
,
2002
3003
1000
0100
,
0010
0100
0010
0000
0120
0000
0130
0000
,
0220
0000
0330
0000
0010
0000
0001
1000
,
0001
0100
0201
0301
,
0202
0303
0100
0001
,
0010
0001
0010
0000
0021
0000
0031
0000
,
2002
0000
0000
3003
,
1000
0010
0220
0330
,
1020
1030
0001
0010
,
0100
1000
2002
3003
,
0102
0000
0103
0000
0010
0000
1000
0001
,
1000
0100
0220
0330
,
0021
0031
1000
0010
,
0100
0001
1000
0000
2001
0000
3001
0000
,
0220
0000
0000
0000
,
0330
0000
0000
0000
;

//---------------dance-single - ----------------
#NOTES:
     dance-single:
     :
     Hard:
     12:
     0.529125,0.760994,0.376821,0.551445,0.229769,403.000000,362.000000,41.000000,60.000000,0.000000,0.000000,0.529125,0.760994,0.376821,0.551445,0.229769,403.000000,362.000000,41.000000,60.000000,0.000000,0.000000:
// measure 0
0000
0000
0000
0000
,  // measure 1
0000
0000
0000
0000
,  // measure 2
0000
0000
0000
0000
,  // measure 3
0001
0000
0010
0000
0000
0001
0010
0000
0100
0000
1000
0001
0000
0001
1000
0000
,  // measure 4
0010
0000
0100
0000
0001
1000
0001
0000
0200
0000
0000
0301
2000
0000
0000
3000
,  // measure 5
0100
0000
1000
0000
0001
0010
0001
0000
1000
0000
0100
0010
0000
0010
0100
0000
,  // measure 6
1000
0000
0001
0000
0000
0100
0001
0000
1000
0000
0010
0000
1000
0000
0100
0000
,  // measure 7
0010
0000
0001
0000
1000
0001
0100
0000
0010
0000
1000
0001
0000
0001
0010
0000
,  // measure 8
0100
0000
1000
0000
0001
0100
0010
0000
2000
0000
0000
3001
0200
0000
0000
0300
,  // measure 9
0002
0000
0000
0003
,  // measure 10
0000
0000
0000
2000
,  // measure 11
3010
0000
0100
0000
0010
1000
0001
0000
,  // measure 12
0010
0000
0100
1000
0001
1000
0100
0000
,  // measure 13
0010
0000
0001
0000
0100
0001
0010
0000
,  // measure 14
0011
1001
2200
3300
,  // measure 15
0100
0000
1000
0000
0001
0100
0010
0000
,  // measure 16
1000
0000
0001
0100
0010
0100
0001
0000
,  // measure 17
2000
3100
2000
3010
,  // measure 18
1010
0001
0202
0303
,  // measure 19
1000
1000
1020
1030
,  // measure 20
2200
3300
0100
0010
,  // measure 21
0001
1000
0001
0000
0021
0000
0031
0000
,  // measure 22
0202
0000
0303
0000
0100
0000
0010
1000
,  // measure 23
0100
0100
0120
0130
,  // measure 24
2002
3003
0001
0100
,  // measure 25
0010
1000
0010
0000
0210
0000
0310
0000
,  // measure 26
2002
0000
0000
3003
,  // measure 27
1000
0000
0000
0000
0001
0000
0000
0000
1000
0000
0000
0000
0001
0000
0000
0000
0000
0000
1000
0000
0000
0001
0000
0000
0100
0000
0000
0000
0000
0000
0100
0000
0000
0000
0000
0000
0010
0000
0000
0000
0000
0000
0010
0000
0000
0000
0000
0000
,  // measure 28
1000
0001
1000
0001
0010
0001
0010
0001
1000
0000
1000
0000
0100
0000
0100
0000
,  // measure 29
0110
0000
0010
0001
1000
0000
0001
1000
0010
0000
0010
0000
1000
0000
1000
0000
,  // measure 30
0001
0100
0001
0000
1000
0010
1000
0000
0001
0000
0001
0000
0010
0000
0010
0000
,  // measure 31
0011
0000
0001
1000
0001
0000
0100
0001
1000
0000
0010
0000
0100
0000
0001
0000
,  // measure 32
1000
0100
1000
0100
1000
0000
0001
1000
0010
0000
1000
0000
0100
0000
0010
0000
,  // measure 33
0001
0000
1000
0001
1000
0000
0010
1000
0001
0000
0010
0000
0001
0000
1000
0000
,  // measure 34
0100
1000
0100
0000
0010
0000
0001
1000
0020
0000
0000
0030
0000
0000
0000
0000
,  // measure 35
0100
0010
0010
0100
0010
1000
0001
1000
,  // measure 36
0010
0100
0001
0010
0200
0000
0300
0000
,  // measure 37
0010
0100
0100
0100
0010
0100
1000
0001
,  // measure 38
0100
0000
0100
0000
0001
0000
1000
0000
0100
1000
0100
1000
0001
0010
0001
0010
,  // measure 39
0100
0000
0010
0000
0001
1000
0010
0000
0100
0000
0010
1000
0000
1000
0001
0000
,  // measure 40
0010
0000
0100
0000
1000
0001
1000
0000
0001
0100
0010
0000
1000
0100
0010
0000
,  // measure 41
0001
0000
0010
0000
0100
1000
0001
0000
1000
0000
0010
0100
0000
0100
0010
0000
,  // measure 42
0110
1010
0101
0011
,  // measure 43
2200
0000
0000
3300
,  // measure 44
0220
0000
0000
0330
,  // measure 45
1001
0000
1000
0000
,  // measure 46
0100
0000
1000
0020
,  // measure 47
0130
0001
0020
1030
,  // measure 48
0010
0001
0200
0300
,  // measure 49
0020
0030
0220
0330
,  // measure 50
2020
3030
0022
0033
,  // measure 51
0010
0001
0200
1300
,  // measure 52
0100
0001
0020
0030
,  // measure 53
0100
1000
2001
3010
,  // measure 54
2002
3000
0013
0100
,  // measure 55
0001
0100
1000
0000
1002
0000
0103
0000
,  // measure 56
2002
0000
0000
0000
0003
0000
3010
1000
,  // measure 57
0100
0010
0110
1000
,  // measure 58
0202
0003
0310
0100
,  // measure 59
1000
0100
0001
0000
1010
0000
0001
0000
,  // measure 60
1200
0000
1000
0000
1000
0000
0310
0001
,  // measure 61
0100
0100
2010
3001
,  // measure 62
0012
1003
0100
0010
,  // measure 63
0001
1000
0010
0000
0102
0000
1003
0000
,  // measure 64
2100
0000
3001
0000
0100
0000
0010
1000
,  // measure 65
0100
0100
0012
0103
,  // measure 66
2010
3100
0010
0100
,  // measure 67
1000
0010
0100
0000
0102
0000
0013
0000
,  // measure 68
2100
0000
0001
0000
0100
0000
3001
0020
,  // measure 69
0030
0000
0000
0000
;
