#TITLE:Tomorrow Perfume (tpz Despair Remix);
#SUBTITLE:;
#ARTIST:t+pazolite;
#TITLETRANSLIT:;
#SUBTITLETRANSLIT:;
#ARTISTTRANSLIT:;
#GENRE:;
#CREDIT:;
#MUSIC:Tomorrow Perfume (tpz Despair Remix).ogg;
#BANNER:Tomorrow Perfume (tpz Despair Remix).png;
#BACKGROUND:Tomorrow Perfume (tpz Despair Remix)-bg.png;
#CDTITLE:;
#SAMPLESTART:57.875;
#SAMPLELENGTH:15.000;
#SELECTABLE:YES;
#OFFSET:0.000;
#BPMS:0.000=170.000;
#STOPS:259.500=0.353;
#BGCHANGES:;
#FGCHANGES:;

//--------------- dance-single - forcednature ----------------
#NOTES:
     dance-single:
     forcednature:
     Beginner:
     3:
     0,0,0,0,0:
0000
0000
0000
0000
,
0000
0000
0000
0000
,
0000
0000
0000
0000
,
0000
0000
0000
0000
,
0000
0000
0000
0000
,
1000
0000
1000
0000
,
0001
0000
0001
0000
,
0100
0100
0100
0100
,
0100
0000
0000
0000
,
1001
0000
0000
0000
,
1000
0000
0000
0000
,
0010
0000
0000
0000
,
0100
0000
0000
0000
,
0001
0000
0000
0000
,
0010
0000
0000
0000
,
0100
0000
0000
0000
,
1001
0000
0000
0000
,
0010
0000
0000
0000
,
0100
0000
0100
0000
,
1000
0000
0000
0000
,
0001
0000
0001
0000
,
0100
0000
0000
0000
,
0010
0000
0010
0000
,
1000
0000
1000
0000
,
0100
0000
0000
0000
,
1001
0000
0001
0000
,
1000
0000
0000
0000
,
0010
0000
0100
0000
,
0010
0000
0000
0000
,
1000
0000
0100
0000
,
1000
0000
0001
0000
,
0100
0100
0100
0000
,
0010
0010
0010
0000
,
1000
0000
0000
0000
,
0100
0000
0000
0000
,
0010
0000
0000
0000
,
0001
0000
0000
0000
,
0100
0000
0000
0000
,
0010
0000
0000
0000
,
1000
0000
0000
0000
,
0001
0000
0000
0000
,
0010
0000
0000
0000
,
0100
0000
0100
0000
,
0100
0000
0000
0000
,
1000
0000
1000
0000
,
1000
0000
0000
0000
,
0001
0000
0001
0000
,
0001
0000
0000
0000
,
0100
0000
0100
0000
,
0110
0000
0000
0000
,
0001
0000
1000
0000
,
0001
0000
0000
0000
,
1000
0000
0001
0000
,
1000
0000
0000
0000
,
0010
0000
0100
0000
,
0010
0000
0000
0000
,
0100
0000
0010
0000
,
0110
0000
0000
0000
,
0000
0000
0000
0000
,
0000
0000
0000
0000
,
0000
0000
0000
0000
,
1000
0000
1000
0000
,
0001
0000
0001
0000
,
0100
0100
0100
0000
,
1001
0000
0000
0000
,
0000
0010
0000
0100
,
0000
1000
0000
0010
,
0000
0100
0000
0001
,
0000
0100
0000
0010
,
0000
1000
0000
0100
,
0000
0010
0000
0100
,
0100
0100
0000
0010
,
0000
0000
0000
1001
,
0000
1000
0000
0010
,
0000
0100
0000
0001
,
0000
0010
0000
0100
,
0000
0010
0000
0100
,
0000
1000
0000
0001
,
0000
1000
0000
0001
,
0000
0100
0000
0110
,
0000
0000
0000
0100
,
0000
0100
0000
0000
0100
0000
0010
0000
,
0000
0010
0000
0000
0000
0000
0000
0000
;

//--------------- dance-single - forcednature ----------------
#NOTES:
     dance-single:
     forcednature:
     Easy:
     7:
     0,0,0,0,0:
0000
0000
0000
0000
,
0000
0000
0000
0000
,
0000
0000
0000
0000
,
0000
0000
0000
0000
,
0000
0000
0000
0000
,
1000
1000
0001
0001
,
1000
1000
0001
0001
,
0100
0010
0100
0010
,
0100
0000
0010
0000
,
2002
0000
3003
0000
,
0200
0000
0300
0000
,
0020
0000
0030
0000
,
0002
0000
2003
0000
,
3020
0000
0030
0000
,
0200
0000
0300
0000
,
0002
0000
0003
0000
,
1001
0000
0000
0000
0000
0000
0000
0000
0010
0000
0000
0010
0000
0000
0010
0000
,
0100
0000
0001
0000
,
1000
0000
0010
0000
,
1000
0100
1000
0000
,
0001
0100
0001
0000
,
0010
0000
0100
0000
,
0010
0000
0001
0000
,
1000
0001
1000
0001
,
0100
0000
0000
0000
,
0010
1000
0010
1000
,
0010
1000
0010
0000
,
0100
0001
0100
0001
,
0100
0001
0100
0000
,
0001
0000
0000
1000
0000
0000
0001
0000
0000
1000
0000
0000
0001
0000
0000
1000
,
0000
0000
0001
0000
0000
1000
0000
0000
0001
0000
0000
0000
1000
0000
0000
0000
,
0100
0100
0010
0010
,
0001
1000
0001
1000
,
0020
0000
0000
0000
,
0230
0000
0000
0000
,
0302
0000
0000
0000
,
2003
0000
0000
0000
,
3100
0000
0100
0000
,
0010
0000
0010
0000
,
0001
0000
1000
0000
,
0010
0000
0100
0100
,
1001
0000
0001
0000
,
1000
0000
0010
0000
,
1000
0100
1000
0100
,
0010
0001
0010
0000
,
0001
0000
0100
0000
,
0010
0000
1000
0000
,
0001
0100
0001
0100
,
0010
0010
1000
0001
,
1001
0000
1000
0000
,
0100
0000
0010
0000
,
0001
0100
0001
0100
,
0010
1000
0010
1000
,
0100
0000
0010
0000
,
0100
0000
1000
0000
,
0001
0010
0001
0010
,
0001
0100
0001
1000
,
2002
0000
0000
0000
,
3003
0000
0000
0000
,
1000
1000
0000
0001
,
0000
1000
0001
0000
,
1001
0001
1000
0001
,
1000
0010
0100
0010
,
0100
0100
0100
0100
,
0110
0000
0000
0000
0000
0000
0000
0000
0010
0000
0000
0010
0000
0000
0010
0000
,
1001
0000
0001
0100
,
0001
1000
0000
0100
,
1000
0001
0010
0100
,
0100
0100
0000
0010
,
0001
1000
0010
1000
,
0001
0100
0000
0010
,
1000
0001
0010
0100
,
0100
0100
0000
1001
,
0000
0001
0100
0001
,
1000
0010
1000
0001
,
0000
0010
0100
1000
,
0100
0010
0001
1000
,
0000
0001
0100
0001
,
1000
0010
1000
0001
,
0001
0000
0000
0000
1000
0000
0000
0000
1000
0000
0000
0000
0100
0000
0000
0100
,
0000
0000
0100
0000
0000
0000
0000
0000
0000
0000
0000
0000
0010
0000
0000
0010
,
0000
0000
0100
0000
0000
0100
0000
0000
0010
0000
0000
0000
0001
0000
0000
1000
,
0000
0010
0000
0000
0000
0000
0000
0000
;

//--------------- dance-single - forcednature ----------------
#NOTES:
     dance-single:
     forcednature:
     Medium:
     10:
     0,0,0,0,0:
0000
0000
0000
0000
,
0000
0000
0000
0000
,
0000
0000
0000
0000
,
0000
0000
0000
0000
,
0000
0000
0000
0000
,
1000
1000
1000
1000
,
0001
0001
0001
0001
,
0100
0010
0100
0010
,
1000
0001
0010
0000
,
0110
1000
1000
0000
,
0001
0100
0001
0000
,
1000
0010
1000
0000
,
0001
0010
0001
0010
,
0100
1000
0100
0000
,
0010
0001
0010
0000
,
0001
0100
0001
0000
,
1001
0000
0000
0000
0000
0000
0000
0000
0010
0000
0000
0010
0000
0000
0010
0000
,
1000
0001
0100
0001
,
1000
0100
0010
0000
,
0100
1000
0010
0100
,
0001
0010
0100
0000
,
0010
0001
0100
1000
,
0100
0010
1000
0000
,
0001
1000
0100
0010
,
0100
0000
0000
0100
0000
0000
0100
0000
0000
0000
0000
0000
0000
0000
0000
0000
,
0010
0000
0000
0010
0000
0000
0001
0000
,
0000
0001
0000
0000
0100
0000
0010
0000
,
1000
0000
0000
1000
0000
0000
0100
0000
,
0000
0100
0000
0000
0010
0000
0001
0000
,
0100
0000
0000
0100
0000
0000
0010
0000
0000
0010
0000
0000
1000
0000
0000
1000
,
0000
0000
0001
0000
0000
0001
0000
0000
0010
0000
0010
0000
0010
0000
0000
0000
,
0100
1000
0001
0100
,
0010
0000
0010
0000
0010
0010
0010
0000
,
2000
0000
0000
0000
,
3002
0000
0000
0000
,
0203
0000
0000
0000
,
0320
0000
0000
0000
,
1030
0100
0001
0100
,
1000
0010
0001
0010
,
1000
0100
0010
0001
,
0100
0010
0100
1001
,
0110
0001
1000
0010
,
1000
0100
0010
0001
,
0100
0010
0001
0010
,
0100
0100
1000
0000
0100
0100
0001
0000
,
1000
0100
0010
1000
,
0010
0001
1000
0001
,
0100
0010
0100
1000
,
0110
0101
1100
0110
,
1001
1000
0010
0100
,
0001
0010
0100
0001
,
0100
1000
0001
0010
,
1000
1000
0010
0000
0100
0100
1000
0000
,
0010
0001
0010
0100
,
0001
1000
0010
0001
,
0010
0100
0001
0010
,
1001
0110
1001
0110
,
2002
0000
0000
0000
,
3003
0000
0000
0000
,
0010
0000
0010
0000
,
0010
0000
0100
0000
,
1001
0001
0100
0001
,
1000
0100
1000
0100
,
0010
0001
0100
0010
,
0110
0000
0000
0000
0000
0000
0000
0000
0001
1000
0001
1000
0001
0000
0000
0000
,
1001
0000
1000
1000
0010
0000
0100
0000
,
0001
0000
0010
0010
0100
0000
1000
0001
,
1000
0000
0001
1000
0001
0000
1000
1000
,
0010
0000
0100
0001
0100
0000
0010
1000
,
0010
0000
1000
1000
0001
0000
0100
0100
,
0001
0000
1000
1000
0100
0000
0010
0001
,
0010
0000
0000
0000
0100
0000
1000
0000
0001
0000
0000
0000
0100
0000
0000
0010
,
0000
0100
0010
0100
0010
0000
0110
0000
,
0001
0000
1000
0010
0100
0001
0100
0001
,
0100
0000
0010
1000
0010
0000
1000
0000
,
0100
0000
0010
0001
0100
0010
1000
0100
,
1000
0000
0001
0010
0001
0000
0100
0000
,
0001
0000
1000
0010
0100
0001
1000
0100
,
1000
0000
0001
0100
0001
0000
0010
0100
,
0010
0000
0100
0000
0010
0000
0001
0000
1000
0000
0010
0000
0100
0000
0000
1001
,
0000
0000
2002
0000
0000
0000
0000
0000
3003
0000
0000
0000
1000
0000
0000
0001
,
0000
0000
1000
0000
0000
0100
0000
0000
0010
0000
0100
0000
1000
0000
0000
0001
,
0000
0200
0000
0000
0000
0000
0000
0000
,
0000
0000
0000
0000
0000
0300
0000
0000
;

//--------------- dance-single - forcednature ----------------
#NOTES:
     dance-single:
     forcednature:
     Hard:
     13:
     0,0,0,0,0:
0000
0000
0000
0000
,
0000
0000
0000
0000
,
0000
0000
0000
0000
,
0000
0000
0000
0000
,
0000
0000
0000
0000
,
1100
0001
0010
1000
,
0010
0100
1000
0010
,
1000
0001
1000
0001
1000
0001
1000
0001
,
0100
0000
0000
0010
0000
0000
1000
0000
0001
1000
0001
1000
0001
0000
0000
0000
,
0110
0000
0000
0000
0001
0000
1000
0020
0000
0000
0000
0000
0030
0000
0000
0000
,
0100
0000
0000
0000
0001
0000
1000
0200
0000
0000
0000
0000
0300
0000
0000
0000
,
0010
0000
0000
0000
0001
0000
1000
0002
0000
0000
0000
0000
0003
0000
0000
0000
,
0100
0000
0000
0000
0010
0000
1000
0200
0000
0000
0000
0000
0310
0000
0000
0000
,
0001
0000
0000
0000
0100
0000
0010
2000
0000
0000
0000
0000
3000
0000
0000
0000
,
0100
0000
0000
0000
0010
0000
0001
2000
0000
0000
0000
0000
3000
0000
0000
0000
,
0010
0000
0000
0000
0100
0000
0001
0020
0000
0000
0000
0000
0030
0000
0000
0000
,
0010
0000
0001
0000
1000
0000
0001
0000
0100
0000
0000
0100
0000
0000
0200
0000
,
0001
0000
0010
0000
0301
0100
0010
0000
,
1000
0100
0010
0000
0100
1000
0020
0000
,
0130
0100
0100
0000
0001
1000
0200
0000
,
0310
0000
0001
0000
0010
0000
0000
0100
0000
1000
0000
0000
0100
0000
0000
0000
,
0010
0010
0010
0000
0100
1000
0001
0000
,
0100
0100
0200
0000
0310
1000
0002
0000
,
1003
0100
1000
0100
0010
0001
0010
0001
,
0100
0000
0000
0100
0000
0000
0010
0000
0000
0000
0000
0000
0000
0000
0000
0000
,
1000
0000
0000
1000
0000
0000
0010
0000
0000
0010
0000
0000
0100
0000
0000
0100
,
0000
0000
0001
0000
0000
0001
0000
0000
0010
0000
0000
0100
0000
0000
1000
0000
,
0010
0000
0000
0010
0000
0000
0100
0000
0000
0100
0000
0000
0001
0000
0000
0001
,
0000
0000
0010
0000
0000
0010
0000
0000
0100
0000
0000
1000
0000
0000
0001
0000
,
0100
0000
0000
1000
0000
0000
0100
0000
0000
0001
0000
0000
1000
0000
0000
0100
,
0000
0000
0001
0000
0000
0100
0000
0000
0010
0000
0001
0000
0010
0000
0001
0000
,
1000
0010
2000
0000
3001
0100
0002
0000
,
1003
0001
1000
0000
0001
1000
0001
0000
1000
0001
1000
0000
0001
1000
0001
0000
,
0200
0000
0000
0000
,
0320
0000
0000
0000
,
2030
0000
0000
0000
,
3002
0000
0000
0000
,
0013
0000
0010
0000
,
0100
0000
0100
0000
,
1000
1000
0001
0001
,
0100
0000
0000
0100
0000
0000
0100
0000
0010
0000
0000
0000
0110
0000
0000
0000
,
1001
0000
0000
0001
0000
0000
0100
0000
0010
0000
0000
1000
0000
0000
0100
0000
,
1000
0000
0000
1000
0000
0000
0010
0000
0100
0000
0000
0001
0000
0000
0010
0000
,
0100
1000
0000
0100
0000
0000
0000
0000
0010
0000
0000
0001
0000
0000
0100
0000
,
0020
0000
0000
1000
0030
0000
0000
0000
0200
0000
0000
0001
0300
0000
0000
0000
,
0001
0000
0000
0001
0000
0000
0010
0000
0100
0000
0000
0010
0000
0000
0001
0000
,
0100
0000
0000
0100
0000
0000
0010
0000
1000
0000
0000
0001
0000
0000
1000
0000
,
0100
0010
0000
0001
0000
0000
0000
0000
0100
0000
0000
0010
0000
0000
0000
0000
,
1001
0000
0000
0000
0110
0000
0000
0000
0001
1000
0001
1000
0001
0000
0000
0000
,
1001
0000
0000
1000
0000
0000
0100
0000
0010
0000
0000
0001
0000
0000
1000
0000
,
0001
0000
0000
0100
0000
0000
0010
0000
1000
0000
0000
0010
0000
0000
0100
0000
,
0001
1000
0000
0100
0000
0000
0000
0000
1000
0000
0000
0001
0000
0000
0010
0000
,
0002
0000
0000
1000
0003
0000
0000
0000
0200
0000
0000
0001
0300
0000
0000
0000
,
1000
0000
0000
0010
0000
0000
0001
0000
0010
0000
0000
0100
0000
0000
0001
0000
,
1000
0000
0000
0100
0000
0000
0001
0000
0100
0000
0000
0010
0000
0000
0001
0000
,
0100
0010
0000
1000
0000
0000
0000
0000
0100
0000
0000
0010
0000
0000
0000
0000
,
1001
1100
0101
0110
,
2002
0000
0000
0000
,
3003
0000
0000
0000
0000
0000
0001
1000
,
0100
0000
0000
0000
0010
0000
0000
0001
0000
0000
0000
0000
1000
0000
0000
0010
,
0000
0000
0000
0000
0100
0000
0000
0001
0000
0010
0000
0000
0100
0000
0000
0000
,
0110
0000
1000
0000
0010
0000
0100
0001
,
1000
0000
0100
0000
0010
0000
0001
0100
,
0001
0000
1000
0000
0001
0000
1000
0000
0001
0000
1000
0000
0001
1000
0001
1000
,
0000
0000
0000
0000
0000
0000
0000
0000
0010
0000
0000
0000
0000
0000
0000
0000
1000
0000
0000
0000
0000
0000
0000
0000
0100
0000
0000
0000
0000
0000
0000
0000
0010
0000
0000
0000
0000
0000
0000
0000
0000
0000
0000
0000
0010
0000
0000
0000
0000
0000
0000
0000
0000
0000
0000
0000
0020
0030
0000
0000
0000
0000
0000
0000
,
0001
0000
1000
0001
0100
0000
0001
1000
,
0010
0100
0001
1000
0020
0000
1030
0100
,
0020
0000
0130
1000
0020
0000
0130
0001
,
0010
0100
0010
0001
0100
0000
0010
1000
,
0001
0000
0010
0001
0100
0000
0001
1000
,
0010
0001
0010
0100
0002
0000
1003
1000
,
0001
0000
0001
0000
0010
0000
0010
0000
0100
1000
0100
1000
0100
0000
0000
0010
,
0000
0000
0001
0000
1000
0001
1000
0001
1000
0000
0000
0000
0001
0000
0100
0001
,
0000
0100
0001
0000
1000
0000
0010
1000
0000
0010
1000
0000
0001
0010
0001
0000
,
0100
0000
0010
1000
0000
0001
1000
0000
0100
0000
0010
0000
0001
0000
1000
0100
,
0000
1000
0100
0000
1000
0000
0001
0010
0000
0001
0010
0000
0001
0100
0001
0000
,
1000
0000
0010
0100
0000
0001
0000
0000
1000
0000
0100
0000
0010
0000
0100
1000
,
0000
0100
1000
0000
0010
0000
0100
0001
0000
0100
0001
0000
0010
0001
0010
0000
,
0100
0000
1000
0001
0000
1000
0000
0010
0100
0000
0001
0000
1000
0000
1000
0000
,
0100
0000
0100
0000
0001
0000
0001
0000
0100
0010
0100
0010
0100
0000
0000
0110
,
0000
0000
1001
0000
0001
0000
0000
1000
0000
0000
0200
0000
0010
0000
0000
1000
,
0000
0000
0010
0000
0000
0001
0000
0000
0310
0000
0100
0000
1001
0000
0000
0110
,
0000
2002
0000
0000
0000
0000
0000
0000
,
0000
0000
0000
0000
0000
3003
0000
0000
;

//--------------- dance-double - forcednature ----------------
#NOTES:
     dance-double:
     forcednature:
     Easy:
     8:
     0,0,0,0,0:
00000000
00000000
00000000
00000000
,
00000000
00000000
00000000
00000000
,
00000000
00000000
00000000
00000000
,
00000000
00000000
00000000
00000000
,
00000000
00000000
00000000
00000000
,
00001000
00001000
00010000
00010000
,
00001000
00001000
00010000
00010000
,
01000000
00100000
00010000
10000000
,
00100000
00000000
00000000
00100000
00000000
00000000
00100000
00000000
01000000
00000000
00000000
00000000
01000000
00000000
00000000
00000000
,
20010000
00000000
00000000
00000000
,
32000000
00000000
00000000
00000000
,
03200000
00000000
00000000
00000000
,
00302000
00000000
00000000
00000000
,
00023000
00000000
00000000
00000000
,
00030020
00000000
00000000
00000000
,
00000230
00000000
00000000
00000000
,
00000301
00000000
00000000
00000000
00000000
00000000
00000000
00000000
00001000
00000000
00000000
00001000
00000000
00000000
00001000
00000000
,
00000100
00010000
00001000
00100000
,
00001000
00010000
00001000
01000000
,
00010000
10000000
01000000
00100000
,
01000000
10000000
00010000
01000000
,
00001000
00010000
00000100
00001000
,
00000001
00001000
00000010
00010000
,
00001000
00000010
00000100
00001000
,
00000001
00000000
00000000
00000001
00000000
00000000
00000001
00000000
00000000
00000000
00000000
00000000
00000000
00000000
00000000
00000000
,
00000100
00000010
00000100
00001000
,
00010000
01000000
00100000
01000000
,
00010000
00001000
00000100
00000010
,
00000100
00001000
00010000
01000000
,
00100000
00000000
00000000
01000000
00000000
00000000
10000000
00000000
,
00000000
00010000
00000000
00000000
01000000
00000000
01000000
00000000
,
00001000
00001000
00010000
00010000
,
00000100
00001000
00000100
00000000
00001000
00000100
00001000
00000000
,
00000020
00000000
00000000
00000000
,
00000230
00000000
00000000
00000000
,
00000302
00000000
00000000
00000000
,
00002003
00000000
00000000
00000000
,
00003100
00000000
00001000
00000000
,
00000010
00000000
00010000
00000000
,
00001000
00100000
00010000
10000000
,
00010000
01000000
00001000
00011000
,
00010000
00000100
00001000
00000001
,
00000100
00000010
00010000
00001000
,
00100000
00010000
01000000
00100000
,
10000000
00010000
10000000
01000000
,
00100000
00001000
00010000
00000010
,
00010000
00001000
00000010
00000100
,
00001000
00000001
00000100
00000010
,
00000100
00001000
00010000
00011000
,
00001000
00100000
00010000
01000000
,
00010000
10000000
01000000
00100000
,
01000000
10000000
00010000
01000000
,
00001000
00010000
00000100
00001000
,
00000100
00010000
00001000
00000100
,
00000010
00001000
00000100
00000010
,
00000001
00000100
00001000
00010000
,
00011000
00011000
00011000
00011000
,
00022000
00000000
00000000
00000000
,
00033000
00000000
00000000
00000000
,
00000000
00000000
00000000
00000000
,
00000000
00000000
00000000
00000000
,
01000000
00001000
01000000
00001000
,
00010000
00000100
00010000
00000100
,
00100000
00001000
00010000
00000010
,
00011000
00000000
00000000
00000000
00000000
00000000
00000000
00000000
00010000
00000000
00000000
00001000
00000000
00000000
00010000
00000000
,
00011000
00001000
01000000
00010000
,
10000000
01000000
10000000
00010000
,
01000000
00001000
00010000
00000100
,
00001000
00000100
00000010
00000001
,
00001000
00000001
00000100
00000010
,
00001000
00000001
00000010
00000001
,
00000100
00000000
00000000
00000000
00001000
00000000
00000000
00000000
00010000
00000000
00000000
00000000
00001000
00000000
00000000
00001000
,
00000000
00001000
00000000
00000000
00000000
00000000
00011000
00000000
,
00010000
01000000
00100000
00010000
,
10000000
00100000
00000000
10000000
,
01000000
00100000
00010000
01000000
,
00001000
00010000
00000000
00000010
,
00010000
00001000
00000010
00000100
,
00001000
00000010
00000000
00000100
,
00000100
00000000
00000000
00000000
00000100
00000000
00000000
00000000
00000100
00000000
00000000
00000000
00000010
00000000
00000000
00000010
,
00000000
00000000
00000010
00000000
00000000
00000000
00000000
00000000
00000000
00000000
00000000
00000000
00000100
00000000
00000000
00000100
,
00000000
00000000
00001000
00000000
00000000
00001000
00000000
00000000
00010000
00000000
00001000
00000000
00010000
00000000
00000000
00001000
,
00000000
00011000
00000000
00000000
00000000
00000000
00000000
00000000
;

//--------------- dance-double - forcednature ----------------
#NOTES:
     dance-double:
     forcednature:
     Medium:
     12:
     0,0,0,0,0:
00000000
00000000
00000000
00000000
,
00000000
00000000
00000000
00000000
,
00000000
00000000
00000000
00000000
,
00000000
00000000
00000000
00000000
,
00000000
00000000
00000000
00000000
,
00000100
00010000
00000100
00010000
,
00001000
01000000
00001000
01000000
,
01000000
00001000
01000000
00001000
00010000
00000100
00010000
00000100
,
00001000
00000000
00000000
00001000
00000000
00000000
00001000
00000000
00000001
00000000
00000001
00000000
00000001
00000000
00000000
00000000
,
00000100
00000000
00000000
00000000
00000100
00000000
00000000
00000010
00000000
00000000
00000000
00000000
00000000
00000000
00000000
00000000
,
00001000
00000000
00000000
00000000
00001000
00000000
00000000
00000100
00000000
00000000
00000000
00000000
00000000
00000000
00000000
00000000
,
00010000
00000000
00000000
00000000
00010000
00000000
00000000
00001000
00000000
00000000
00000000
00000000
00000000
00000000
00000000
00000000
,
01000000
00000000
00000000
00000000
01000000
00000000
00000000
00010000
00000000
10000000
00000000
00000000
01000000
00000000
00000000
00000000
,
00100000
00000000
00000000
00000000
00100000
00000000
00000000
00001000
00000000
00000000
00000000
00000000
00000000
00000000
00000000
00000000
,
00010000
00000000
00000000
00000000
00010000
00000000
00000000
00000010
00000000
00000000
00000000
00000000
00000000
00000000
00000000
00000000
,
00000100
00000000
00000000
00000000
00000100
00000000
00000000
00000001
00000000
00000000
00000000
00000000
00000000
00000000
00000000
00000000
,
00001001
00000000
00000000
00000000
00000000
00000000
00000000
00000000
00000110
00000000
00000000
00000110
00000000
00000000
00000110
00000000
,
00001001
00000000
00000001
00000000
00000100
00001000
00010000
00000000
,
00100000
00000000
00010000
00000000
00001000
01000000
00010000
00000000
,
10000000
01000000
00100000
00000000
01000000
10000000
00100000
00000000
,
01000000
00000000
00001000
00000000
00010000
00000100
00001000
00000000
,
00000001
00000000
00000100
00000000
00000010
00010000
00001000
00000000
,
00000010
00000100
00001000
00000000
00000001
00000100
00001000
00000000
,
00010000
00001000
00010000
00001000
00010000
00001000
00010000
00001000
,
00010000
00000000
00000000
01000000
00000000
00000000
00100000
00000000
00000000
00000000
00000000
00000000
00000000
00000000
00000000
00000000
,
10010000
00000000
00000000
00010000
00000000
00000000
01000000
00000000
00000000
01000000
00000000
00000000
00001000
00000000
00000000
00001000
,
00000000
00000000
00010000
00000000
00000000
00010000
00000000
00000000
00000100
00000000
00000000
00001000
00000000
00000000
00000010
00000000
,
00000100
00000000
00000000
00000100
00000000
00000000
00000001
00000000
00000000
00000001
00000000
00000000
00000010
00000000
00000000
00000010
,
00000000
00000000
00000100
00000000
00000000
00000100
00000000
00000000
00010000
00000000
00000000
00001000
00000000
00000000
01000000
00000000
,
00010000
00000000
00000000
10000000
00000000
00000000
00010000
00000000
00000000
10000000
00000000
00000000
01000000
00000000
00000000
00100000
,
00000000
00000000
01000000
00000000
00000000
00100000
00000000
00000000
00010000
00000000
01000000
00000000
00010000
00000000
00000000
00000000
,
00100000
00010000
00100000
00010000
00100000
00001000
00100000
00001000
,
00010000
00000010
00010000
00000010
00001000
00000010
00001000
00000010
,
00000200
00000000
00000000
00000000
,
00000302
00000000
00000000
00000000
,
00000023
00000000
00000000
00000000
,
00000230
00000000
00000000
00000000
,
00010300
00000100
00000000
00010000
00000000
00001000
00000000
01000000
,
00000000
00001000
00000000
00010000
00000000
01000000
00000000
00100000
,
00000000
00010000
00000000
10000000
00000000
00100000
00000000
00010000
,
00001000
00000000
00000000
01000000
00000000
00000000
00001000
00000000
00010000
00000000
00000000
00000000
00010100
00000000
00000000
00000000
,
00000100
00000000
00000000
00001000
00000000
00000000
00000100
00000000
00000010
00000000
00000000
00000001
00000000
00000000
00001000
00000000
,
00000001
00000000
00000000
00000100
00000000
00000000
00000010
00000000
00010000
00000000
00000000
00001000
00000000
00000000
00100000
00000000
,
00001000
00000000
00000000
00010000
00000000
00000000
00000100
00000000
00010000
00000000
00000000
00001000
00000000
00000000
01000000
00000000
,
00010000
00000000
00000000
10000000
00000000
00000000
00010000
00000000
10000000
00000000
00000000
00010000
00000000
00000000
10000000
00000000
,
01000000
00000000
00000000
00100000
00000000
00000000
00010000
00000000
01000000
00000000
00000000
00001000
00000000
00000000
00010000
00000000
,
00000100
00000000
00000000
00001000
00000000
00000000
00000001
00000000
00000100
00000000
00000000
00000010
00000000
00000000
00010000
00000000
,
00001000
00000000
00000000
00000010
00000000
00000000
00000100
00000000
00001000
00000000
00000000
00000001
00000000
00000000
00000100
00000000
,
00000010
00000000
00000100
00000000
00000000
00001000
00000000
00000000
00010000
00000000
00010000
00000000
00001000
00000000
00000000
00000000
,
00010000
00000000
00000000
00001000
00000000
00000000
01000000
00000000
00010000
00000000
00000000
10000000
00000000
00000000
01000000
00000000
,
00100000
00000000
00000000
00010000
00000000
00000000
01000000
00000000
00001000
00000000
00000000
00010000
00000000
00000000
00000100
00000000
,
00010000
00000000
00000000
00001000
00000000
00000000
00000100
00000000
00000001
00000000
00000000
00000010
00000000
00000000
00000100
00000000
,
00001000
00000000
00000000
00000001
00000000
00000000
00001000
00000000
00000001
00000000
00000000
00001000
00000000
00000000
00000001
00000000
,
00000100
00000000
00000000
00001000
00000000
00000000
00010000
00000000
00100000
00000000
00000000
00010000
00000000
00000000
00001000
00000000
,
00010000
00000000
00000000
01000000
00000000
00000000
00100000
00000000
00010000
00000000
00000000
10000000
00000000
00000000
00100000
00000000
,
01000000
00000000
00000000
00001000
00000000
00000000
00010000
00000000
01000000
00000000
00000000
00100000
00000000
00000000
00001000
00000000
,
00010000
00000000
00000100
00000000
00000000
00001000
00000000
00000000
00000010
00000000
00000000
00000100
00000000
00000000
00000001
00000000
,
00002002
00000000
00000000
00000000
,
00003003
00000000
00000000
00000000
,
00000001
00000000
00000000
00000000
00000100
00000000
00000000
00001000
00000000
00000000
00000000
00000000
00010000
00000000
00000000
00100000
,
00000000
00000000
00000000
00000000
10000000
00000000
00000000
00010000
00000000
10000000
00000000
00000000
01000000
00000000
00000000
00000000
,
01100000
00100000
00001000
00010000
,
00000010
00010000
00001000
00000010
,
00000100
00010000
00000100
00010000
00001000
01000000
00001000
01000000
,
00100000
00000000
00000000
00000000
00000000
00000000
10000000
00000000
00010000
10000000
00010000
10000000
00010000
00000000
00000000
00000000
,
10010000
00000000
00010000
01000000
00001000
00000000
00010000
00000100
,
00001000
00000000
00000010
00010000
00001000
00000000
00000010
00000100
,
00000010
00000000
00000001
00001000
00000010
00000000
00000100
00001000
,
00000100
00001000
00010000
00100000
00010000
00000000
00001000
01000000
,
00010000
00000000
10000000
01000000
00100000
00000000
01000000
10000000
,
00010000
00000000
01000000
00001000
00010000
00000000
00000100
00010000
,
00001000
00000000
00000100
00000001
00000010
00000000
00000100
00010000
,
00000000
00001000
00000000
00000000
01000000
00000000
01000000
00000000
00100000
00000000
00000000
00000000
10010000
00000000
00000000
00000000
,
10000000
01000000
00100000
00010000
01000000
00000000
00001000
00010000
,
00000100
00010000
00001000
00100000
00001000
00000000
00011000
00000000
,
00010000
00000010
00001000
00000001
00000010
00000000
00000100
00001000
,
00000010
00001000
00000100
00000010
00000001
00000000
00001001
00000000
,
00000001
00000100
00000001
00001000
00000010
00000000
00010000
00001000
,
00100000
00001000
00010000
00000100
00010000
00000000
00001000
00001000
,
01000000
00000000
01000000
00000000
00010000
00000000
00010000
00000000
10000000
00000000
10000000
00000000
01000000
00000000
00000000
00010000
,
00000000
00000000
00001000
00000000
00000000
00000000
00000000
00000000
00000000
00000000
00000000
00000000
00010000
00000000
00000000
00000100
,
00000000
00000000
00001000
00000000
00000000
00000100
00000000
00000000
00010000
00000000
00001000
00000000
01000000
00000000
00000000
00010000
,
00000000
10010000
00000000
00000000
00000000
00000000
00000000
00000000
;

//--------------- dance-double - forcednature ----------------
#NOTES:
     dance-double:
     forcednature:
     Hard:
     15:
     0,0,0,0,0:
00000000
00000000
00000000
00000000
,
00000000
00000000
00000000
00000000
,
00000000
00000000
00000000
00000000
,
00000000
00000000
00000000
00000000
,
00000000
00000000
00000000
00000000
,
00001000
00010000
01000000
00100000
,
00001000
00010000
00100000
01000000
,
00010000
10000000
00010000
10000000
01000000
00010000
01000000
00010000
,
00001000
00000000
00000000
00000010
00000000
00000000
00000001
00000000
00001000
00000001
00001000
00000001
00001000
00000000
00000000
00000000
,
00000001
00000000
00000100
00000000
00000001
00000000
00000100
00000010
00000000
00000000
00000000
00000000
00000000
00000000
00001000
00000000
,
00000100
00010000
00000100
00000000
00010000
00000000
00001000
01000000
00000000
00000000
00000000
00000000
00000000
00000000
00010000
00000000
,
10000000
01000000
10000000
00000000
00100000
00000000
01000000
00010000
00000000
00000000
00000000
00000000
00000000
00000000
10000000
00000000
,
01000000
00100000
01000000
00000000
10000000
00000000
00010000
01000000
00000000
01000000
00000000
01000000
00001000
00000000
00010000
00000000
,
00000100
00000000
00001000
00000000
00000100
00000000
00000010
00000001
00000000
00000000
00000000
00000000
00000000
00000000
00000100
00000000
,
00000010
00001000
00000010
00000000
00010000
00000000
00001000
00100000
00000000
00000000
00000000
00000000
00000000
00000000
00010000
00000000
,
10000000
00100000
10000000
00000000
01000000
00000000
00010000
00001000
00000000
00000000
00000000
00000000
00000000
00000000
00000010
00000100
,
00000010
00000000
00000001
00000000
00001000
00000000
00000010
00000000
00000110
00000000
00000000
00000110
00000000
00000000
00000110
00000000
,
00000100
00000000
00000001
00000000
00001000
00000000
00000100
00000010
00000000
00000010
00000100
00000000
00010000
00000000
00001000
01000000
,
00000000
01000000
00010000
00000000
10000000
00000000
01000000
00100000
00000000
00100000
00010000
00000000
01000000
00000000
00001000
00010000
,
00001000
00010000
00001000
00000000
00100000
00000000
00001000
00010000
00000000
00010000
00000100
00000000
00001000
00000000
00000001
00000100
,
00000001
00000000
00001000
00000000
00000010
00000000
00010000
00001000
00000000
00001000
00000000
00000000
00100000
00000000
00010000
00000000
,
10000000
00000000
00100000
00000000
01000000
00000000
00010000
10000000
00000000
10000000
01000000
00000000
00100000
00000000
00001000
00010000
,
00000000
00010000
00000010
00000000
00000100
00000000
00000001
00001000
00000000
00001000
00000100
00000000
00000010
00000000
00000001
00000100
,
00000001
00000000
00000010
00000000
00000100
00000000
00001000
00000000
00000010
00000000
00000100
00000000
00001000
00010000
00001000
00010000
,
00001000
00000000
00000000
00011000
00000000
00000000
00011000
00000000
00000000
00000000
00000000
00000000
00000000
00000000
00000000
00000000
,
01000000
00000000
00000000
00010000
00000000
00000000
00100000
00000000
00000000
10000000
00000000
00000000
00100000
00000000
00000000
00010000
,
00000000
00000000
01000000
00000000
00000000
00001000
00000000
00000000
00000010
00000000
00000000
00000100
00000000
00000000
00001000
00000000
,
00000001
00000000
00000000
00000100
00000000
00000000
00001000
00000000
00000000
00010000
00000000
00000000
00000100
00000000
00000000
00000010
,
00000000
00000000
00001000
00000000
00000000
00010000
00000000
00000000
00100000
00000000
00000000
01000000
00000000
00000000
00001000
00000000
,
00010000
00000000
00000000
00010000
00000000
00000000
01000000
00000000
00000000
01000000
00000000
00000000
00100000
00000000
00000000
00100000
,
00000000
00000000
00010000
00000000
00000000
00010000
00000000
00000000
10000000
00000000
00100000
00000000
10000000
00000000
01000000
00000000
,
00010000
00001000
00000100
00000001
00000010
00000001
00000100
00001000
,
00010000
00001000
00010000
00000000
00001000
00010000
00001000
00000000
00010000
00001000
00010000
00000000
00001000
00010000
00001000
00000000
,
00020000
00000000
00000000
00000000
,
02030000
00000000
00000000
00000000
,
03200000
00000000
00000000
00000000
,
00302000
00000000
00000000
00003000
,
00011000
00010000
00000000
00100000
00000000
10000000
00000000
01000000
,
00000000
00010000
00000000
00001000
00000000
00000010
00000000
00000001
,
00000000
00000100
00000000
00001000
00000000
00010000
00000000
00001000
,
00010000
00000000
01000000
00100000
00000000
01000000
10000000
00000000
10010000
00000000
00000000
00000000
01100000
00000000
00000000
00000000
,
10010000
00000000
00000000
10000000
00000000
00000000
01000000
00000000
00010000
00000000
00000000
00001000
00000000
00000000
00000010
00000000
,
00000001
00000000
00000000
00000100
00000000
00000000
00000010
00000000
00000100
00000000
00000000
00001000
00000000
00000000
00010000
00000000
,
00000100
00001000
00000000
00000010
00000000
00000000
00000100
00000000
00000001
00000000
00000000
00001000
00000000
00000000
00000100
00000000
,
00000010
00000000
00000000
00000100
00000000
00000000
00010000
00000000
00001000
00000000
00000000
01000000
00000000
00000000
00010000
00000000
,
10000000
00000000
00000000
00100000
00000000
00000000
10000000
00000000
01000000
00000000
00000000
00010000
00000000
00000000
01000000
00000000
,
00100000
00000000
00000000
00001000
00000000
00000000
00010000
00000000
00100000
00000000
00000000
10000000
00000000
00000000
01000000
00000000
,
00100000
00010000
00000000
00100000
00000000
00000000
00001000
00000000
00010000
00000000
00000000
00000010
00000000
00000000
00001000
00000000
,
00000001
00000000
00000010
00000001
00000000
00000010
00000001
00000000
00000100
00000010
00000100
00000010
00001000
00000000
00000000
00000000
,
00001001
00000000
00000000
00001000
00000000
00000000
00000100
00000000
00010000
00000000
00000000
00001000
00000000
00000000
00000100
00000000
,
00001000
00000000
00000000
00010000
00000000
00000000
01000000
00000000
00100000
00000000
00000000
00001000
00000000
00000000
00010000
00000000
,
00100000
01000000
00000000
00100000
00000000
00000000
10000000
00000000
01000000
00000000
00000000
00100000
00000000
00000000
00010000
00000000
,
01000000
00000000
00000000
00001000
00000000
00000000
00010000
00000000
00000100
00000000
00000000
00010000
00000000
00000000
00001000
00000000
,
00000100
00000000
00000000
00000001
00000000
00000000
00000010
00000000
00000100
00000000
00000000
00001000
00000000
00000000
00000010
00000000
,
00010000
00000000
00000000
00001000
00000000
00000000
00000010
00000000
00001000
00000000
00000000
00010000
00000000
00000000
00100000
00000000
,
10000000
00010000
00000000
10000000
00000000
00000000
01000000
00000000
00010000
00000000
00000000
00001000
00000000
00000000
00000010
00000000
,
00000001
00000000
00000100
00000010
00000000
00000100
00001000
00000000
00010000
01000000
00000000
00100000
01000000
00000000
10000000
00000000
,
20020000
00000000
00000000
00000000
,
30030000
00000000
00000000
00000000
00000000
00000000
10000000
00010000
,
10000000
00000000
01000000
00000000
00100000
00000000
00000000
00001000
00000000
00000000
00010000
00000000
00000100
00000000
00000000
00001000
,
00000000
00000000
00000001
00000000
00000100
00000000
00000000
00000010
00000000
00000010
00000000
00001000
00000001
00000000
00000010
00000000
,
00000100
00001000
00000100
00000010
00000100
00001000
00010000
01000000
,
00100000
01000000
00010000
01000000
00100000
01000000
00010000
00001000
,
00000100
00000000
00000100
00000000
00000010
00000000
00000010
00000000
00000001
00000000
00000001
00000000
00000100
00000010
00000100
00000010
,
00000100
00000000
00000000
00000000
00000000
00000000
00000000
00000000
00001000
00000000
00000000
00000000
00000000
00000000
00000000
00000000
00010000
00000000
00000000
00000000
00000000
00000000
00000000
00000000
01000000
00000000
00000000
00000000
00000000
00000000
00000000
00000000
00100000
00000000
00000000
00000000
00010000
00000000
00000000
00000000
00100000
00000000
00000000
00000000
00010000
00000000
00000000
00000000
00100000
00000000
00000000
00000000
00000000
00000000
00000000
00000000
02000000
03000000
00000000
00000000
00000000
00000000
00000000
00000000
,
10010000
00000000
10000000
00010000
00000000
00010000
01000000
00000000
00001000
00000000
00010000
00000100
00000000
00000100
00001000
00000000
,
00000001
00000000
00000100
00000010
00000000
00000010
00000100
00000000
00001000
00000000
00010000
00001000
00010000
00001000
00010000
00000000
,
00000100
00000000
00010000
00001000
00000000
00001000
01000000
00000000
00100000
00000000
10000000
00010000
10000000
00000000
01000000
00000000
,
00010000
00000000
00001000
00000010
00000000
00000010
00000000
00000100
00001000
00000000
00000001
00000000
00000100
00000000
00000010
00000000
,
00010000
00000000
00001000
00000100
00000000
00000100
00000010
00000000
00001000
00000000
00000001
00000010
00000000
00000010
00000100
00000000
,
00010000
00000000
00001000
01000000
00000000
01000000
00010000
00000000
10000000
00000000
01000000
00100000
00010000
00000000
00010000
00000000
,
01000000
00000000
01000000
00000000
00001000
00000000
00001000
00000000
00010000
00000100
00010000
00000100
00001000
00000000
00001000
00000100
,
00000000
00000100
00000010
00000000
00000001
00001000
00000001
00001000
00000010
00000000
00000000
00000000
00000100
00000000
00001000
00000000
,
00010000
01000000
00100000
00001000
00010000
00100000
10000000
01000000
,
00010000
00001000
00000010
00000001
00001000
00000000
00000010
00000100
,
00001000
00010000
01000000
00100000
00001000
00010000
00100000
01000000
,
00001000
00000010
00000100
00010000
00001000
00000000
00000100
00000001
,
00001000
00000100
00000010
00001000
00100000
00001000
00010000
00100000
,
01000000
00010000
10000000
01000000
00100000
00000000
00010000
01000000
,
00010000
00000000
00001000
00000000
00000100
00000000
00001000
00000000
00000001
00001000
00000001
00001000
00000001
00000000
00000000
00000101
,
00000000
00000000
00001100
00000000
00000010
00000000
00000000
00010000
00000000
00000000
00001000
00000000
00101000
00000000
00000000
00101000
,
00000000
00000000
00010010
00000000
00000000
00010010
00000000
00000000
00001000
00000000
00010000
00000000
00010100
00000000
00000000
01001000
,
00000000
00022000
00000000
00000000
00000000
00000000
00000000
00000000
,
00000000
00000000
00000000
00000000
00000000
00033000
00000000
00000000
;
