#VERSION:0.83;
#TITLE:The Smiler;
#SUBTITLE:(Super Eurobeat Remix);
#ARTIST:IMAscore & ChipJockey;
#TITLETRANSLIT:;
#SUBTITLETRANSLIT:;
#ARTISTTRANSLIT:;
#GENRE:;
#ORIGIN:;
#TAGS:;
#CREDIT:djfiBOO;
#BANNER:The Smiler (Super Eurobeat Remix)-banner.mp4;
#BACKGROUND:The Smiler (Super Eurobeat Remix)-bg.png;
#PREVIEWVID:;
#JACKET:The Smiler (Super Eurobeat Remix)-jacket.png;
#CDIMAGE:;
#DISCIMAGE:;
#LYRICSPATH:;
#CDTITLE:;
#MUSIC:The Smiler (Super Eurobeat Remix).ogg;
#OFFSET:-0.005000;
#SAMPLESTART:24.004999;
#SAMPLELENGTH:12.000000;
#SELECTABLE:YES;
#BPMS:0.000000=160.000000
;
#STOPS:;
#DELAYS:;
#WARPS:;
#TIMESIGNATURES:0.000000=4=4
;
#TICKCOUNTS:0.000000=4
;
#COMBOS:0.000000=1
;
#SPEEDS:0.000000=0.500000=0.000000=0
,60.000000=1.000000=4.000000=0
;
#SCROLLS:0.000000=1.000000
;
#LABELS:0.000000=Song Start
;
#BGCHANGES:0.000=The Smiler (Super Eurobeat Remix).mp4=1.000=1=0=0=StretchNoLoop==CrossFade==,
99999=-nosongbg-=1.000=0=0=0 // don't automatically add -songbackground-
;
#KEYSOUNDS:;
#ATTACKS:
;

//---------------dance-single - ----------------
#NOTEDATA:;
#CHARTNAME:;
#CHARTHASH:808464433;
#STEPSTYPE:dance-single;
#BANNER:;
#DESCRIPTION:;
#CHARTSTYLE:;
#DIFFICULTY:Beginner;
#METER:3;
#METERF:0.000000;
#LASTSECONDHINT:86.629997;
#RADARVALUES:0.200000,0.320833,0.222222,0.133333,0.000000,126.000000,106.000000,20.000000,12.000000,24.000000,0.000000,0.000000,0.000000,0.000000,0.200000,0.320833,0.222222,0.133333,0.000000,126.000000,106.000000,20.000000,12.000000,24.000000,0.000000,0.000000,0.000000,0.000000;
#CREDIT:djfiBOO;
#NOTES:
0000
0000
0000
0000
,
0000
0000
0000
0000
,
0000
0000
0000
0000
,
0000
0000
0000
0000
,
1001
0000
0000
0000
,
0001
0000
0000
0000
,
1001
0000
0000
0000
,
1000
0000
0000
0000
,
0110
0000
0000
0000
,
0010
0000
0000
0000
,
0110
0000
0000
0000
,
0100
0000
0000
0000
,
1001
0000
0000
0000
,
1000
0000
0000
0000
,
0001
0000
0000
0000
,
2002
0000
0000
3003
,
1000
0000
0010
0000
,
1000
0000
1000
0000
,
0001
0000
0100
0000
,
0001
0010
0001
0000
,
0100
0000
0100
0000
,
0010
0000
1000
0000
,
1000
0000
0001
0000
,
1000
0100
1000
0000
,
1001
0000
1000
0001
,
1001
0000
0001
1000
,
0110
0000
0010
0100
,
0110
0100
0020
0030
,
0110
0000
0001
1000
,
0110
0000
1000
0001
,
1001
0000
0010
0100
,
1001
0000
0100
0010
,
0110
0000
1001
0000
,
1000
0000
0001
1000
,
1000
0000
0010
0000
,
1000
0010
1000
0000
,
0001
0000
0100
0000
,
0001
0000
1000
0000
,
0100
0000
0010
0000
,
0010
0001
0010
0001
,
2000
0000
0000
3000
,
0020
0000
0000
0030
,
0200
0000
0000
0300
,
0002
0000
0000
0003
,
0020
0000
0000
0030
,
0200
0000
0000
0300
,
2000
0000
0000
3000
,
2002
0000
0000
3003
,
1000
0000
0010
0000
,
0100
0100
0001
0000
,
0010
0000
0100
0000
,
0100
1000
0001
0000
,
0110
0000
0010
0100
,
1001
0000
0001
1000
,
1000
0100
0010
0100
,
1000
0001
0100
0110
,
0000
0000
0000
0000
M00M
M00M
MMMM
M00M
,
M00M
0000
0MM0
M00M
MMMM
M00M
M00M
0000
;

//---------------dance-single - ----------------
#NOTEDATA:;
#CHARTNAME:;
#CHARTHASH:808464432;
#STEPSTYPE:dance-single;
#BANNER:;
#DESCRIPTION:;
#CHARTSTYLE:;
#DIFFICULTY:Easy;
#METER:7;
#METERF:0.000000;
#LASTSECONDHINT:86.629997;
#RADARVALUES:0.331746,0.417083,0.044444,0.111111,0.000000,209.000000,205.000000,4.000000,10.000000,24.000000,0.000000,0.000000,0.000000,0.000000,0.331746,0.417083,0.044444,0.111111,0.000000,209.000000,205.000000,4.000000,10.000000,24.000000,0.000000,0.000000,0.000000,0.000000;
#CREDIT:djfiBOO;
#NOTES:
0000
0000
0000
0000
,
0000
0000
0000
0000
,
0000
0000
0000
0000
,
0000
0000
0000
0000
,
0002
0000
0000
0023
0000
0000
0032
0000
,
0000
0003
0000
0000
0100
0000
0100
0000
,
0020
0000
0000
2030
0000
0000
3020
0000
,
0000
0030
0000
0000
0100
0000
0100
0000
,
0001
0001
1000
1000
,
0100
0100
0010
0010
,
0001
0001
1000
1000
,
0010
0010
0100
0100
,
0010
0010
1000
1000
,
0001
0001
0010
0010
,
0100
0100
0010
0010
,
2002
0000
0000
3003
,
1000
0010
1000
0001
,
1000
0000
0100
0000
1000
0100
1000
0000
,
0001
0010
0001
1000
,
0001
0000
0100
0001
0100
0000
0000
0000
,
0010
0010
1000
1000
,
0100
0000
0100
0000
0010
0001
0010
0000
,
0100
0100
1000
1000
,
0001
0000
0100
0010
0100
0000
0000
0000
,
0010
1000
0010
1000
,
0001
0100
0001
0100
,
0001
0010
0001
0010
,
0100
0000
0100
1000
0100
0000
0000
0000
,
0010
0100
0010
0100
,
0010
0001
0010
0001
,
0100
0001
0100
0001
,
1000
0000
0010
1000
0010
0000
0110
0000
,
0010
1000
0010
0100
,
0010
0000
1000
0000
0100
0010
0100
0000
,
0010
0100
0010
0001
,
0100
0000
0001
0100
0001
0000
0000
0000
,
0100
0010
0100
0001
,
0100
0000
0010
0000
1000
0010
1000
0000
,
0100
1000
0100
0010
,
0010
0001
0010
0000
0100
1000
0100
0000
,
1000
0100
0010
0001
,
0010
0100
1000
0000
,
1000
0100
1000
0000
,
1000
0010
1000
0000
,
1000
0010
0100
0001
,
0100
0010
1000
0001
,
0010
0100
1000
0001
,
2002
0000
0000
3003
,
0001
0100
0001
1000
,
0001
0000
0010
0000
0010
0100
1000
0000
,
1000
0010
1000
0001
,
1000
0100
1000
0100
1000
0000
0000
0000
,
0100
0010
0100
0010
,
0001
0100
0001
0100
,
0001
0100
0001
0000
0100
0010
1000
0000
,
0010
1000
0010
0000
1000
0000
1001
0000
,
0000
0000
0000
0000
M00M
M00M
MMMM
M00M
,
M00M
0000
0MM0
M00M
MMMM
M00M
M00M
0000
;

//---------------dance-single - ----------------
#NOTEDATA:;
#CHARTNAME:;
#CHARTHASH:3362502640;
#STEPSTYPE:dance-single;
#BANNER:;
#DESCRIPTION:;
#CHARTSTYLE:;
#DIFFICULTY:Medium;
#METER:10;
#METERF:0.000000;
#LASTSECONDHINT:86.629997;
#RADARVALUES:0.400000,0.449167,0.188889,0.222222,0.000000,252.000000,235.000000,17.000000,20.000000,24.000000,0.000000,0.000000,0.000000,0.000000,0.400000,0.449167,0.188889,0.222222,0.000000,252.000000,235.000000,17.000000,20.000000,24.000000,0.000000,0.000000,0.000000,0.000000;
#CREDIT:djfiBOO;
#NOTES:
0000
0000
0000
0000
,
0000
0000
0000
0000
,
0000
0000
0000
0000
,
0000
0000
0000
0000
,
1100
0000
0000
0100
0000
0000
1000
0000
,
0000
0001
0000
0000
0010
0000
0000
0000
,
0011
0000
0000
0001
0000
0000
0100
0000
,
0000
0010
0000
0000
1000
0000
0000
0000
,
2000
3010
2000
3001
,
2000
0000
3100
0000
0010
0100
0010
0000
,
0002
0103
0002
1003
,
0002
0013
0110
0000
,
0020
0031
0020
1030
,
0020
0000
0130
0000
0010
0001
0010
0000
,
0002
0010
2003
3010
,
0220
0000
0000
0330
,
0100
0000
0001
0000
0100
0001
0100
0000
,
0010
0100
0010
0000
1000
0010
1000
0000
,
0100
0000
1000
0000
0100
1000
0100
0000
,
0010
0001
0100
0001
0020
0000
0030
0000
,
0010
0000
0001
0000
0010
0001
0010
0000
,
0001
0100
0001
0000
0100
0010
0100
0000
,
0010
0000
1000
0000
0010
1000
0010
0000
,
1000
0100
0010
0100
1000
0000
0000
0000
,
1100
1000
1001
0001
,
0101
0000
0001
0100
0010
0000
1000
0000
,
1010
0010
0110
0100
,
0101
0000
0001
1000
0020
0000
0030
0000
,
0110
0000
0100
0010
0100
0000
0010
0000
,
1010
0000
0010
1000
0010
0000
1000
0000
,
1100
0000
1000
0100
1000
0000
0100
0000
,
0110
0000
0100
0010
0200
0000
1300
0000
,
0010
0000
1000
0000
0010
1000
0010
0000
,
0100
0010
0100
0000
0001
0100
0001
0000
,
0010
0000
0001
0000
0010
0001
0010
0000
,
0100
1000
0010
1000
0200
0000
0300
0000
,
0100
0000
1000
0000
0100
1000
0100
0000
,
1000
0010
1000
0000
0010
0100
0010
0000
,
0100
0000
0001
0000
0100
0001
0100
0000
,
0001
0010
0100
0010
0001
1000
0001
0000
,
1000
1000
0010
0010
,
0100
0001
0100
0000
,
0001
0001
0010
0000
,
0100
0100
1000
0000
,
0001
0001
0100
0100
,
0010
1000
0010
1000
,
0001
0010
0001
1000
,
2002
0000
0000
3003
,
1000
0001
1000
0000
0001
1000
0001
0000
,
1000
0100
0001
0000
0001
0100
1000
0000
,
0010
0100
0010
0000
0100
0010
0100
0000
,
0001
0010
0001
0010
0002
0000
0003
0000
,
0011
0000
0001
1000
0100
0000
0100
0000
,
1100
0000
1000
0010
0100
0000
0100
0000
,
0100
0001
1000
0000
0010
0100
0001
0000
,
0001
0010
0100
1000
0001
1000
0010
0000
,
0000
0000
0000
0000
M00M
M00M
MMMM
M00M
,
M00M
0000
0MM0
M00M
MMMM
M00M
M00M
0000
;

//---------------dance-single - XO+----------------
#NOTEDATA:;
#CHARTNAME:;
#CHARTHASH:805974064;
#STEPSTYPE:dance-single;
#BANNER:;
#DESCRIPTION:XO+;
#CHARTSTYLE:;
#DIFFICULTY:Hard;
#METER:13;
#METERF:0.000000;
#LASTSECONDHINT:86.629997;
#RADARVALUES:0.514286,0.770000,0.055556,0.322222,0.300000,324.000000,319.000000,5.000000,29.000000,50.000000,0.000000,0.000000,0.000000,0.000000,0.514286,0.770000,0.055556,0.322222,0.300000,324.000000,319.000000,5.000000,29.000000,50.000000,0.000000,0.000000,0.000000,0.000000;
#CREDIT:djfiBOO;
#NOTES:
0000
0000
0000
0000
,
0000
0000
0000
0000
,
0000
0000
0000
0000
,
0000
0000
0000
0000
,
0002
0000
0000
2000
0000
0003
0020
0000
,
3000
0002
0000
0030
2000
0003
0200
3000
,
0002
0000
0300
2000
0000
0003
0200
0000
,
3000
0002
0000
0300
2000
0003
3010
0000
,
0001
0001
0010
0000
0001
0001
0100
0000
,
0010
1000
0010
0100
0010
0001
0010
0000
,
1000
1000
0010
0000
1000
1000
0100
0000
,
0100
1000
0100
0010
0100
0000
0000
0000
,
0010
0010
1000
0000
0010
0010
0001
0000
,
0100
0001
0100
0010
0100
1000
0100
0000
,
0100
0100
1000
0000
0100
0100
0001
0000
,
2M02
00M0
0M00
00M0
0M00
00M0
0M00
00M0
0M00
00M0
0M00
00M0
3M03
0000
0000
0000
,
1000
0100
1000
0000
0001
0100
0001
0000
,
0010
0001
0010
0100
0010
1000
0010
0000
,
0001
0010
0001
0000
1000
0010
1000
0000
,
0100
1000
0100
0010
0200
0000
1300
0000
,
1000
0100
1000
0000
0100
0000
0000
0000
0100
0010
0100
0000
0010
0000
0000
0000
,
0001
0010
1000
0010
0001
0010
1000
0000
,
0010
0100
0010
0000
0100
0000
0000
0000
0010
0001
0010
0000
0001
0000
0000
0000
,
0001
0100
0001
0000
0100
0001
0100
0000
0002
0000
0000
0000
0103
0000
0000
0000
,
0200
0000
0010
0010
0010
0000
0310
0000
,
0020
0000
1000
1000
1000
0000
1030
0000
,
2000
0000
0001
0001
0001
0000
3001
0000
,
0002
0000
0010
0010
0020
0000
0033
0000
,
0010
0000
0010
0100
0010
0000
0100
0000
1000
0000
0000
0000
0010
0000
0000
0000
,
0100
0000
0100
0001
0100
0000
0001
0000
0010
0000
0000
0000
0001
0000
0000
0000
,
1000
0000
0100
1000
0100
0000
0010
0000
0001
0000
0000
0000
0010
0000
0000
0000
,
0010
0000
0010
0100
0010
0000
0100
1000
0200
0000
0000
0000
2300
0000
0000
0000
,
3010
0000
1000
0000
0010
0000
0000
0000
0100
0000
0001
0100
0001
0000
0000
0000
,
0001
0100
1000
0001
0010
1000
0001
0000
,
0001
0000
0010
0000
0001
0000
0000
0000
1000
0000
0100
1000
0100
0000
0000
0000
,
1000
0100
0001
0100
2000
0000
3010
0000
,
0010
1000
0010
0000
0100
0000
0000
0000
0001
0010
0001
0000
0010
0000
0000
0000
,
0100
1000
0100
0000
0010
0100
0010
0000
0100
1000
0100
0000
1000
0000
0000
0000
,
0001
0100
0001
0000
0100
0000
0000
0000
0010
1000
0010
0000
1000
0000
0000
0000
,
0001
0100
0001
0000
1000
0001
1000
0000
0001
0010
0001
0000
0011
0000
0000
0000
,
0001
0010
1000
0010
,
0001
0100
2000
0000
,
3100
0010
1000
0000
,
0100
0010
0001
0000
,
1000
0100
0001
0100
,
1000
0010
0001
0010
,
1000
0010
0100
0001
,
2M02
00M0
0M00
00M0
0M00
00M0
0M00
00M0
0M00
00M0
0M00
00M0
3M03
0000
0000
0000
,
0001
0010
0001
0000
1000
0000
0000
0000
0010
1000
0010
0000
0100
0000
0000
0000
,
0100
0010
0100
0000
0010
1000
0010
0000
1000
0001
1000
0000
0001
0000
0000
0000
,
1000
0100
1000
0000
0010
0000
0000
0000
0100
0001
0100
0000
0001
0000
0000
0000
,
1000
0001
1000
0000
0100
0010
0100
0010
0200
0000
0000
0000
0310
0000
0000
0000
,
0011
0000
0010
0001
2000
0000
3010
0000
,
1010
0000
0010
0100
0010
0000
1000
0000
0200
0000
0000
0000
0310
0000
0000
0000
,
0010
0001
0010
0000
0001
0000
0100
0000
0010
1000
0010
0000
1000
0000
0001
0000
,
0001
0010
0001
0010
0001
0010
0001
0010
0100
1000
0100
1000
0100
0000
0000
0000
,
0000
0000
0000
0000
M00M
M00M
MMMM
M00M
,
M00M
0000
0MM0
M00M
MMMM
M00M
M00M
0000
;

//---------------dance-single - DS- XO FS- SS-----------------
#NOTEDATA:;
#CHARTNAME:;
#CHARTHASH:2751244824;
#STEPSTYPE:dance-single;
#BANNER:;
#DESCRIPTION:DS- XO FS- SS-;
#CHARTSTYLE:;
#DIFFICULTY:Challenge;
#METER:16;
#METERF:0.000000;
#LASTSECONDHINT:86.629997;
#RADARVALUES:0.768254,0.930417,0.155556,0.211111,0.661111,484.000000,470.000000,14.000000,19.000000,34.000000,0.000000,0.000000,0.000000,0.000000,0.768254,0.930417,0.155556,0.211111,0.661111,484.000000,470.000000,14.000000,19.000000,34.000000,0.000000,0.000000,0.000000,0.000000;
#CREDIT:djfiBOO;
#NOTES:
0000
0000
0000
0000
,
0000
0000
0000
0000
,
0000
0000
0000
0000
,
0000
0000
0000
0000
,
1000
1000
0100
0000
0M01
0001
0100
0000
,
1M00
0100
0010
0100
1000
0001
0100
0000
,
0001
0001
0010
0000
10M0
1000
0010
0000
,
00M1
0010
0100
0010
0002
0000
0003
0000
,
0011
0010
0001
0010
0110
0100
0010
0100
,
1100
1000
0100
1000
1001
0001
1000
0001
,
0101
0100
0001
0100
0110
0010
0100
0010
,
1010
1000
0010
1000
1001
0001
1000
0001
,
1001
0000
0001
0010
0001
0000
0010
0000
0011
0000
0010
0100
0010
0000
0100
0000
,
1100
0000
0100
1000
0100
0000
1000
0000
1010
0000
0010
0100
0010
0000
0010
0000
,
0110
0000
0100
0010
0100
0000
0010
0100
0010
0000
0000
0000
0210
0000
0000
M000
,
M301
0100
0001
0100
0001
0100
0001
0100
0010
1000
0010
1000
0010
1000
0010
1000
,
0001
0000
0001
0000
0010
0000
0000
0000
0100
0000
0100
1000
0100
0000
0000
0000
,
1000
0100
0001
0100
1000
0010
0001
0000
,
0010
0000
0010
0000
1000
0000
0000
0000
0001
0000
0001
0100
0001
0000
0000
0000
,
0001
0100
1000
0100
0002
0000
0103
0000
,
0100
0010
0100
0000
0100
0000
0000
0000
0100
0001
0100
0010
0100
0000
0000
0000
,
0010
1000
0010
1000
0010
0100
0010
0100
0010
1000
0010
1000
0100
0000
0000
0000
,
1000
0100
1000
0000
0100
0000
0000
0000
0100
0010
0100
1000
0100
0000
0000
0000
,
0010
0100
0010
0000
0010
0001
1000
0001
0200
0000
0000
0000
0300
0000
0000
0000
,
0002
0000
0000
0000
0013
0M00
0010
0000
0200
0000
0000
0000
0302
0000
0000
0000
,
2003
0000
0000
0000
3100
00M0
0100
0000
0020
0000
0000
0000
2030
0000
0000
0000
,
3200
0000
0000
0000
0301
00M0
0001
0000
0020
0000
0000
0000
0032
0000
0000
0000
,
0203
0000
0000
0000
1300
00M0
1000
0000
0020
0000
0000
0000
0130
0000
0000
0000
,
0010
0000
1000
0010
1000
0001
1000
0001
1000
0000
1000
0100
1000
0000
0001
0010
,
0001
0000
0001
0010
0001
1000
0001
1000
0001
0000
0001
0100
0001
0000
1000
0010
,
1000
0000
0100
0010
0100
0001
0100
0010
0100
0000
0010
0001
0100
0000
0001
0100
,
0001
0000
0100
0010
0100
1000
0100
0010
1000
0100
0010
0001
1000
0100
0010
0001
,
1000
0000
1000
0000
0100
0000
0000
0000
0010
0000
0010
0001
0010
0000
0000
0000
,
0001
0010
1000
0010
0001
0100
1000
0000
,
0100
0000
0100
0000
0001
0000
0000
0000
1000
0000
1000
0010
1000
0000
0000
0000
,
1000
0010
0001
0010
2000
0000
3010
0000
,
0010
0100
0010
0000
0010
0000
0000
0000
0010
1000
0010
0100
0010
0000
0000
0000
,
0100
0001
0100
0001
0100
0010
0100
0010
0100
0001
0100
0001
0010
0000
0000
0000
,
0001
0010
0001
0000
0010
0000
0000
0000
0010
0100
0010
0001
0010
0000
0000
0000
,
0001
0010
0100
1000
0001
1000
0100
0010
0001
0010
0100
1000
0002
0000
0003
0000
,
0001
0100
1000
0100
0001
0100
1000
0100
,
0001
0010
1000
0010
0001
0010
1000
0010
,
0001
0010
0001
1000
0001
0100
0001
0001
,
1000
0100
1000
0001
1000
0010
1000
1000
,
1000
0100
0001
0100
1000
0100
0001
0100
,
1000
0010
0001
0010
1000
0010
0001
0010
,
1000
1000
0100
0100
0010
0010
0001
0001
,
0001
0010
0001
0010
0001
0010
0001
0010
0100
1000
0100
1000
0100
1000
0100
1000
,
0100
0010
0100
0000
0010
0000
0000
0000
0001
0010
0100
0010
1000
0000
0000
0000
,
0010
0100
1000
0100
0010
0001
0010
0001
0100
0001
0100
0001
0100
0000
0000
0000
,
0010
0100
0010
0000
0010
0000
0000
0000
1000
0010
0100
0010
0001
0000
0000
0000
,
0010
0100
0001
1000
0100
1000
0100
1000
0200
0000
0000
0000
0310
0000
0000
0000
,
0010
0000
0100
1000
0100
0010
0100
0000
1000
0000
1000
0010
0100
0000
0001
0010
,
0100
0000
0010
0001
0010
0100
0010
0000
0001
0000
0001
0100
0010
0000
1000
0100
,
0010
0001
0010
0000
0001
0000
0000
0000
1000
0100
1000
0001
1000
0000
0000
0000
,
0001
0010
0100
1000
0001
0010
0100
1000
0010
0100
0001
1000
0020
0000
0000
0000
,
0030
0000
0000
0000
M00M
M00M
MMMM
M00M
,
M00M
0000
0MM0
M00M
MMMM
M00M
M00M
0000
;

//---------------dance-single - respect for MrTwinkles / Super Euroびt Version----------------
#NOTEDATA:;
#CHARTNAME:;
#CHARTHASH:808464432;
#STEPSTYPE:dance-single;
#BANNER:;
#DESCRIPTION:respect for MrTwinkles / Super Euroびt Version;
#CHARTSTYLE:;
#DIFFICULTY:Edit;
#METER:69;
#METERF:0.000000;
#LASTSECONDHINT:86.629997;
#RADARVALUES:0.852381,1.090833,1.344444,0.211111,0.705556,537.000000,416.000000,121.000000,19.000000,119.000000,12.000000,0.000000,0.000000,0.000000,0.852381,1.090833,1.344444,0.211111,0.705556,537.000000,416.000000,121.000000,19.000000,119.000000,12.000000,0.000000,0.000000,0.000000;
#CREDIT:djfiBOO;
#NOTES:
0000
0000
0000
0000
,
0000
0000
0000
0000
,
0000
0000
0000
0000
,
0000
0000
0000
0000
,
1010
1000
1100
0000
1001
0001
0101
0000
,
1001
0001
0101
0100
0110
0010
1010
0000
,
1001
1000
1100
0000
1010
0100
0101
0000
,
0011
0011
1100
1100
0102
0000
0103
0000
,
0001
0100
1000
0010
1000
0100
0001
0010
,
0001
1001
1000
1010
0010
0110
0100
0101
,
1100
0100
0001
0010
0001
0100
1000
0010
,
0010
1010
1000
1001
0001
0011
0010
0110
,
1001
0000
0001
0010
1000
0000
0010
0000
0011
0000
0001
0100
1000
0000
0100
0000
,
0101
0000
1000
0100
0001
0000
1000
0000
1010
0000
1000
0010
0001
0000
0010
0000
,
0110
0000
0100
0100
0100
0000
0010
0010
0010
0000
0000
0000
0012
0000
0000
M000
,
M003
0100
0010
0100
1000
0100
0010
0100
0010
0001
0010
0100
0010
0001
0010
1000
,
1010
0000
1001
0000
1010
0000
0000
0000
1100
0000
0100
0100
1100
0000
0000
0000
,
1001
1100
0011
0101
1100
0110
0011
0000
,
0011
0000
1010
0000
1100
0000
0000
0000
1001
0000
0001
0001
0101
0000
0000
0000
,
1001
0110
1001
1100
0102
0000
0103
0000
,
0100
0100
0110
0000
0101
0000
0000
0000
0001
0010
1000
0010
0001
0000
0000
0000
,
1000
0010
0M10
0001
0001
0100
01M0
1000
1000
0010
0001
0100
1000
0000
0000
0000
,
1000
1000
1100
0000
0100
0000
0000
0000
1000
0100
0001
0100
1000
0000
0000
0000
,
1000
1000
1001
0000
0001
0100
1000
0010
0002
0000
0000
0000
0003
0000
0000
0000
,
1002
0000
0113
1010
0201
0000
0312
0000
,
2103
0000
3101
1100
0021
0000
2130
0000
,
3201
0000
1301
0101
1020
0000
0132
0000
,
0213
0000
1301
1100
1020
0000
0131
0000
,
1010
0000
1000
0100
0001
0100
1000
0001
1000
0000
0100
01M0
0001
0000
0100
01M0
,
1000
0000
0001
0010
1000
0010
0001
1000
0001
0000
0010
0M10
1000
0000
0010
0M10
,
0001
0000
0001
0100
1000
0100
0001
1000
0100
0000
0010
0010
0010
0000
0001
0001
,
0001
0000
1000
0010
0001
0010
1000
0010
1000
1000
0001
0001
0100
0100
0010
0010
,
1010
0000
1100
0000
0101
0000
0000
0000
0011
0000
0010
0010
0011
0000
0000
0000
,
1001
0110
1010
0110
0011
1100
1001
0000
,
0110
0000
1100
0000
0101
0000
0000
0000
1100
0000
1000
1000
1010
0000
0000
0000
,
1100
0011
1001
0110
2100
0000
3011
0000
,
0010
0010
0110
0000
1001
0000
0000
0000
1000
0010
0001
0010
1000
0000
0000
0000
,
0001
0100
01M0
1000
1000
0010
0M10
0001
0001
0100
1000
0010
0001
0000
0000
0000
,
0001
0001
1001
0000
0110
0000
0000
0000
0001
0100
1000
0100
0001
0000
0000
0000
,
1000
1000
0100
0100
0010
0010
0001
0001
0001
1000
0010
1000
0002
0000
0003
0000
,
000M
0M00
00M0
0000
M000
0000
00M0
0000
0M0M
0000
00M0
0000
M000
0000
00M0
M000
,
000M
0M00
M00M
0M00
000M
0MM0
M000
0M00
,
000M
0000
0M00
M000
000M
0000
M000
0M00
000M
0000
00M0
0000
00MM
0000
000M
0M00
,
M000
0000
00M0
0000
M000
00M0
000M
0000
M000
0000
MM00
0000
M000
0000
MM00
0000
,
M000
00M0
000M
MMM0
M000
0MM0
000M
00M0
,
M000
0000
0M00
00MM
000M
0000
0M00
0000
M000
0000
M000
0000
000M
0000
0M00
0M00
,
M000
0000
MM00
00M0
00M0
0000
00M0
M000
0M00
0000
0M00
0000
000M
0000
000M
0000
,
0001
1000
0001
0100
0001
1000
0001
0010
0100
0001
0100
0010
0100
0001
0100
0010
,
0100
0100
0110
0000
0011
0000
0000
0000
0001
0010
1000
0010
0001
0000
0000
0000
,
0100
1000
100M
0010
1000
0001
M001
0100
1000
0100
0001
0100
1000
0000
0000
0000
,
0100
0100
0101
0000
0101
0000
0000
0000
1000
0010
0001
0010
1000
0000
0000
0000
,
0001
M001
0100
0010
0001
1000
100M
0100
0201
0000
0000
0000
0310
0000
0000
0000
,
0101
0000
0001
0010
1000
0010
0001
1000
0001
0000
0010
0M10
1000
0000
0010
0M10
,
0001
0000
1000
0100
0001
0100
1000
0001
1000
0000
0100
01M0
0001
0000
0100
01M0
,
1100
1100
1100
0000
1001
0000
0000
0000
0011
0011
0011
1001
1001
0000
0000
0000
,
0100
0100
0100
0100
0100
0100
0100
0100
0100
0100
0100
0100
0200
0000
0000
0000
,
0300
0000
0000
0000
M00M
M00M
MMMM
M00M
,
M00M
0000
0MM0
M00M
MMMM
M00M
M00M
0000
;
