#TITLE:The Limbo;
#SUBTITLE:;
#ARTIST:STN;
#TITLETRANSLIT:;
#SUBTITLETRANSLIT:;
#ARTISTTRANSLIT:;
#GENRE:CYBER PUNK;
#CREDIT:;
#MUSIC:The Limbo.ogg;
#BANNER:The Limbo.png;
#BACKGROUND:The Limbo-bg.png;
#CDTITLE:;
#SAMPLESTART:78.325;
#SAMPLELENGTH:15.000;
#SELECTABLE:YES;
#OFFSET:0.856;
#BPMS:0.000=200.000;
#STOPS:;
#BGCHANGES:0.000=The Limbo.mp4=1.000=0=0=0=StretchNoLoop====,
999.000=The Limbo-bg.png=1.000=0=0=1,
99999.000=-nosongbg-=1.000=0=0=0=StretchNoLoop====
;
#FGCHANGES:;

//--------------- dance-single - forcednature ----------------
#NOTES:
     dance-single:
     forcednature:
     Beginner:
     5:
     0,0,0,0,0:
0000
0000
0000
0000
,
0000
0000
0000
0000
,
0000
0000
0000
0000
,
0000
0000
0000
0000
,
0000
0000
0000
0000
,
0000
0100
0000
0000
,
0000
0000
0010
0000
0000
0010
0000
0000
,
0000
0000
0000
0000
,
1000
0000
0001
0000
,
1001
0000
0000
0000
,
0000
0000
0010
0000
,
0100
0000
0000
0000
,
0000
0000
1000
0000
,
0001
0000
0000
0000
,
0100
0000
0000
0000
,
0110
0000
0000
0000
,
0001
0000
1000
0000
,
0001
0000
0000
0000
,
1000
0000
0001
0000
,
1000
0000
0000
0000
,
0100
0000
0010
0000
,
0100
0000
0000
0000
,
0010
0000
0010
0000
,
0100
0000
0100
0000
,
0100
0000
1000
0000
,
0001
0000
0000
0000
,
0100
0000
0001
0000
,
1000
0000
1000
0000
,
1000
0000
1000
0000
,
0001
0000
0000
0000
,
0010
0000
0001
0000
,
0100
0000
0000
0000
,
0001
0000
0000
0000
,
1000
0000
0000
0000
,
0010
0000
1000
0000
,
0001
0000
0000
0000
,
0010
0000
0000
0000
,
0100
0000
0000
0000
,
1000
0000
0001
0000
,
0100
0000
0000
0100
0000
0000
0100
0000
,
0000
0000
0000
0000
,
0010
0000
0000
0010
0000
0000
0010
0000
,
0000
0000
0000
0000
,
1001
0000
0000
1001
0000
0000
1001
0000
,
0000
0000
0000
0000
,
0110
0000
0000
0110
0000
0000
0110
0000
,
0000
0000
0000
0000
,
2000
0000
0000
0000
,
3001
0000
0000
0000
,
1000
0000
0000
0000
,
0100
0000
0000
0000
,
0010
0000
0000
0000
,
0001
0000
0000
0000
,
0100
0000
0000
0000
,
0010
0000
0000
0000
,
1000
0000
0000
0000
,
0100
0000
0000
0000
,
1000
0000
0000
0000
,
0010
0000
0000
0000
,
0100
0000
0000
0000
,
0001
0000
0000
0000
,
0010
0000
0000
0000
,
0001
0000
0000
0000
,
0100
0000
0000
0000
,
0020
0000
0000
0000
,
0000
0030
0000
0000
,
1000
0000
1000
0000
,
0001
0000
0001
0000
,
0100
0000
0010
0000
,
1000
0000
0001
0000
,
0010
0000
0010
0000
,
0100
0000
0100
0000
,
1000
0000
0001
0000
,
0100
0000
0010
0000
,
1000
0000
1000
0000
,
0001
0000
0001
0000
,
0010
0000
0100
0000
,
1000
0000
0001
0000
,
1001
0000
0001
0000
,
1000
0000
0010
0000
,
0100
0000
0001
0000
,
1000
0000
0100
0000
,
0010
0010
0010
0000
,
0100
0100
0100
0000
,
1000
0001
0100
0000
,
0001
1000
0010
0000
,
1000
0100
1000
0100
,
0010
0001
0010
0001
,
0100
0010
1000
0001
,
0010
0010
0010
0000
,
0110
0000
0000
0000
,
0100
0000
1000
0000
,
0001
0000
0000
0000
,
0100
0000
0010
0000
,
1001
0000
1000
0000
,
0001
0000
0100
0000
,
0010
0010
0010
0100
,
0001
1000
0001
0010
,
0220
0000
0000
0000
,
0000
0000
0000
0000
,
0330
0000
0000
0000
;

//--------------- dance-single - forcednature ----------------
#NOTES:
     dance-single:
     forcednature:
     Easy:
     11:
     0,0,0,0,0:
0000
0000
0000
0000
,
0000
0000
0000
0000
,
0000
0000
0000
0000
,
0000
0000
0000
0000
,
0000
0000
0000
0000
,
0000
0001
0100
0020
,
0000
0000
2030
0000
0000
3002
0000
0000
,
0000
0000
0003
0000
,
0020
0000
0000
0230
0000
0000
0310
0000
,
0220
0000
0000
0330
,
0000
0000
2000
3002
,
0203
0320
0030
0000
,
0000
0000
2000
3002
,
0023
0230
0300
0000
,
2000
3002
0203
0310
,
1001
0000
0001
0000
0010
0000
0100
1000
,
0000
1000
0010
0000
0100
0000
0001
0000
,
1000
0000
0100
0000
0010
0000
0001
0100
,
0000
0100
0010
0000
1000
0000
0001
0000
,
1001
0000
1000
0000
0100
0000
0010
0001
,
0000
0001
0100
0000
0010
0000
1000
0000
,
0001
0000
0010
0000
0100
0000
1000
0010
,
0000
0010
0100
0000
0001
0000
1000
0000
,
0100
0010
0100
0010
0100
0010
0100
0010
,
0100
0010
0100
0010
0001
2000
0000
3000
,
0010
0100
0001
1000
,
0010
0100
0001
0000
,
0010
0100
0010
0100
0010
0100
0010
0100
,
0010
0100
0010
0100
1000
0002
0000
0003
,
0100
0010
1000
0001
,
0010
0100
1000
0000
,
1001
0002
0203
0320
,
2030
3002
0023
0230
,
0302
0203
2300
3002
,
0023
0032
2003
3020
,
0230
2300
3200
0302
,
2003
3020
2030
3200
,
0320
0032
0203
0302
,
0023
0230
2300
3002
,
0103
1000
0000
0100
0010
0000
0100
0001
,
0000
1000
0001
0010
,
0100
0001
0000
0100
0010
0000
0100
1000
,
0000
0010
0100
0001
,
1000
0010
0000
0100
0010
0000
0001
0010
,
0000
0100
0001
1000
,
0001
0010
0000
0100
0010
0000
1000
0010
,
0000
0100
1000
0001
,
0100
0010
0100
0000
0002
0000
0000
0000
,
2003
0000
0000
0000
,
3200
0000
0000
0000
,
0320
0000
0000
0000
,
0032
0000
0000
0000
,
0203
0000
0000
0000
,
0320
0000
0000
0000
,
2030
0000
0000
0000
,
3002
0000
0000
0000
,
0023
0000
0000
0000
,
0230
0000
0000
0000
,
2300
0000
0000
0000
,
3002
0000
0000
0000
,
0203
0000
0000
0000
,
0320
0000
0000
0000
,
2030
0000
3002
0000
,
0023
0000
0230
0000
,
2300
0000
3002
0000
,
0203
0300
0000
0000
,
0010
1000
0010
0000
0100
0000
0101
0000
,
0001
0010
0001
0000
1000
0000
1100
0000
,
0010
0100
0010
0000
1000
0000
1001
0000
,
0001
0010
0001
0000
0100
0000
0110
0000
,
0101
0000
1000
0010
1000
0000
0001
0010
,
0001
0000
0000
0000
1000
0000
0010
0000
1000
0000
0000
0100
0000
0000
0010
0000
,
0001
0000
0100
0010
0100
0000
0001
1000
,
0001
0000
0010
0100
0010
0000
0002
0000
,
1003
0010
0100
0000
0001
0000
0110
0000
,
0001
0010
0100
0000
1000
0000
0110
0000
,
0001
1000
0010
0000
0100
0000
1001
0000
,
1000
0001
0010
0000
0100
0000
1001
0000
,
0110
0000
0001
0100
1000
0000
0100
0001
,
1000
0000
0100
0001
0100
0000
1000
0001
,
0010
0000
0000
0001
0000
0000
0100
0000
0010
0000
0000
1000
0000
0000
0001
0000
,
0010
0000
0000
0100
0000
0000
1000
0000
0001
0000
0000
0100
0000
0000
0010
0000
,
1000
0100
0010
0100
1000
0001
0010
0001
,
1000
0000
0010
0000
0100
0000
0001
0000
0000
0001
0000
0000
0010
0000
0100
0000
,
1000
0000
0000
0001
0000
0000
0100
0000
0000
0010
0000
0000
1000
0000
0001
0000
,
0010
0000
0000
0100
0000
0000
1000
0000
0000
0100
0000
0000
0010
0000
0000
0000
,
0101
0000
0000
0100
0000
0000
1010
0000
0000
0010
0000
0000
1001
0000
0000
0000
,
0011
0000
0000
0010
0000
0000
1100
0000
0000
0100
0000
0000
1001
0000
0000
0000
,
1000
0000
0000
0001
0000
0000
0100
0000
0001
0000
0000
1000
0000
0000
0100
0000
,
0010
0001
1000
0001
0100
0001
0010
0000
,
0110
0000
0100
1000
0000
0001
0100
0000
,
0010
1000
0010
0000
0100
0000
0001
0000
,
1001
0000
1000
0100
0000
0100
0010
0000
,
0001
1000
0001
0000
0110
0000
1000
0000
,
1001
0000
1000
0100
0001
0000
0100
1000
,
0000
1000
0001
0000
0100
0010
0100
0000
,
0001
0010
0001
0010
0100
1000
0100
1000
,
0001
0100
0010
1000
0001
0010
0100
0000
,
2002
0000
0000
0000
,
0000
0000
0000
0000
,
3003
0000
0000
0000
;

//--------------- dance-single - forcednature ----------------
#NOTES:
     dance-single:
     forcednature:
     Medium:
     13:
     0,0,0,0,0:
0000
0000
0000
0000
,
0000
0000
0000
0000
,
0000
0000
0000
0000
,
0000
0000
0000
0000
,
0000
0000
0000
0000
,
0000
1000
0001
0010
0100
1000
0002
0000
,
0000
0000
0203
0000
0000
0320
0000
0000
,
0000
0000
0030
0000
,
2000
0000
0000
3002
0000
0000
0013
0000
,
0220
0000
0000
0330
,
0000
0000
0000
0000
0100
1000
0001
0000
,
0010
0001
2000
0000
0000
0000
0000
0000
,
3000
0000
0000
0000
0010
1000
0001
0000
,
0100
0001
2000
0000
0000
0000
3000
0000
,
0100
0010
0001
0010
0100
1000
0001
0000
,
1001
0000
1000
0001
0100
0000
0010
1000
,
0000
1000
0100
0000
0010
0001
0010
0000
,
0100
1000
0001
0000
0100
0000
0010
1000
,
0000
1000
0001
0000
0010
0100
1000
0000
,
1001
0000
0001
0100
0010
0000
1000
0001
,
0000
0001
0010
0000
0100
1000
0010
0000
,
0100
0001
1000
0000
0100
0000
0010
0001
,
0000
0001
0100
0000
0010
1000
0001
0000
,
1000
0100
1000
0100
0010
0100
0010
0100
,
0001
0100
0001
0100
1000
0002
0000
0003
,
0100
0001
1000
0010
0000
1000
0001
0010
,
0200
0000
0310
0001
1000
0010
0100
0000
,
0001
0100
0001
0100
0010
0100
0010
0100
,
1000
0100
1000
0100
0001
2000
0000
3000
,
0100
1000
0001
0010
0000
0001
1000
0010
,
0200
0000
0310
1000
0001
0010
0100
0000
,
0110
0020
0032
2003
,
3020
0230
2300
3200
,
0302
0023
2030
3020
,
0230
2300
3002
0103
,
0110
0020
2030
3002
,
0023
0230
0302
0203
,
2300
3020
0032
0023
,
0230
0302
2003
3100
,
0010
0011
0000
0010
0011
0000
0010
0011
,
0000
0001
0100
0000
0001
0001
1000
0000
,
0010
1010
0000
0010
1010
0000
0010
1010
,
0000
1000
0100
0000
1000
1000
0001
0000
,
0100
0110
0000
0100
0110
0000
0100
0110
,
0000
0001
1000
0000
0100
0010
0001
0000
,
0010
0110
0000
0010
0110
0000
0010
0110
,
0000
0100
1000
0000
0001
0100
0010
0000
,
2000
0000
3002
0000
0103
0100
0100
0000
,
0020
0000
0000
0000
,
2030
0000
0000
0000
,
3002
0000
0000
0000
,
0023
0000
0000
0000
,
0230
0000
0000
0000
,
2300
0000
3002
0000
,
0203
0000
0000
0000
,
0320
0000
2030
0000
,
3002
0000
0000
0000
,
0023
0000
0000
0000
,
0230
0000
0000
0000
,
2300
0000
3002
0000
,
0203
0000
0320
0000
,
2030
0000
3002
0000
,
0023
0230
0320
0032
,
2003
3020
0230
0320
,
2030
3002
0023
0032
,
0203
0300
0000
0000
,
0001
0000
0100
0000
0010
0000
0000
1000
0000
0000
0010
0000
0100
0000
0001
0000
,
1000
0000
0100
0000
0010
0000
0000
0001
0000
0000
0010
0000
0100
0000
1000
0000
,
0010
0000
0100
0000
0010
0000
0000
1000
0000
0000
0100
0000
0010
0000
0100
0000
,
1000
0000
0001
0000
1000
0000
0000
0010
0000
0000
0100
0000
0010
0000
1000
0000
,
0001
0000
0000
0010
0000
0000
0100
0000
0001
0000
0000
0100
0000
0000
1000
0000
,
0001
0000
0000
0100
0000
0000
1000
0000
0100
0000
0000
0001
0000
0000
1000
0000
,
0010
0000
0000
1000
0000
0000
0100
0000
0001
0000
0000
0100
0000
0000
1000
0000
,
0001
0000
0000
0100
0000
0000
0010
0000
1000
0000
0001
0000
0010
0000
0000
0000
,
0100
0000
1000
0000
0010
0000
0000
0100
0000
0000
0001
0000
1000
0000
0100
0000
,
0010
0000
0001
0000
1000
0000
0000
0010
0000
0000
0100
0000
0001
0000
1000
0000
,
0100
0000
1000
0000
0001
0000
0000
0100
0000
0000
0010
0000
1000
0000
0001
0000
,
0010
0000
0000
0000
0100
0000
1000
0000
0001
0000
0000
0100
0000
0000
0010
0000
,
1000
0000
0000
0100
0000
0000
0001
0000
1000
0000
0000
0010
0000
0000
0001
0000
,
1000
0000
0000
0100
0000
0000
0001
0000
1000
0000
0000
0010
0000
0000
0001
0000
,
1000
0000
0000
0010
0000
0000
0100
0000
1000
0000
0000
0001
0000
0000
0010
0000
,
0100
0000
0000
0001
0000
0000
1000
0000
0100
0000
0000
0010
0000
0000
0001
0000
,
0100
0010
0100
0001
0010
0100
0010
0001
,
0100
0000
0010
0000
0100
0000
0001
0000
0000
1000
0000
0000
0100
0000
0010
0000
,
0001
0000
0100
0000
0010
0000
1000
0000
0000
0001
0000
0000
0010
0000
0100
0000
,
1000
0000
0000
0100
0000
0000
0001
0000
0000
0100
0000
0000
0010
0000
0001
0000
,
1000
0010
0000
1000
0010
0000
0100
0001
0000
0100
0001
0000
1000
0000
0001
0000
,
1000
0100
0000
1000
0100
0000
0010
0001
0000
0010
0001
0000
0100
0000
0010
0000
,
1000
0000
0100
1000
0000
0001
0010
0000
0001
0000
0100
0001
0000
1000
0010
0000
,
0100
0000
0001
0010
0001
0000
1000
0010
1000
0000
0100
0010
0100
0000
0100
0000
,
2000
0000
3001
0000
1000
0000
0010
0100
,
0000
0100
0001
0000
1000
0100
0010
0100
,
0020
0000
0031
0000
1000
0000
0001
0100
,
0000
0100
0010
0000
1000
0000
0001
0000
,
1001
0000
1000
0100
0001
0000
0100
1000
,
0000
1000
0010
0000
0100
0001
1000
0000
,
0001
0010
0001
0100
0010
1000
0100
1000
,
0010
0000
0100
0000
0001
0000
1000
0000
0100
0000
0010
0000
0001
1000
0001
1000
,
0020
0000
0000
0000
,
0000
0000
0000
0000
,
0030
0000
0000
0000
;

//--------------- dance-single - forcednature ----------------
#NOTES:
     dance-single:
     forcednature:
     Hard:
     16:
     0,0,0,0,0:
0000
0000
0000
0000
,
0000
0000
0000
0000
,
0000
0000
0000
0000
,
0000
0000
0000
0000
,
0000
0000
0000
0000
,
0000
0001
1000
0100
0010
0100
2000
0000
,
0000
0000
3002
0000
0000
0203
0000
0000
,
0000
0000
0300
0000
,
0020
0000
0000
2030
0000
0001
3001
0000
,
2002
0000
0000
3003
,
0000
0000
0000
0000
1000
0100
0010
0000
,
0001
0010
0100
2000
0000
0000
0000
0000
,
3000
0000
0000
0000
0001
0100
0010
0000
,
1000
0010
0100
0002
0000
0000
0003
0000
,
1000
0100
0010
0001
0100
0010
1000
0000
,
1001
0000
0001
0010
0100
0000
0001
0100
,
0000
0100
1000
0000
0010
0100
1000
0000
,
0100
0001
1000
0001
0010
0000
0100
0001
,
0000
0001
0100
0000
1000
0010
0100
0000
,
0110
0000
0010
1000
0001
0000
0010
0100
,
0000
0100
1000
0000
0010
0100
0001
0000
,
1000
0100
0001
0100
0010
0000
0010
0001
,
0001
0001
0100
0000
0010
1000
0002
0000
,
1003
0100
0001
0100
1000
0100
0001
0100
,
1000
0000
0100
0000
0001
0000
0100
0000
0010
0001
0020
0000
0000
0000
0030
0000
,
0100
1000
0001
0100
0000
0010
1000
0001
,
0010
0010
0100
0000
1000
0010
0100
0000
,
0001
0100
1000
0100
0001
0100
1000
0100
,
0001
0000
0100
0000
1000
0000
0100
0000
0010
1000
0002
0000
0000
0000
0003
0000
,
1000
0100
0010
0001
0000
0100
0010
1000
,
0001
0001
0010
0000
0100
1000
0001
0000
,
1001
2000
3020
0230
,
2300
3002
0023
2030
,
3200
0302
2003
3020
,
0230
0000
2300
0000
3010
0010
0100
0000
,
0110
0002
2003
3200
,
0302
2003
3020
0230
,
2300
3020
0032
0023
,
0230
0000
0302
0000
0013
0010
0100
0000
,
1000
1100
0000
0001
0101
0000
1000
1100
,
0000
0010
0100
0001
1000
0100
0010
0000
,
0001
0101
0000
1000
1100
0000
0001
0101
,
0000
1000
0010
0100
0001
1000
0100
0000
,
0010
0011
0000
0100
1100
0000
0010
0011
,
0000
0001
1000
0010
0100
0001
1000
0000
,
0010
1010
0000
0100
0101
0000
0010
1010
,
0000
0000
0001
0000
0010
0000
0100
0000
1000
0000
0001
0000
0100
0001
0100
0001
,
1000
0000
1000
0000
0010
0000
0000
0000
1000
0100
1000
0100
0010
0001
0010
0001
,
2000
0000
0000
0000
,
3002
0000
0000
0000
,
0203
0000
0000
0000
,
0320
0000
0000
0000
,
2030
0000
0000
0000
,
3002
0000
0023
0000
,
0230
0000
0000
0000
,
2300
0000
0000
0000
,
3002
0000
0000
0000
,
0203
0000
0000
0000
,
0320
0000
0000
0000
,
2030
0000
3002
0000
,
0023
0000
0000
0000
,
0230
0000
2300
0000
,
3002
0203
0302
2003
,
3020
2030
3200
0320
,
0230
2300
3002
0203
,
0320
0030
0000
0000
,
1000
0001
1000
0000
0100
0000
0010
0001
0000
0001
0100
0000
0010
0000
1000
0000
,
0001
1000
0001
0000
0100
0000
0010
1000
0000
1000
0100
0000
0010
0000
0001
0000
,
0100
0010
0100
0000
0001
0000
1000
0100
0000
0100
0010
0000
0001
0000
1000
0000
,
0100
0010
0100
0000
1000
0000
0001
0100
0000
0100
0010
0000
1000
0000
0001
0000
,
0010
0000
0000
0010
0100
0000
1000
0000
0001
0000
0100
0010
0000
0010
1000
0000
,
0001
0000
0010
0100
0000
0100
1000
0000
0002
0000
0000
0203
0000
0000
1000
0000
,
0310
0000
0000
0010
0100
0000
0001
0000
1000
0000
0100
0010
0000
0010
0001
0000
,
1000
0000
0010
0100
0000
0100
0001
0000
1000
0000
0100
0000
0010
0001
0010
0001
,
1000
0010
1000
0000
0100
0000
0010
0001
0000
0001
0100
0000
0010
0000
1000
0000
,
0001
0010
0001
0000
0100
0000
0010
1000
0000
1000
0100
0000
0010
0000
0001
0000
,
0100
0001
0100
0000
0010
0000
1000
0100
0000
0100
0010
0000
0001
0000
0100
0000
,
1000
0000
0100
0000
0010
0000
1000
0000
0001
0000
1000
0100
0010
0001
0010
0001
,
1000
0000
0001
0100
0000
0100
0010
0000
1000
0000
0001
0010
0000
0010
0100
0000
,
0010
0000
0001
1000
0000
1000
0010
0000
0100
0000
0001
1000
0000
1000
0100
0000
,
0010
0000
0001
0100
0000
0010
0100
0000
0001
0000
0010
0100
0000
0010
0001
0000
,
1000
0000
0010
1000
0001
0010
0001
0010
0100
0000
0100
0000
1000
0001
1000
0000
,
0001
0100
0001
0000
1000
0100
1000
0000
0001
0100
0001
0000
1000
0100
1000
0000
,
0001
0010
0001
0000
1000
0000
0010
0100
0000
0100
0001
0000
1000
0100
1000
0000
,
0001
0000
0010
0100
0010
0000
1000
0000
0010
0100
0010
0000
0001
0000
1000
0000
,
0001
0000
0100
0001
0000
1000
0010
0000
1000
0100
1000
0100
0010
0000
0001
0000
,
1000
0010
0100
0001
1000
0000
0001
0010
0100
1000
0001
0000
0100
0000
0010
0000
,
1000
0100
0010
0001
1000
0000
0001
0100
0000
0010
1000
0001
1000
0000
0100
0000
,
1000
0000
0001
0010
0100
1000
0100
0010
0001
0000
1000
0010
0100
0001
0100
0010
,
1000
0001
0010
0000
0001
1000
0010
0000
0100
0001
1000
0100
1000
0001
0100
0001
,
0010
0100
1000
0100
0000
0010
0001
0100
,
0000
0010
0001
0010
1000
0001
0100
0000
,
0010
1000
0001
1000
0000
0100
0001
0100
,
1000
0000
0001
0000
0010
0000
0000
0000
0110
0000
0000
0000
0100
0000
1000
0001
,
1000
0000
0010
0000
0100
0000
0001
0000
0101
0000
0000
0000
0001
0000
1000
0100
,
1000
0010
0100
0010
1000
0001
1001
0000
,
1000
0000
0100
1000
0100
0000
0010
0001
0010
0000
0001
0100
0001
0000
1000
0000
,
0100
1000
0001
0000
0100
0001
1000
0000
0001
0010
0001
0010
0100
1000
0001
1000
,
0020
0000
0000
0000
,
0000
0000
0000
0000
,
0030
0000
0000
0000
;

//--------------- dance-single - forcednature ----------------
#NOTES:
     dance-single:
     forcednature:
     Challenge:
     18:
     0,0,0,0,0:
0000
0000
0000
0000
,
0000
0000
0000
0000
,
0000
0000
0000
0000
,
0000
0000
0000
0000
,
0000
0000
0000
0000
,
0000
1000
0001
0010
0001
0100
0020
0000
,
0000
0000
2030
0000
0000
3002
0000
0000
,
0000
0000
0003
0000
,
0020
0000
0000
0230
0000
1300
0001
0000
,
2002
0000
0000
3003
,
0000
0000
0000
0000
1000
0001
0100
0000
,
0010
1000
0001
0020
0000
0000
0000
0000
,
0030
0000
0000
0000
0100
1000
0010
0000
,
0100
0001
1000
0200
0000
0000
0300
0000
,
0010
0001
1000
0010
0100
0001
0010
0000
,
0110
0000
0100
0000
1000
0000
0001
0010
0001
0000
0000
0001
0100
0000
0010
0000
,
0000
0000
1000
0000
1001
0000
0000
0000
0001
0010
0100
0000
1000
0000
0000
0000
,
1000
0010
0100
0000
0001
0000
1000
0000
0100
0000
0010
0000
0011
0000
0000
0000
,
0001
0000
1000
0000
0010
0000
0000
0010
1000
0000
0100
0000
0010
0000
0001
1000
,
0010
0100
0001
0000
1000
0000
0000
1000
0100
0000
0010
0000
0001
0000
0100
0000
,
0000
0100
0001
0000
1000
0100
0001
0100
,
0010
0000
0001
0000
1000
0000
0010
0000
0100
0001
0000
0000
1000
0100
0010
0001
,
0100
0000
0010
1000
0001
1000
0100
0010
0001
1000
0001
0100
0010
1000
0010
1000
,
0100
0100
0100
0100
0100
0100
0100
0100
,
0100
0000
0100
0000
0100
0000
0100
0000
0010
0001
2000
0000
0000
0000
3000
0000
,
0001
0100
1000
0001
0000
0001
0010
1000
,
0001
0010
0001
0010
0100
0000
1000
0000
0001
0000
0100
0000
0101
0000
0000
0000
,
0100
0100
0100
0100
0100
0100
0100
0100
,
0100
0000
0100
0000
0100
0000
0100
0000
0010
1000
0002
0000
0000
0000
0003
0000
,
1000
0000
0100
0000
0001
0000
1000
0000
0000
0000
1000
0000
0010
0001
0010
0001
,
1000
0010
0100
0001
1000
0000
0100
0000
0010
0000
0001
0100
0010
1000
0010
1000
,
0001
0000
0000
0000
1000
0000
0100
0000
0010
0001
1000
0000
0010
0000
0100
0000
,
0002
0000
1003
0010
0002
0000
1003
0100
,
0001
0001
0010
0100
2000
0000
3001
0010
,
2000
0000
0000
0000
3001
0000
0100
0000
1000
0000
0010
0000
0100
0000
0000
0100
,
0001
0000
0001
0000
1000
0010
0100
0000
0001
0000
1000
0000
0100
0000
0010
0000
,
2000
0000
3001
0100
2000
0000
3010
0100
,
1000
0000
1000
0000
0100
0000
0010
0000
0002
0000
0000
0000
0013
1000
0001
1000
,
0100
0000
0010
0001
1000
0000
0000
0000
0010
0000
0100
0001
1000
0100
1000
0100
,
0010
0001
0100
0000
0010
0000
0100
0001
0010
0000
0100
0000
0010
0001
0100
0000
,
0010
0000
1000
0000
0001
0010
0100
1000
0010
0000
0100
0000
0110
0000
0000
0000
,
1000
0010
0100
0000
0010
0000
1000
0100
0010
0000
0100
0000
1000
0010
0100
0000
,
0001
0000
1000
0000
0100
0010
0100
0000
1000
0000
0001
0000
0100
0001
1000
0010
,
1000
0100
0001
0000
0100
0000
1000
0100
0001
0000
0100
0000
1000
0100
0001
0000
,
0100
0000
0100
0010
0001
0000
1000
0000
0001
0100
0001
0100
0010
0000
1000
0000
,
0001
0100
1000
0000
0100
0000
0001
0100
1000
0000
0100
0000
0001
0100
1000
0000
,
0100
0000
0100
0001
0010
0000
0100
0000
1000
0000
1000
0000
0001
0100
0001
0100
,
0010
0000
1000
0001
0010
0000
0000
0000
0100
1000
0010
1000
0100
1000
0010
1000
,
0002
0000
0000
0000
,
0023
0000
0000
0000
,
0230
0000
0000
0000
,
2300
0000
0000
0000
,
3002
0000
0000
0000
,
0203
0000
0320
0000
,
2030
0000
0000
0000
,
3002
0000
0023
0000
,
0030
0000
0100
0000
1000
0000
0000
0100
0000
0000
0010
0000
0001
0000
0010
0000
,
0000
0000
0001
0000
0100
0000
0000
0001
0000
0000
1000
0000
0010
0000
1000
0000
,
0000
0000
0100
0000
0010
0000
0000
0001
0000
0000
1000
0000
0010
0000
0100
0000
,
0001
0000
0000
0000
1000
0000
0100
0000
1000
0000
0000
0010
0000
0000
0100
0000
,
0001
0000
1000
0000
0100
0000
0010
0000
0001
0000
0000
0100
0000
0000
0010
0000
,
1000
0000
0001
0000
0010
0000
0100
0000
1000
0000
0000
0100
0000
0000
0010
0000
,
0002
0203
0320
0230
0302
0023
0230
2300
,
3020
2030
3200
0320
2030
3020
0032
0203
,
0320
0032
0023
2030
3002
0203
2300
3200
,
0302
2003
3000
0000
0000
0000
0000
0000
,
1000
0100
0010
0001
1000
0000
0001
0100
0000
0001
0010
0000
0100
1000
0001
0000
,
0100
0010
1000
0010
0100
0000
0001
0010
0000
0100
0010
0000
0001
1000
0010
0000
,
0100
0001
1000
0001
0010
0000
0100
1000
0000
0100
0010
0000
0001
1000
0010
0000
,
0100
0001
1000
0100
0010
0000
0100
1000
0000
0001
0100
0000
0010
1000
0001
1000
,
0100
0000
0010
0001
1000
0000
0010
0100
0001
0000
1000
0100
0000
0100
0010
0000
,
0001
0000
0100
0010
0000
0010
1000
0000
0001
0000
0010
0100
0000
1000
0010
0100
,
0001
0000
1000
0100
0010
0000
0001
0100
0010
0000
1000
0001
0000
0001
0010
0000
,
0100
0000
1000
0010
1000
0001
0010
0000
0100
1000
0001
0000
1000
0010
1000
0010
,
0100
0001
1000
0100
0010
0000
0100
1000
0000
0001
0100
0000
0010
1000
0001
0000
,
0010
0100
1000
0100
0010
0000
0001
1000
0000
0001
0100
0000
0010
1000
0001
0000
,
1000
0100
1000
0001
0010
0000
0100
1000
0000
0001
0100
0000
0010
1000
0001
1000
,
0100
0000
0010
0001
0100
0000
0010
1000
0001
0000
1000
0100
0000
1000
0010
0000
,
0100
0000
0001
1000
0000
0001
0010
0100
1000
0000
0010
1000
0000
0001
0100
0001
,
0010
0000
0100
1000
0000
0010
0100
0001
1000
0000
0100
0010
0000
0010
0001
1000
,
0010
0000
0100
0001
0000
1000
0100
1000
0010
0000
0100
0001
0000
0010
0100
1000
,
0100
0000
0010
0001
0000
1000
0010
0100
0001
0000
0001
0000
0100
0001
0100
0001
,
1000
0100
0010
0100
1000
0100
0010
0001
0010
0100
0010
0001
1000
0010
0100
0001
,
0100
0010
1000
0001
0010
0001
1000
0100
0000
0100
0010
0000
0001
1000
0001
0100
,
0010
1000
0010
0100
0001
1000
0100
0000
0010
0001
1000
0010
0100
0010
1000
0100
,
0001
0000
0100
0010
0000
0100
1000
0000
0001
0100
0010
0100
0001
1000
0100
0010
,
1000
0000
0010
0001
0100
0010
0001
0000
0010
1000
0001
1000
0100
0010
0001
0100
,
1000
0000
0100
0001
0010
0100
0001
0000
0100
1000
0010
0100
0001
1000
0001
0010
,
1000
0000
0010
0100
1000
0001
0100
0010
0001
0000
0010
1000
0100
0010
0001
1000
,
0010
0000
0000
0001
0000
0000
0010
0000
0000
1000
0000
0000
0100
0000
0000
0001
0000
0000
0100
0000
0000
1000
0000
0000
0010
0000
0000
0001
0000
0000
0010
0000
0000
1000
0000
0000
0001
0000
1000
0000
0001
0000
1000
0000
0001
0000
1000
0000
,
0010
0100
0001
0100
0000
0010
1000
0001
,
0000
0000
0010
0000
0100
0000
0000
0000
1000
0000
0001
0000
0100
0001
0000
0001
,
1000
0100
0010
0001
0000
1000
0010
0100
,
1000
0000
0100
0000
0001
0000
0000
0001
0010
0000
0100
0000
1000
0001
1000
0000
,
0101
0000
0001
1000
0010
1000
0100
0010
0001
0000
0100
0001
0010
0100
0000
0100
,
1000
0000
0001
0100
0010
1000
0010
0000
0100
0000
0100
0001
1000
0001
0010
0001
,
1000
0100
0001
0100
1000
0010
0001
0010
,
0100
0000
0000
0001
0000
0000
0010
0000
0000
0000
0000
0000
0100
0000
0000
1000
0000
0000
0010
0000
0000
0000
0000
0000
1000
0000
0000
0100
0000
0000
0010
0000
0000
0001
0000
0000
0100
0000
0001
0000
0100
0000
0001
0000
0100
0000
0001
0000
,
2000
0000
0000
0000
,
0000
0000
0000
0000
,
3000
0000
0000
0000
;

//--------------- dance-double - forcednature ----------------
#NOTES:
     dance-double:
     forcednature:
     Easy:
     11:
     0,0,0,0,0:
00000000
00000000
00000000
00000000
,
00000000
00000000
00000000
00000000
,
00000000
00000000
00000000
00000000
,
00000000
00000000
00000000
00000000
,
00000000
00000000
00000000
00000000
,
00000000
00010000
00001000
02000000
,
00000000
00000000
03020000
00000000
00000000
20030000
00000000
00000000
,
00000000
00000000
30000000
00000000
,
02000000
00000000
00000000
03020000
00000000
00000000
00031000
00000000
,
00022000
00000000
00000000
00033000
,
00000000
00000000
00002000
00023000
,
00030200
00002300
00003000
00000000
,
00000000
00000000
00000020
00002030
,
00003200
00000320
00000030
00000000
,
00000002
00000203
00002300
00013000
,
00011000
00000000
00001000
00000000
01000000
00000000
00010000
10000000
,
00000000
10000000
01000000
00000000
00100000
00000000
00010000
00000000
,
01000000
00000000
00001000
00000000
00010000
00000000
00000100
00001000
,
00000000
00001000
00000010
00000000
00000100
00000000
00000001
00000000
,
00001001
00000000
00001000
00000000
00000100
00000000
00010000
00001000
,
00000000
00001000
01000000
00000000
00010000
00000000
10000000
00000000
,
00010000
00000000
00100000
00000000
01000000
00000000
10000000
00100000
,
00000000
00100000
01000000
00000000
00010000
00000000
00100000
00000000
,
00001000
00010000
00001000
00010000
00001000
00010000
00001000
00010000
,
00001000
00010000
00001000
00010000
00000100
00002000
00000000
00003000
,
00000010
00010000
00001000
00100000
,
00010000
01000000
00100000
00000000
,
00010000
00001000
00010000
00001000
00010000
00001000
00010000
00001000
,
00010000
00001000
00010000
00001000
00100000
00020000
00000000
00030000
,
01000000
00100000
10000000
01000000
,
00010000
00001000
00010000
00000000
,
00011000
00002000
00023000
00030200
,
00002300
00003020
00020030
00032000
,
00003020
00000230
00002300
00003002
,
00000203
00000302
00000023
00000230
,
00010300
00002000
02003000
03020000
,
20030000
32000000
03200000
00302000
,
00023000
00230000
02300000
03200000
,
20300000
30020000
20030000
32000000
,
03100000
01000000
00000000
00100000
00010000
00000000
00100000
00001000
,
00000000
00010000
00000010
00001000
,
00000010
00000100
00000000
00000010
00001000
00000000
00000010
00010000
,
00000000
00001000
00100000
00100000
,
01000000
00100000
00000000
01000000
00010000
00000000
01000000
00001000
,
00000000
00010000
00000010
00001000
,
00000100
00000010
00000000
00000100
00001000
00000000
00000100
00010000
,
00000000
00001000
01000000
00010000
,
10000000
01000000
10000000
00000000
00200000
00000000
00000000
00000000
,
02300000
00000000
00000000
00000000
,
03020000
00000000
00000000
00000000
,
00230000
00000000
00000000
00000000
,
00302000
00000000
00000000
00000000
,
00023000
00000000
00000000
00000000
,
00030020
00000000
00000000
00000000
,
00002030
00000000
00000000
00000000
,
00003200
00000000
00000000
00000000
,
00000320
00000000
00000000
00000000
,
00000032
00000000
00000000
00000000
,
00000203
00000000
00000000
00000000
,
00002300
00000000
00000000
00000000
,
00023000
00000000
00000000
00000000
,
00230000
00000000
00000000
00000000
,
20300000
00000000
30020000
00000000
,
20030000
00000000
32000000
00000000
,
03020000
00000000
00032000
00000000
,
00023000
00030000
00000000
00000000
,
00000100
00001000
00000100
00000000
00010000
00000000
00001000
00000000
,
01000000
00010000
01000000
00000000
00001000
00000000
00010000
00000000
,
00000010
00001000
00000010
00000000
00010000
00000000
00001000
00000000
,
00100000
00010000
00100000
00000000
00001000
00000000
00010000
00000000
,
00011000
00000000
01000000
00010000
01000000
00000000
00001000
00010000
,
00001000
00000000
00000000
00000000
01000000
00000000
00010000
00000000
01000000
00000000
00000000
00100000
00000000
00000000
10000000
00000000
,
00100000
00000000
10000000
00010000
10000000
00000000
01000000
00100000
,
01000000
00000000
00010000
00001000
00010000
00000000
00000200
00000000
,
00010300
00001000
00010000
00000000
00000100
00000000
00000010
00000000
,
00001000
00010000
00001000
00000000
01000000
00000000
00100000
00000000
,
00010000
00001000
00010000
00000000
00000010
00000000
00000100
00000000
,
00001000
00010000
00001000
00000000
00100000
00000000
01000000
00000000
,
01100000
00000000
00100000
00010000
00100000
00000000
01000000
10000000
,
01000000
00000000
00100000
00001000
00010000
00000000
00000010
00010000
,
00001000
00000000
00000000
00010000
00000000
00000000
00000100
00000000
00001000
00000000
00000000
00000100
00000000
00000000
00000010
00000000
,
00000001
00000000
00000000
00001000
00000000
00000000
00000001
00000000
00000100
00000000
00000000
00000010
00000000
00000000
00001000
00000000
,
00000010
00010000
00001000
01000000
00001000
00010000
00000010
00010000
,
00001000
00000000
00100000
00000000
00010000
00000000
00100000
00000000
00000000
00100000
00000000
00000000
01000000
00000000
10000000
00000000
,
00010000
00000000
00000000
10000000
00000000
00000000
00100000
00000000
00000000
01000000
00000000
00000000
00010000
00000000
01000000
00000000
,
00001000
00000000
00000000
00010000
00000000
00000000
00000100
00000000
00000000
00001000
00000000
00000000
00000100
00000000
00000000
00000000
,
00000010
00000000
00000000
00001000
00000000
00000000
00010000
00000000
00000000
00001000
00000000
00000000
01000000
00000000
00000000
00000000
,
00100000
00000000
00000000
00010000
00000000
00000000
00001000
00000000
00000000
00010000
00000000
00000000
00000100
00000000
00000000
00000000
,
00000010
00000000
00000000
00000100
00000000
00000000
00010000
00000000
00001000
00000000
00000000
01000000
00000000
00000000
00100000
00000000
,
10000000
00010000
00100000
00010000
01000000
00001000
00010000
00000000
,
00011000
00000000
00001000
00010000
00000000
00000100
00001000
00000000
,
00000010
00010000
00000010
00000000
00000100
00000000
00000001
00000000
,
00001001
00000000
00001000
00000100
00000000
00010000
00001000
00000000
,
01000000
00010000
01000000
00000000
00100000
00000000
01100000
00000000
,
10010000
00000000
10000000
01000000
00100000
00000000
01000000
00010000
,
00000000
00010000
00001000
00000000
00000010
00000100
00000010
00000000
,
00000001
00001000
00000001
00001000
00000010
00010000
00000010
00010000
,
00001000
00100000
00010000
00100000
01000000
10000000
00100000
00000000
,
20020000
00000000
00000000
00000000
,
00000000
00000000
00000000
00000000
,
30030000
00000000
00000000
00000000
;

//--------------- dance-double - forcednature ----------------
#NOTES:
     dance-double:
     forcednature:
     Medium:
     14:
     0,0,0,0,0:
00000000
00000000
00000000
00000000
,
00000000
00000000
00000000
00000000
,
00000000
00000000
00000000
00000000
,
00000000
00000000
00000000
00000000
,
00000000
00000000
00000000
00000000
,
00000000
00001000
00010000
00100000
01000000
00010000
20000000
00000000
,
00000000
00000000
32000000
00000000
00000000
03020000
00000000
00000000
,
00000000
00000000
00030000
00000000
,
00002000
00000000
00000000
00003020
00000000
00000000
00000130
00000000
,
00000220
00000000
00000000
00000330
,
00000000
00000000
00000000
00000000
00000100
00010000
00001000
00000000
,
00100000
00001000
00020000
00000000
00000000
00000000
00000000
00000000
,
00030000
00000000
00000000
00000000
00100000
01000000
00001000
00000000
,
00010000
00000010
00000200
00000000
00000000
00000000
00000300
00000000
,
00001000
00000100
00000001
00000100
00000010
00010000
00001000
00000000
,
00011000
00000000
00001000
00100000
01000000
00000000
00100000
00010000
,
00000000
00010000
10000000
00000000
00100000
01000000
00010000
00000000
,
00100000
01000000
00010000
00000000
00001000
00000000
00000010
00000100
,
00000000
00000100
00001000
00000000
00000001
00000100
00001000
00000000
,
00011000
00000000
00010000
01000000
10000000
00000000
00010000
01000000
,
00000000
01000000
00001000
00000000
00010000
00000100
00000010
00000000
,
00000100
00010000
00001000
00000000
00000100
00000000
00000001
00000010
,
00000000
00000010
00001000
00000000
00010000
00100000
01000000
00000000
,
00010000
00100000
00010000
00100000
01000000
00100000
01000000
00100000
,
10000000
00100000
10000000
00100000
00010000
02000000
00000000
03000000
,
00001000
00010000
00000100
00000010
00000000
00000100
00010000
00001000
,
00000200
00000000
00000310
00001000
00000100
00000010
00000001
00000000
,
00000100
00001000
00000100
00001000
00000100
00000010
00000100
00000010
,
00000100
00000001
00000100
00000001
00000010
00002000
00000000
00003000
,
00010000
01000000
00100000
01000000
00000000
10000000
01000000
00100000
,
00020000
00000000
01030000
00001000
00010000
00001000
00000010
00000000
,
00000110
00000200
00002300
00003002
,
00000203
00002300
00023000
02030000
,
03200000
00302000
00023000
00230000
,
20300000
32000000
03020000
00031000
,
00011000
00020000
00030020
00000230
,
00002300
00023000
00030200
00000320
,
00000032
00000203
00002300
00023000
,
02030000
23000000
30200000
01300000
,
00010000
01010000
00000000
00010000
01010000
00000000
00010000
01010000
,
00000000
00001000
00010000
00000000
00000010
00001000
00000010
00000000
,
00001000
00001100
00000000
00001000
00001100
00000000
00001000
00001100
,
00000000
00010000
00001000
00000000
00100000
00010000
00100000
00000000
,
00010000
01010000
00000000
01000000
01010000
00000000
00010000
01010000
,
00000000
00001000
00010000
00000000
00000010
00001000
00000100
00000000
,
00001000
00001100
00000000
00000100
00001100
00000000
00001000
00001100
,
00000000
00010000
00001000
00000000
00100000
00010000
02000000
00000000
,
03200000
00000000
20300000
00000000
31000000
01000000
01000000
00000000
,
00200000
00000000
00000000
00000000
,
00302000
00000000
00000000
00000000
,
00023000
00000000
00000000
00000000
,
00030020
00000000
00000000
00000000
,
00002030
00000000
00000000
00000000
,
00003200
00000000
00000320
00000000
,
00000032
00000000
00000000
00000000
,
00000203
00000000
00002300
00000000
,
00023000
00000000
00000000
00000000
,
00230000
00000000
00000000
00000000
,
20300000
00000000
00000000
00000000
,
32000000
00000000
03200000
00000000
,
00302000
00000000
00023000
00000000
,
00030020
00000000
00002030
00000000
,
00003200
00000320
00000230
00002300
,
00003002
00000203
00002300
00023000
,
00032000
00023000
00230000
20300000
,
30020000
00030000
00000000
00000000
,
10000000
00000000
01000000
00000000
00100000
00000000
00000000
00010000
00000000
00000000
00100000
00000000
00001000
00000000
00010000
00000000
,
00000010
00000000
00001000
00000000
00000010
00000000
00000000
00000100
00000000
00000000
00000001
00000000
00001000
00000000
00000001
00000000
,
00000010
00000000
00000100
00000000
00001000
00000000
00000000
00000100
00000000
00000000
00010000
00000000
00001000
00000000
01000000
00000000
,
00010000
00000000
01000000
00000000
00100000
00000000
00000000
10000000
00000000
00000000
00010000
00000000
10000000
00000000
01000000
00000000
,
00010000
00000000
00000000
00001000
00000000
00000000
00100000
00000000
00001000
00000000
00000000
00010000
00000000
00000000
00000010
00000000
,
00010000
00000000
00000000
00001000
00000000
00000000
01000000
00000000
00001000
00000000
00000000
00010000
00000000
00000000
00000100
00000000
,
00000010
00000000
00000000
00000100
00000000
00000000
00010000
00000000
00001000
00000000
00000000
01000000
00000000
00000000
00100000
00000000
,
00010000
00000000
00000000
00001000
00000000
00000000
00100000
00000000
01000000
00000000
10000000
00000000
00010000
00000000
00000000
00000000
,
01000000
00000000
00001000
00000000
00010000
00000000
00000000
00000100
00000000
00000000
00001000
00000000
00000010
00000000
00010000
00000000
,
00001000
00000000
00000010
00000000
00000100
00000000
00000000
00000010
00000000
00000000
00000001
00000000
00001000
00000000
00000001
00000000
,
00000100
00000000
00000010
00000000
00000100
00000000
00000000
00001000
00000000
00000000
00010000
00000000
00100000
00000000
01000000
00000000
,
00100000
00000000
00000000
00000000
10000000
00000000
00010000
00000000
10000000
00000000
00000000
01000000
00000000
00000000
00100000
00000000
,
01000000
00000000
00000000
00010000
00000000
00000000
00001000
00000000
00000100
00000000
00000000
00001000
00000000
00000000
00010000
00000000
,
00100000
00000000
00000000
00010000
00000000
00000000
00001000
00000000
00000010
00000000
00000000
00001000
00000000
00000000
00010000
00000000
,
01000000
00000000
00000000
00100000
00000000
00000000
00010000
00000000
01000000
00000000
00000000
00100000
00000000
00000000
00010000
00000000
,
00001000
00000000
00000000
00000010
00000000
00000000
00000100
00000000
00001000
00000000
00000000
00000010
00000000
00000000
00000100
00000000
,
00001000
00010000
00100000
00010000
00001000
00010000
01000000
00010000
,
00001000
00000000
00010000
00000000
00100000
00000000
01000000
00000000
00000000
00010000
00000000
00000000
10000000
00000000
00010000
00000000
,
00100000
00000000
01000000
00000000
00100000
00000000
00001000
00000000
00000000
00010000
00000000
00000000
00000010
00000000
00001000
00000000
,
00000100
00000000
00000000
00000001
00000000
00000000
00000100
00000000
00000000
00001000
00000000
00000000
00000010
00000000
00010000
00000000
,
00001000
01000000
00000000
00001000
01000000
00000000
00001000
01000000
00000000
00000000
00010000
00000000
00100000
00000000
00001000
00000000
,
00010000
00000100
00000000
00010000
00000100
00000000
00010000
00000100
00000000
00000000
00001000
00000000
00000010
00000000
00010000
00000000
,
00001000
00000000
01000000
00010000
00000000
00100000
00001000
00000000
00010000
00000000
00000100
00001000
00000000
00000010
00010000
00000000
,
00001000
00000000
01000000
00000000
00010000
00000000
01000000
00000000
10000000
00000000
01000000
00000000
00100000
01000000
00100000
00000000
,
20000000
00000000
30010000
00000000
10000000
00000000
01000000
00100000
,
00000000
00100000
00010000
00000000
01000000
00001000
01000000
00001000
,
00020000
00000000
00030010
00000000
00001000
00000000
00000100
00000010
,
00000000
00000010
00000001
00000000
00000100
00000000
00001000
00000000
,
00011000
00000000
01000000
00010000
00100000
00000000
01000000
10000000
,
00000000
10000000
01000000
00000000
00010000
00001000
00010000
00000000
,
00000100
00001000
00000010
00010000
00001000
00100000
00010000
01000000
,
00001000
00000000
00010000
00000000
00000100
00000000
00001000
00000000
00000010
00000000
00000100
00000000
00000001
00001000
00000001
00001000
,
00000200
00000000
00000000
00000000
,
00000000
00000000
00000000
00000000
,
00000300
00000000
00000000
00000000
;

//--------------- dance-double - forcednature ----------------
#NOTES:
     dance-double:
     forcednature:
     Hard:
     17:
     0,0,0,0,0:
00000000
00000000
00000000
00000000
,
00000000
00000000
00000000
00000000
,
00000000
00000000
00000000
00000000
,
00000000
00000000
00000000
00000000
,
00000000
00000000
00000000
00000000
,
00000000
00001000
00010000
00100000
01000000
00010000
20000000
00000000
,
00000000
00000000
32000000
00000000
00000000
03020000
00000000
00000000
,
00000000
00000000
00030000
00000000
,
00002000
00000000
00000000
00003020
00000000
00000100
00000130
00000000
,
00002002
00000000
00000000
00003003
,
00000000
00000000
00000000
00000000
00000001
00000100
00001000
00000000
,
00010000
00001000
00000100
00000002
00000000
00000000
00000000
00000000
,
00000003
00000000
00000000
00000000
00000010
00001000
00010000
00000000
,
01000000
00010000
00001000
00000020
00000000
00000000
00000030
00000000
,
00000100
00001000
00000100
00010000
00001000
01000000
00100000
00000000
,
01100000
00000000
01000000
00010000
10000000
00000000
01000000
00010000
,
00000000
00010000
00001000
00000000
00000010
00000100
00001000
00000000
,
00000001
00000100
00000001
00000010
00001000
00000000
00010000
00100000
,
00000000
00100000
01000000
00000000
00010000
10000000
01000000
00000000
,
01100000
00000000
00100000
00001000
00010000
00000000
00000010
00001000
,
00000000
00001000
00000100
00000000
00000010
00001000
00010000
00000000
,
00100000
01000000
00010000
10000000
01000000
00000000
00010000
00001000
,
00001000
00010000
00000100
00001000
00000001
00000100
00000020
00000000
,
00000130
00001000
00010000
00001000
00100000
00001000
00010000
00001000
,
00000100
00000000
00001000
00000000
00010000
00000000
00001000
00000000
00100000
00010000
00200000
00000000
00000000
00000000
00300000
00000000
,
01000000
10000000
00010000
01000000
00000000
00100000
10000000
00010000
,
10000000
10000000
01000000
00000000
00010000
00001000
00100000
00000000
,
01000000
00010000
00001000
00010000
00000010
00010000
00001000
00010000
,
01000000
00000000
00010000
00000000
00001000
00000000
00010000
00000000
00000010
00001000
00000020
00000000
00000000
00000000
00000030
00000000
,
00000100
00000001
00001000
00000100
00000000
00000010
00000001
00001000
,
00000001
00000001
00000100
00000000
00001000
00001000
00010000
00000000
,
00011000
00020000
00230000
02300000
,
03002000
00023000
00230000
02300000
,
03020000
00032000
00003200
00000320
,
00020030
00000000
00032000
00000000
00003010
00000010
00000001
00000000
,
00001001
00002000
00003020
00000230
,
00020300
02030000
03002000
00203000
,
02300000
23000000
30200000
20300000
,
32000000
00000000
03020000
00000000
00031000
00001000
00000010
00000000
,
00000100
00001000
00000100
00000000
00000000
00000000
00000010
00000001
00000010
00000000
00000000
00000000
00000100
00001000
00000100
00000000
,
00000000
00010000
00001000
01000000
00100000
10000000
00010000
00000000
,
01000000
00010000
01000000
00000000
00000000
00000000
00100000
10000000
00100000
00000000
00000000
00000000
01000000
00010000
01000000
00000000
,
00000000
00100000
10000000
01000000
00010000
00001000
00100000
00000000
,
00001000
01000000
00001000
00000000
00000000
00000000
00010000
00000010
00010000
00000000
00000000
00000000
00001000
01000000
00001000
00000000
,
00000000
00010000
00000100
00001000
00000001
00000100
00001000
00000000
,
00010000
00000100
00010000
00000000
00000000
00000000
00001000
00100000
00001000
00000000
00000000
00000000
00010000
00000100
00010000
00000000
,
00000000
00000000
00001000
00000000
00000100
00000000
00000001
00000000
00000010
00000000
00000100
00000000
00001000
00000001
00001000
00000001
,
00000100
00000000
00000100
00000000
00001000
00000000
00000000
00000000
00010000
00001000
00010000
00001000
01000000
00010000
01000000
00010000
,
20000000
00000000
00000000
00000000
,
30200000
00000000
00000000
00000000
,
02300000
00000000
00000000
00000000
,
03002000
00000000
00000000
00000000
,
00023000
00000000
00000000
00000000
,
00030200
00000000
00002300
00000000
,
00003020
00000000
00000000
00000000
,
00000230
00000000
00000000
00000000
,
00000302
00000000
00000000
00000000
,
00000023
00000000
00000000
00000000
,
00000230
00000000
00000000
00000000
,
00020300
00000000
00032000
00000000
,
02003000
00000000
00000000
00000000
,
03020000
00000000
20030000
00000000
,
32000000
03020000
00032000
00023000
,
00030200
00002300
00003020
00020030
,
00032000
00003020
00000032
00000023
,
00000230
00000300
00000000
00000000
,
00010000
00001000
00010000
00000000
00000010
00000000
00001000
00000100
00000000
00000100
00010000
00000000
00001000
00000000
01000000
00000000
,
00010000
10000000
00010000
00000000
00100000
00000000
01000000
10000000
00000000
10000000
00010000
00000000
01000000
00000000
00001000
00000000
,
00010000
00000100
00010000
00000000
00001000
00000000
00000010
00000100
00000000
00000100
00001000
00000000
00000001
00000000
00000100
00000000
,
00000010
00001000
00000010
00000000
00000100
00000000
00001000
00010000
00000000
00010000
00001000
00000000
01000000
00000000
00010000
00000000
,
00100000
00000000
00000000
00100000
01000000
00000000
10000000
00000000
00010000
00000000
01000000
00001000
00000000
00001000
00010000
00000000
,
00000100
00000000
00001000
00000010
00000000
00000010
00000100
00000000
00000002
00000000
00000000
00000023
00000000
00000000
00000100
00000000
,
00001030
00000000
00000000
00000010
00000100
00000000
00001000
00000000
00000010
00000000
00010000
00001000
00000000
00001000
00100000
00000000
,
00010000
00000000
01000000
00010000
00000000
00010000
10000000
00000000
01000000
00000000
00100000
00000000
00001000
00010000
00001000
00010000
,
00000010
00001000
00000010
00000000
00000100
00000000
00000001
00000010
00000000
00000010
00000100
00000000
00010000
00000000
00001000
00000000
,
01000000
00010000
01000000
00000000
00100000
00000000
10000000
00010000
00000000
00010000
00100000
00000000
01000000
00000000
00010000
00000000
,
00001000
00010000
00001000
00000000
00000100
00000000
00000010
00001000
00000000
00001000
00000100
00000000
00000010
00000000
00000001
00000000
,
00000100
00000000
00001000
00000000
00010000
00000000
00001000
00000000
01000000
00000000
00010000
00100000
01000000
10000000
01000000
10000000
,
00010000
00000000
01000000
00001000
00000000
00001000
00010000
00000000
00000100
00000000
00001000
00000010
00000000
00000010
00000100
00000000
,
00000001
00000000
00000010
00000100
00000000
00000100
00010000
00000000
00001000
00000000
01000000
00010000
00000000
00010000
00100000
00000000
,
01000000
00000000
10000000
00100000
00000000
01000000
00100000
00000000
00010000
00000000
00001000
00100000
00000000
00010000
00100000
00000000
,
01000000
00000000
00010000
00001000
00100000
00010000
00100000
00010000
01000000
00000000
01000000
00000000
00001000
00010000
00001000
00000000
,
00000010
00000000
00000100
00001000
00000010
00000000
00000100
00000001
00000010
00000000
00000100
00010000
00001000
00000000
00100000
00001000
,
00010000
00000000
00100000
00000000
10000000
00000000
00010000
10000000
00000000
10000000
01000000
00000000
00100000
00010000
00100000
00000000
,
01000000
00000000
00010000
00001000
00010000
00000000
01000000
00000000
00010000
00001000
00010000
00000000
00000010
00000000
00001000
00000000
,
00000100
00000000
00000010
00000001
00000000
00000001
00000100
00000000
00001000
00010000
00001000
00010000
00100000
00000000
01000000
00000000
,
00010000
00100000
00001000
00010000
00000100
00000000
00001000
00000010
00010000
00001000
01000000
00000000
00010000
00000000
00100000
00000000
,
00001000
00010000
00000100
00001000
00000010
00000000
00010000
00001000
00000000
01000000
00010000
10000000
00010000
00000000
00100000
00000000
,
01000000
00000000
10000000
01000000
00100000
00010000
00100000
00001000
00010000
00000000
00000010
00001000
00000010
00000100
00000001
00001000
,
00000001
00000010
00000001
00000000
00001000
00000010
00001000
00000000
00000100
00010000
00001000
00100000
00001000
00010000
00000010
00010000
,
00001000
01000000
00010000
01000000
00000000
00100000
10000000
00010000
,
00000000
00100000
01000000
00010000
00001000
00000010
00000100
00000000
,
00001000
00000001
00000100
00000001
00000000
00000010
00000100
00001000
,
00000010
00000000
00000100
00000000
00001000
00000000
00000000
00000000
00011000
00000000
00000000
00000000
01000000
00000000
00010000
10000000
,
00010000
00000000
00100000
00000000
01000000
00000000
10000000
00000000
11000000
00000000
00000000
00000000
00010000
00000000
10000000
00100000
,
10000000
01000000
00010000
00001000
00000010
00000100
00000110
00000000
,
00000100
00000000
00001000
00000100
00001000
00000000
00000100
00010000
00000100
00000000
00010000
00001000
00010000
00000000
00001000
00000000
,
01000000
00010000
10000000
00000000
00100000
10000000
00010000
00000000
10000000
01000000
10000000
01000000
00100000
00010000
00100000
00001000
,
00020000
00000000
00000000
00000000
,
00000000
00000000
00000000
00000000
,
00030000
00000000
00000000
00000000
;

//--------------- dance-double - forcednature ----------------
#NOTES:
     dance-double:
     forcednature:
     Challenge:
     18:
     0,0,0,0,0:
00000000
00000000
00000000
00000000
,
00000000
00000000
00000000
00000000
,
00000000
00000000
00000000
00000000
,
00000000
00000000
00000000
00000000
,
00000000
00000000
00000000
00000000
,
00000000
00010000
00001000
00000010
00000100
00001000
00000020
00000000
,
00000000
00000000
00000230
00000000
00000000
00000302
00000000
00000000
,
00000000
00000000
00000003
00000000
,
00000020
00000000
00000000
00002030
00000000
00013000
00001000
00000000
,
00022000
00000000
00000000
00033000
,
00000000
00000000
00000000
00000000
01000000
00010000
00100000
00000000
,
00001000
00010000
00000010
00002000
00000000
00000000
00000000
00000000
,
00003000
00000000
00000000
00000000
00000100
00000010
00000001
00000000
,
00000100
00001000
00010000
00002000
00000000
00000000
00003000
00000000
,
01000000
00010000
00100000
01000000
10000000
00100000
00010000
00000000
,
00011000
00000000
00001000
00000000
01000000
00000000
00010000
00100000
00010000
00000000
00000000
00010000
10000000
00000000
01000000
00000000
,
00000000
00000000
00010000
00000000
00011000
00000000
00000000
00000000
00001000
00010000
00000100
00000000
00001000
00000000
00000000
00000000
,
00000010
00001000
00000001
00000000
00000010
00000000
00000100
00000000
00010000
00000000
00001000
00000000
00011000
00000000
00000000
00000000
,
00001000
00000000
01000000
00000000
00010000
00000000
00000000
00010000
10000000
00000000
01000000
00000000
00100000
00000000
00010000
00100000
,
00001000
00010000
00001000
00000000
00000100
00000000
00000000
00000100
00000001
00000000
00000010
00000000
00000100
00000000
00001000
00000000
,
00000000
00001000
00000010
00000000
00000100
00001000
00010000
01000000
,
00100000
00000000
00010000
00000000
00001000
00000000
00100000
00000000
01000000
00010000
00000000
00000000
10000000
01000000
00100000
00010000
,
01000000
00000000
00010000
01000000
00001000
00010000
00000100
00001000
00000100
00000010
00000001
00001000
00000001
00000100
00000001
00000100
,
00000010
00000010
00000010
00000010
00000010
00000010
00000010
00000010
,
00000010
00000000
00000010
00000000
00000010
00000000
00000010
00000000
00001000
00000100
00020000
00000000
00000000
00000000
00030000
00000000
,
00001000
01000000
00010000
00100000
00000000
00100000
00010000
01000000
,
00001000
00010000
00001000
00010000
00100000
00000000
10000000
00000000
01000000
00000000
00010000
00000000
00011000
00000000
00000000
00000000
,
00100000
00100000
00100000
00100000
00100000
00100000
00100000
00100000
,
00100000
00000000
00100000
00000000
00100000
00000000
00100000
00000000
01000000
10000000
00020000
00000000
00000000
00000000
00030000
00000000
,
01000000
00000000
00001000
00000000
00010000
00000000
01000000
00000000
00000000
00000000
01000000
00000000
00100000
00010000
00100000
00010000
,
01000000
00001000
00010000
00000100
00001000
00000000
00000100
00000000
00000010
00000000
00000001
00001000
00000010
00000100
00000010
00000100
,
00000001
00000000
00000000
00000000
00000010
00000000
00000100
00000000
00001000
00000100
00010000
00000000
00001000
00000000
01000000
00000000
,
00020000
00000000
10030000
00100000
00020000
00000000
00031000
00100000
,
00010000
00010000
00001000
00000100
00020000
00000000
00030010
00001000
,
00020000
00000000
00000000
00000000
01030000
00000000
00010000
00000000
00100000
00000000
01000000
00000000
00010000
00000000
00000000
00010000
,
00001000
00000000
00000010
00000000
00000100
00001000
00000001
00000000
00000100
00000000
00001000
00000000
00010000
00000000
00100000
00000000
,
02000000
00000000
03001000
00010000
02000000
00000000
13000000
00100000
,
01000000
00000000
10000000
00000000
01000000
00000000
00001000
00000000
00020000
00000000
00000000
00000000
00030100
00010000
00001000
00010000
,
00000010
00000000
00001000
00000001
00000010
00000000
00000000
00000000
00000100
00000000
00001000
00000100
00010000
00001000
00010000
00001000
,
01000000
00010000
00100000
00000000
01000000
00000000
00100000
00010000
01000000
00000000
00100000
00000000
01000000
00010000
00100000
00000000
,
01000000
00000000
00010000
00000000
00001000
00010000
00000100
00001000
00000100
00000000
00000010
00000000
00000110
00000000
00000000
00000000
,
00000100
00001000
00000010
00000000
00000100
00000000
00000010
00001000
00000100
00000000
00000010
00000000
00000100
00001000
00000010
00000000
,
00000100
00000000
00001000
00000000
00010000
00001000
00010000
00000000
00100000
00000000
01000000
00000000
00010000
10000000
00010000
00100000
,
01000000
00010000
00001000
00000000
00010000
00000000
01000000
00010000
00001000
00000000
00010000
00000000
01000000
00010000
00001000
00000000
,
00000010
00000000
00000010
00000100
00001000
00000000
00000001
00000000
00000100
00000001
00000100
00000001
00001000
00000000
00000010
00000000
,
00000100
00001000
00010000
00000000
00001000
00000000
00000100
00001000
00010000
00000000
00001000
00000000
00000100
00001000
00010000
00000000
,
00001000
00000000
00001000
01000000
00010000
00000000
00100000
00000000
01000000
00000000
01000000
00000000
10000000
00010000
10000000
00010000
,
01000000
00000000
00001000
00010000
00000100
00000000
00000000
00000000
00000010
00000001
00000100
00000001
00000010
00000001
00000100
00000001
,
00000020
00000000
00000000
00000000
,
00002030
00000000
00000000
00000000
,
00023000
00000000
00000000
00000000
,
00230000
00000000
00000000
00000000
,
20300000
00000000
00000000
00000000
,
32000000
00000000
03020000
00000000
,
00032000
00000000
00000000
00000000
,
00003200
00000000
00000302
00000000
,
00000003
00000000
00000010
00000000
00000100
00000000
00000000
00010000
00000000
00000000
00001000
00000000
01000000
00000000
00100000
00000000
,
00000000
00000000
00100000
00000000
01000000
00000000
00000000
00001000
00000000
00000000
00010000
00000000
00000100
00000000
00000010
00000000
,
00000000
00000000
00000010
00000000
00000100
00000000
00000000
00010000
00000000
00000000
00001000
00000000
01000000
00000000
00100000
00000000
,
10000000
00000000
00000000
00000000
01000000
00000000
00010000
00000000
00001000
00000000
00000000
00100000
00000000
00000000
00010000
00000000
,
01000000
00000000
00100000
00000000
00010000
00000000
00001000
00000000
00000100
00000000
00000000
00000010
00000000
00000000
00000100
00000000
,
00001000
00000000
00010000
00000000
01000000
00000000
00100000
00000000
01000000
00000000
00000000
00010000
00000000
00000000
00001000
00000000
,
00000200
00000302
00000023
00000230
00000302
00000203
00002300
00003020
,
00000230
00002300
00023000
00230000
02300000
03200000
00320000
00032000
,
00003020
00000230
00000320
00002030
00023000
02030000
03200000
00320000
,
20030000
30200000
00300000
00000000
00000000
00000000
00000000
00000000
,
01000000
00010000
01000000
00001000
00010000
00000000
00000100
00001000
00000000
00000100
00000010
00000000
00000001
00001000
00000010
00000000
,
00000100
00000001
00001000
00000010
00000100
00000000
00001000
00010000
00000000
00001000
01000000
00000000
00010000
10000000
00100000
00000000
,
10000000
01000000
10000000
00010000
00100000
00000000
01000000
10000000
00000000
01000000
00010000
00000000
00001000
00100000
00010000
00000000
,
01000000
00001000
00010000
00000010
00010000
00000000
00001000
00000010
00000000
00000100
00000010
00000000
00000001
00001000
00000001
00000100
,
00000010
00000000
00000100
00001000
00010000
00000000
00001000
01000000
00010000
00000000
10000000
00100000
00000000
00100000
01000000
00000000
,
00010000
00000000
00100000
00001000
00000000
00001000
00010000
00000000
00000010
00000000
00001000
00000100
00000000
00000010
00000001
00001000
,
00000010
00000000
00000100
00000001
00001000
00000000
00000100
00010000
00001000
00000000
00100000
00001000
00000000
00001000
00010000
00000000
,
00100000
00000000
01000000
00010000
10000000
00010000
00100000
00000000
01000000
10000000
00010000
00000000
10000000
00100000
10000000
00100000
,
01000000
00001000
00010000
00001000
00100000
00000000
00010000
01000000
00000000
00001000
00010000
00000000
00000100
00001000
00000010
00000000
,
00000100
00000001
00001000
00000001
00000010
00000000
00000100
00001000
00000000
00000100
00010000
00000000
00001000
00100000
00010000
00000000
,
01000000
00001000
01000000
00010000
10000000
00000000
01000000
10000000
00000000
00010000
00100000
00000000
00001000
00010000
00000010
00001000
,
00000010
00000000
00000100
00000001
00001000
00000000
00000100
00010000
00001000
00000000
00100000
00010000
00000000
01000000
00010000
00000000
,
00100000
00000000
01000000
00010000
00000000
00001000
00010000
00000010
00001000
00000000
00000100
00010000
00000000
00001000
00100000
00010000
,
01000000
00000000
00001000
00010000
00000000
00000100
00001000
00000010
00010000
00000000
00001000
00000010
00000000
00000010
00000100
00001000
,
00000001
00000000
00000100
00000001
00000000
00001000
00000010
00010000
00001000
00000000
00100000
00010000
00000000
00100000
01000000
10000000
,
01000000
00000000
00010000
00001000
00000000
01000000
00010000
00100000
00001000
00000000
00001000
00000000
00010000
00000010
00010000
00000010
,
00001000
00000100
00010000
00001000
00100000
00010000
01000000
00001000
00010000
00000100
00001000
00000010
00010000
00001000
00100000
00010000
,
01000000
00010000
00100000
01000000
10000000
01000000
00100000
00010000
00000000
00010000
01000000
00000000
00001000
00010000
00000100
00001000
,
00000100
00000010
00000001
00001000
00000001
00000100
00000010
00000000
00001000
00000100
00010000
00001000
00010000
00000010
00001000
00000100
,
00000001
00000000
00000100
00000010
00000000
00000100
00001000
00000000
00000010
00010000
00001000
00100000
00010000
00100000
01000000
00100000
,
10000000
00000000
00100000
00010000
01000000
00100000
00010000
00000000
00100000
01000000
00010000
01000000
00001000
00010000
00000010
00001000
,
00000100
00000000
00000010
00000100
00000001
00000100
00001000
00000000
00000010
00010000
00001000
00100000
00001000
01000000
00001000
00010000
,
01000000
00000000
00010000
00001000
00100000
00001000
00010000
00000100
00000010
00000000
00000100
00001000
00000010
00001000
00000100
00010000
,
00001000
00000100
00001000
00010000
00100000
00010000
00001000
00010000
01000000
10000000
00010000
10000000
00100000
01000000
00100000
00010000
,
00001000
00000010
00000100
00000010
00000000
00000001
00000100
00001000
,
00000000
00000000
00010000
00000000
00100000
00000000
00000000
00000000
01000000
00000000
00010000
00000000
10000000
01000000
00000000
01000000
,
00100000
00010000
00100000
00001000
00000000
00010000
00000010
00000100
,
00001000
00000000
00000100
00000000
00000001
00000000
00000000
00000001
00000010
00000000
00000100
00000000
00010000
00001000
00010000
00000000
,
00011000
00000000
00000000
00001000
01000000
00010000
01000000
00100000
10000000
00000000
01000000
00100000
00010000
00100000
00001000
00000000
,
00010000
00000000
00000010
00001000
00000010
00000100
00000001
00000000
00000010
00000000
00000010
00000000
00000100
00001000
00000100
00010000
,
00001000
01000000
00010000
00100000
00001000
00010000
00000010
00001000
,
00000100
00010000
00001000
00000000
01000000
00001000
00010000
00000000
00100000
01000000
00100000
10000000
00010000
10000000
01000000
00010000
,
00002000
00000000
00000000
00000000
,
00000000
00000000
00000000
00000000
,
00003000
00000000
00000000
00000000
;
