#VERSION:0.83;
#TITLE:The Black Cat Nero [MODS-];
#SUBTITLE:;
#ARTIST:ATEEZ;
#TITLETRANSLIT:;
#SUBTITLETRANSLIT:;
#ARTISTTRANSLIT:;
#GENRE:;
#CREDIT:RatherBOO;
#MUSIC:BlackCatNero.ogg;
#BANNER:BlackCatNero-bn.png;
#BACKGROUND:BlackCatNero-bg.png;
#CDTITLE:;
#SAMPLESTART:78.198;
#SAMPLELENGTH:14.676;
#SELECTABLE:YES;
#OFFSET:-0.474;
#BPMS:0.000=77.000
,37.000=131.000
;
#STOPS:;
#SPEEDS:0.000=1.000=0.000=0,
34.000=0.500=4.000=0,
39.000=1.000=8.000=0,
47.000=1.000=0.000=0,
175.000=0.700=4.000=0,
179.000=0.700=0.000=0,
243.000=1.000=8.000=0,
251.000=1.000=0.000=0
;
#SCROLLS:0.000=1.000,
37.000=0.500,
39.000=1.000
;
#ATTACKS:TIME=108.885:LEN=0.229:MODS=100% Beat :TIME=109.802:LEN=0.229:MODS=25% Beat :TIME=110.718:LEN=0.229:MODS=25% Beat :TIME=111.634:LEN=0.229:MODS=25% Beat :TIME=112.550:LEN=0.229:MODS=25% Beat :TIME=113.466:LEN=0.229:MODS=25% Beat :TIME=114.382:LEN=0.229:MODS=25% Beat :TIME=115.298:LEN=0.229:MODS=25% Beat :TIME=116.214:LEN=0.229:MODS=25% Beat :TIME=117.130:LEN=0.229:MODS=25% Beat :TIME=118.046:LEN=0.229:MODS=25% Beat :TIME=118.962:LEN=0.229:MODS=25% Beat :TIME=119.878:LEN=0.229:MODS=25% Beat :TIME=120.794:LEN=0.229:MODS=25% Beat :TIME=121.710:LEN=0.229:MODS=25% Beat :TIME=122.626:LEN=0.229:MODS=25% Beat
;
#JACKET:BlackCat-jacket.png;
#BGCHANGES:3.500=BlackCatNero.avi=1.000=1=0=0=StretchNoLoop==CrossFade==;
#FGCHANGES:;

//--------------- dance-single - RatherBOO ----------------
#NOTEDATA:;
#STEPSTYPE:dance-single;
#DESCRIPTION:RatherBOO;
#DIFFICULTY:Beginner;
#METER:2;
#RADARVALUES:0,0,0,0,0;
#NOTES:
0000
0000
0000
0000
,
0000
0000
0000
0000
,
0000
0001
0000
0000
,
0000
1000
0000
0000
,
0000
0010
0000
0000
,
0000
0100
0000
0001
,
0000
1000
0000
0001
,
0000
1000
0000
0001
,
0100
0001
0000
1000
,
0100
2000
0000
0000
,
0000
0000
0000
0000
000M
0000
00M0
0000
0000
000M
0000
0000
,
00M0
3000
0000
0001
,
0000
0000
0000
0010
,
0000
0000
0000
0100
,
0000
0000
0000
1000
,
0000
0000
0000
0001
,
0000
0100
0000
0001
,
0000
1000
0000
0001
,
0000
1000
0000
0001
,
0000
0010
0000
0001
,
0000
0000
0000
1000
,
0000
0000
0000
0010
,
0000
0000
0000
0100
,
0000
0010
0000
0100
,
0001
0100
0000
0001
,
1000
0001
0000
1000
,
0100
1000
0000
0001
,
0000
0000
0000
1000
,
1000
0001
0000
0100
,
0100
0010
0000
1000
,
1000
0001
0000
0010
,
0010
0001
0000
1000
,
1000
0001
0000
0100
,
0010
0100
0000
0001
,
0001
1000
0000
0001
,
0100
0001
0000
0000
,
1000
1000
0001
1000
,
0000
0010
0000
1000
,
0000
0001
0001
0010
,
0000
0001
1000
0010
,
0000
0100
0100
0001
,
0000
1000
0000
0001
,
0000
1000
1000
0010
,
0000
0100
0010
0100
,
0000
0001
0000
2000
,
0000
3000
0000
0002
,
0000
0003
0000
0020
,
0000
0030
0000
0200
,
0000
0300
0000
2000
,
0000
3000
0000
0002
,
0000
0003
0000
0200
,
0000
0300
0000
0010
,
0000
0000
0000
1000
,
0000
0001
0000
0100
,
0000
0010
1000
0010
,
0000
1000
0001
1000
,
0000
0100
0000
0010
,
0000
0100
0000
0010
,
0000
0001
1000
0001
,
0000
1000
0000
0100
,
0000
0010
0000
0001
,
0000
1000
0000
0200
,
0300
0000
0000
1000
,
0000
0010
0000
0100
,
0000
0001
1000
0001
,
0000
0010
0000
0001
,
0000
1000
0000
0001
,
0000
0010
0000
0001
,
0000
1000
0010
1000
,
0000
0010
0000
0100
,
0000
0001
0100
0001
,
0000
0000
0000
0000
1000
0000
0000
0000
0000
0000
0000
0000
0000
0000
0000
0MM0
,
0M00
0000
0000
0000
;

//--------------- dance-single - RatherBOO ----------------
#NOTEDATA:;
#STEPSTYPE:dance-single;
#DESCRIPTION:RatherBOO;
#DIFFICULTY:Easy;
#METER:5;
#RADARVALUES:0,0,0,0,0;
#NOTES:
0000
0000
0000
0000
,
0000
0000
0000
0000
,
M000
0001
0100
0100
,
M000
0001
1000
0001
,
00M0
1000
0100
0100
,
00M0
1000
0001
1000
,
0100
0010
0001
1000
,
0001
0001
00M0
1000
,
0010
0100
0001
1000
,
0001
2002
0000
0000
,
0000
0000
0000
0000
0M00
0000
00M0
0000
0000
0M00
0000
0000
,
00M0
3003
0000
0001
,
0000
0100
0000
0000
0000
0000
0010
0000
,
0000
0100
0000
0000
0000
0000
0001
0000
,
0000
1000
0000
0000
0000
0000
0100
0000
,
0000
1000
0000
0000
0000
0000
0001
0000
,
1000
0100
1000
0000
0001
0000
0100
0000
,
0010
1000
0010
0000
1000
0000
0001
0000
,
0010
0001
0010
0000
0001
0000
1000
0000
,
0100
1000
0100
0000
1000
0000
0001
0000
,
0000
0100
0000
0010
,
0000
0100
0000
0001
,
0000
1000
0000
0100
,
1000
0100
1000
0001
,
0100
0000
0001
0100
0100
0000
0001
0000
,
1000
0000
0001
1000
1000
0000
0001
0000
,
0010
0001
0000
1001
,
0000
0000
0000
0000
0000
0000
1000
0001
,
1000
0000
0001
0000
1000
0000
0001
0100
,
0001
0000
0100
0000
0010
0000
1000
0001
,
1000
0000
0001
0000
0010
0000
0001
0010
,
0001
0000
1000
0000
0001
0000
1000
0001
,
1000
0001
0100
0010
,
0100
0000
0010
1000
0010
0000
1000
0000
,
0001
0000
1000
0100
1000
0000
0001
0000
,
0010
0011
0000
0000
,
1000
0010
1000
0001
,
1001
1000
1100
0001
,
0101
0000
1000
0010
1000
0000
0001
0000
,
0100
0000
0001
1000
0001
0000
0100
0000
,
0000
0001
1000
0001
,
0101
1000
1001
1000
,
1100
0000
0001
0010
0001
0000
1000
0000
,
0001
0000
1000
0100
1000
0100
1000
0000
,
0001
0100
0010
2000
,
0000
0000
3000
0002
,
0000
0000
0003
0200
,
0000
0000
0300
0020
,
0000
0000
0030
2000
,
0000
0000
3000
0002
,
0000
0000
0000
0000
0000
0000
0000
0000
0000
0003
0000
0000
0020
0000
0000
0000
,
0000
0000
0030
0100
,
0000
0010
0100
0010
,
0010
0001
0001
1000
,
1000
0001
1000
0000
0010
0000
0100
0000
,
0100
0001
1000
0001
,
0000
0010
0001
1000
,
1000
0010
0010
0100
,
0100
0001
1000
0000
0001
0000
2000
3000
,
0000
0001
0001
0010
,
0100
0010
0000
1001
,
0000
0110
0000
2001
,
0000
3000
0000
1001
,
1000
0100
1000
0000
0001
0100
0001
0000
,
1000
0001
1000
0001
1000
0000
0010
0000
,
1000
0000
0001
0010
0001
0010
0001
0000
,
0000
1000
0001
1001
,
0001
0100
0001
0000
1000
0100
1000
0000
,
0100
0010
0100
0010
0100
0000
1000
0000
,
0001
0000
0100
0001
0100
0001
0100
0000
,
0000
0001
0010
0100
,
1000
0000
0000
0000
0001
0000
0000
0000
0000
0000
0000
0000
0000
0000
0000
0MM0
,
00M0
0000
0000
0000
;

//--------------- dance-single - XO ----------------
#NOTEDATA:;
#STEPSTYPE:dance-single;
#DESCRIPTION:XO;
#DIFFICULTY:Medium;
#METER:9;
#RADARVALUES:0,0,0,0,0;
#CREDIT:RatherBOO;
#NOTES:
0000
0000
0000
0000
,
0000
0000
0000
000M
,
000M
0000
1000
0100
0100
0000
00M0
0000
,
00M0
0000
1000
0001
1000
0000
00M0
0000
,
00M0
0000
0001
0100
0100
0000
00M0
0000
,
00M0
0000
0001
1000
0001
0000
1000
0000
,
0100
1000
0001
0010
,
0100
0100
000M
1000
,
0001
0100
0010
1000
,
0001
0022
0000
0000
,
0000
0000
0000
0000
0M00
0000
M000
0000
0000
0M00
0000
0000
,
M000
0033
0000
1000
,
0000
0001
1000
0000
0000
0000
0001
0000
,
0000
0010
0001
0000
0000
0000
1000
0000
,
0000
0001
1000
0000
0000
0000
0100
0000
,
0000
1000
0100
0000
0000
0000
1001
0000
,
0000
0001
1000
0100
0010
0001
1001
0000
,
0000
0001
0001
1000
1000
0001
1001
0000
,
0000
1000
0001
0100
0010
1000
0101
0000
,
0000
1000
0100
1000
0001
1000
0001
0000
,
0000
0000
0000
1000
0100
0010
0001
0000
,
0000
0000
0000
0001
0100
0010
1000
0000
,
0000
0000
0000
1000
0100
0010
0001
0000
,
0000
0000
0000
0000
0000
1000
0001
0000
0100
0000
0010
0000
1000
0000
0000
0000
,
1000
0000
0001
0010
0100
0000
0010
0000
,
0010
0000
0001
0100
0010
0000
1000
0000
,
0100
0010
0000
1001
,
0000
0000
0000
0000
0000
0000
2000
0000
0000
3000
0000
0000
0001
0000
1000
0000
,
0001
0010
0002
0003
1000
0000
0001
1000
,
0001
0100
0020
0030
1000
0000
0001
0010
,
0001
1000
0002
0003
0100
0000
0010
1000
,
0001
0000
1000
0001
0000
0000
0100
0000
0100
0000
0000
0000
0010
0000
1000
0000
,
0010
0000
0100
0001
0010
0000
0011
0000
,
1001
0000
1100
0000
0000
0001
0010
0001
,
1000
0000
0001
0100
0010
0000
1010
0000
,
1001
0101
0000
0000
,
1000
0010
0100
0001
0010
0000
0100
0000
,
1100
0001
0101
0001
,
0100
0010
1000
0010
0100
0000
0101
0000
,
1000
0100
0010
0100
1000
0000
1001
0000
,
0000
0000
1000
0100
0001
0100
1000
0000
,
1100
0001
0011
1000
,
0001
0100
1000
1000
0100
0001
0010
0000
,
1010
0000
0001
0100
0010
1000
0001
0000
,
1000
0001
0100
0002
,
0000
0000
0000
0000
0000
0000
0000
0000
0000
0003
0000
0000
0200
0000
0000
0000
,
0000
0000
0000
0000
0000
0000
0000
0000
0000
0300
0000
0000
0002
0000
0000
0000
,
0000
0000
0000
2000
,
0000
0003
0000
0000
0000
0000
0000
0000
0000
3000
0000
0000
0200
0000
0000
0000
,
0000
0000
0000
0000
0000
0000
0000
0000
0000
0300
0000
0000
2000
0000
0000
0000
,
0000
0000
0000
0000
0000
0000
0000
0000
0000
3000
0000
0000
0200
0000
0000
0000
,
0000
0000
0000
0310
,
0000
0100
0010
0100
,
1000
0010
1000
0100
,
1000
0001
0100
0000
0010
0000
1000
0000
,
1000
0010
1000
0011
,
0000
1000
0001
0100
,
0001
0010
0001
1000
,
0100
1000
0010
0000
0100
0000
0101
0000
,
0000
1000
0100
0010
,
0001
0000
0000
0010
0000
0000
0000
0000
0000
0001
0000
1000
,
0000
0001
0000
1000
0000
0001
0000
1000
0000
0002
0000
0000
,
0000
0000
0003
1000
,
0001
0100
0010
0000
1000
0001
0010
0000
,
0001
1000
0001
0100
0001
1000
0010
0000
,
0100
0000
0001
1000
0100
1000
0001
0000
,
0000
0000
0100
0010
1000
0001
1000
0000
,
0001
0010
0001
0000
1000
0010
1000
0000
,
0001
0100
0001
1000
0001
1000
0002
0003
,
0000
1000
0100
0010
0100
1000
0001
0000
,
0000
1000
0010
0100
0001
1000
1001
0000
,
1100
0000
0000
0000
0011
0000
0000
0000
0000
0000
0000
0000
0000
0000
0000
0MM0
,
0MM0
0000
0000
0000
;

//--------------- dance-single - FS mods- ----------------
#NOTEDATA:;
#STEPSTYPE:dance-single;
#DESCRIPTION:FS mods-;
#DIFFICULTY:Hard;
#METER:11;
#RADARVALUES:0,0,0,0,0;
#CREDIT:RatherBOO;
#NOTES:
0000
0000
0000
0000
,
0000
0000
0000
000M
,
000M
0000
1000
0010
0100
0000
M000
0000
,
M000
0000
0001
0010
0100
0000
000M
0000
,
000M
0000
1000
0001
1000
0000
00M0
0000
,
00M0
0000
0001
1000
0100
0000
1000
0000
,
0001
0000
0100
0000
0010
1000
0001
0000
,
0010
0000
0000
0000
0001
0000
0000
0000
1000
0000
0000
0000
0100
00M0
0100
0000
,
0001
1000
0100
0010
0001
1000
0001
0000
,
1000
2020
0000
0000
,
0000
0000
0000
0000
0M00
0000
000M
0000
0000
0M00
0000
0000
,
000M
0000
3030
0000
0000
0000
0002
0003
,
0000
0000
0100
0000
0010
0000
0000
1000
0000
0000
0001
0000
2000
0000
3000
0000
,
0000
0000
0100
0000
0010
0000
0000
0100
0000
0000
1000
0000
0002
0000
0003
0000
,
0000
0000
0100
0000
0010
0000
0000
0100
0000
0000
0001
0000
2000
0000
3000
0000
,
0000
0000
0100
0000
0010
0000
0000
0001
0000
0000
1000
0000
0101
0000
0000
0000
,
0000
0000
1000
0100
1000
0000
0001
0000
0100
0000
0001
0000
1100
0000
0000
0000
,
0000
0000
0001
1000
0001
0100
0010
1000
0001
0000
1000
0000
0011
0000
0000
0000
,
0000
0000
1000
0001
0010
0000
0100
0000
1000
0000
0001
0000
1010
0000
0000
0000
,
0000
0000
0001
0100
0010
0000
1000
0000
0001
0000
1000
0000
0010
1000
0010
1000
,
0000
0000
000M
0000
00M0
0000
0M00
0000
M000
0000
0000
0000
0001
0010
0001
0010
,
0000
0000
M000
0000
0M00
0000
00M0
0000
000M
0000
0000
0000
1000
0100
1000
0100
,
0000
0000
000M
0000
00M0
0000
0M00
0000
M000
0000
0000
0000
0001
0100
0001
0100
,
0000
M000
0M00
00M0
000M
0000
0001
0001
,
1000
0000
0000
0000
0001
1000
0001
0000
1000
0000
0000
0000
0100
0000
1000
0000
,
1000
0000
0000
0000
0000
0000
0000
0000
0000
0000
0000
0000
0001
0000
0000
1000
0000
0000
0100
0000
0000
0000
0000
0000
1000
0000
0000
0000
0000
0000
0000
0000
0000
0000
0000
0000
0001
0000
0000
0000
0000
0000
0000
0000
0000
0000
0000
0100
,
0000
0000
0000
0000
0001
0000
0000
1000
0000
0000
0000
0000
0001
0000
0000
0000
,
0000
0000
0000
0000
0000
0000
4000
0004
0000
0000
3000
0003
1000
0000
0001
0000
,
0100
0000
0010
0000
1000
0000
0001
0100
0001
0000
1000
0000
0001
0000
0100
0000
,
0010
1000
0001
0000
1000
0000
0001
0100
,
0010
0000
0100
0000
0001
0000
1000
0100
1000
0000
0001
0000
1000
0000
0010
0000
,
0100
0000
0001
1000
0000
0000
0001
0000
1000
0000
0000
0000
0001
0000
1000
0000
,
0100
1000
0001
1000
0010
0100
0010
1000
,
0001
0000
1000
0100
0000
0000
1000
0000
0001
0000
1000
0000
0100
00M0
0100
0000
,
0001
1000
0100
0010
0001
1000
0001
0000
,
1000
0000
0000
0010
0000
0000
0000
0000
0000
0000
0000
0000
0000
0000
0000
0000
,
1000
0001
1000
0001
1000
0000
1001
0000
,
1001
0110
0110
1001
,
0001
1000
1000
0001
0100
0010
1000
0000
,
0100
0000
0010
0001
1000
1000
0001
0000
,
0000
1000
1000
0010
0100
0001
1001
0000
,
1100
0011
0011
1001
,
1000
0000
0001
0000
0100
00M0
0100
0000
1000
0000
0001
0000
0010
0000
0000
0000
,
0100
0000
1000
0001
0100
0010
1000
0000
,
0001
0010
0100
2000
,
0000
0000
0000
0000
0002
0000
0000
0000
0000
3000
0000
0000
0200
0000
0000
0000
,
0000
0003
0000
0000
0020
0000
0000
0000
0000
0300
0000
0000
2000
0000
0000
0000
,
0000
0000
0000
0000
0000
0000
0000
0000
0000
0030
0000
0000
0002
0000
0000
0000
,
0000
3000
0000
0000
0020
0000
0000
0000
0000
0003
0000
0000
0200
0000
0000
0000
,
0000
0030
0000
0000
2000
0000
0000
0000
0000
0300
0000
0000
0002
0000
0000
0000
,
0000
3000
0000
0000
2000
0000
0000
0000
0000
0003
0000
0000
0020
0000
0000
0000
,
0000
0000
0000
0000
0000
0000
0000
0000
0000
3000
0000
0000
1030
0000
0000
0000
,
0010
0100
0010
0110
,
0000
1010
0000
0011
,
0000
1000
0001
0000
0010
0000
1100
0000
,
0000
0001
0010
0011
,
0000
1000
0001
0000
1000
0000
1001
0000
,
0000
0101
0000
1100
,
0000
0001
1000
0000
0100
0000
0110
0000
,
0000
0001
0001
1000
,
0010
0000
0000
0100
0000
0000
0000
0000
0000
0001
0000
1000
,
0000
0010
0000
0100
0000
0001
0000
1000
0000
0002
0000
0000
,
0000
0000
0000
0000
0003
0000
1000
0010
,
1000
0000
0001
0010
0001
0000
1000
0000
0100
0000
0010
0000
0001
0000
1000
0100
,
1000
0000
0001
0000
0100
0000
0001
0000
1000
0000
0001
0000
0100
0000
0001
0100
,
0001
1000
0001
1000
0010
0100
0001
0000
,
1000
0001
0001
0100
0010
1000
0010
1000
,
0001
0000
0100
0001
0100
0000
0010
0000
1000
0000
0001
0000
1000
0000
0010
0000
,
0100
0001
1000
0001
0100
0001
1000
0001
,
1000
0001
0010
0100
1000
0001
1000
0000
,
0000
0001
0100
0010
1000
0001
0101
0000
,
1001
0000
0000
0000
1010
0000
0000
0000
0000
0000
0000
0000
0000
0000
0000
00MM
,
000M
0000
0000
0000
;
