#VERSION:0.83;
#TITLE:Stayin' Alive;
#SUBTITLE:performed by a vampire;
#ARTIST:Bee Dee Gee's Hee Bee Bee Gees (Brian David Gilbert);
#TITLETRANSLIT:;
#SUBTITLETRANSLIT:;
#ARTISTTRANSLIT:;
#GENRE:;
#ORIGIN:;
#TAGS:;
#CREDIT:djfiBOO;
#BANNER:Stayin Alive-banner.mp4;
#BACKGROUND:Stayin Alive-bg.png;
#PREVIEWVID:;
#JACKET:Stayin Alive-jacket.jpg;
#CDIMAGE:;
#DISCIMAGE:;
#LYRICSPATH:Stayin Alive.lrc;
#CDTITLE:;
#MUSIC:Stayin Alive.ogg;
#OFFSET:-8.183000;
#SAMPLESTART:134.727997;
#SAMPLELENGTH:8.727000;
#SELECTABLE:YES;
#BPMS:0.000000=110.000000
;
#STOPS:;
#DELAYS:;
#WARPS:;
#TIMESIGNATURES:0.000000=4=4
;
#TICKCOUNTS:0.000000=4
;
#COMBOS:0.000000=1
;
#SPEEDS:144.000000=1.200000=14.000000=0
,158.000000=2.000000=2.000000=0
,160.000000=1.000000=1.000000=0
;
#SCROLLS:0.000000=1.000000
;
#LABELS:19.000000=face left
,32.000000=face right
;
#BGCHANGES:0.000=Stayin Alive.mp4=1.000=0=0=0=StretchNoLoop==CrossFade_Fastest==,
99999.000=-nosongbg-=1.000=0=0=0=StretchNoLoop====,
99999=-nosongbg-=1.000=0=0=0 // don't automatically add -songbackground-
;
#KEYSOUNDS:;
#ATTACKS:
;

//---------------dance-single - ----------------
#NOTEDATA:;
#CHARTNAME:;
#CHARTHASH:2458880170;
#STEPSTYPE:dance-single;
#BANNER:;
#DESCRIPTION:;
#CHARTSTYLE:;
#DIFFICULTY:Beginner;
#METER:2;
#METERF:0.000000;
#LASTSECONDHINT:142.910263;
#RADARVALUES:0.122158,0.168969,0.075249,0.184703,0.000000,125.000000,114.000000,11.000000,27.000000,0.000000,0.000000,0.000000,0.000000,0.000000,0.122158,0.168969,0.075249,0.184703,0.000000,125.000000,114.000000,11.000000,27.000000,0.000000,0.000000,0.000000,0.000000,0.000000;
#CREDIT:djfiBOO;
#NOTES:
0000
0000
0000
0000
,
0000
0000
0000
0000
,
0001
0000
1000
0000
,
0010
0000
0110
0000
,
0100
0000
0001
0000
,
0010
0000
0001
0000
,
0100
0000
0100
0000
,
0010
0000
1000
0000
,
0100
0000
0100
0000
,
0010
0000
0001
0000
,
1001
0000
0000
0000
,
1000
0000
0000
0000
,
1001
0000
0000
0000
,
0001
0000
0000
0000
,
1000
0100
1000
0100
,
2000
3000
0002
0003
,
0001
0100
0001
0100
,
0002
0003
0020
0030
,
0001
1000
1000
0001
,
0200
0300
0200
0300
,
0010
0100
0100
0010
,
0200
0000
0000
0000
,
0320
0000
0000
0000
,
2030
0000
0000
0000
,
3200
0000
0000
0000
,
0310
0000
0010
0000
,
0100
0000
0100
0000
,
0110
0000
0000
0000
,
0010
0000
0000
0000
,
0110
0000
0000
0000
,
0100
0000
1000
0000
,
0010
0000
0100
0001
,
0100
0000
0000
0000
,
0001
0000
0000
0000
,
0010
0000
0000
0000
,
0100
0000
0000
0000
,
0200
0000
0000
0000
,
2300
0000
0000
0000
,
3020
0000
0000
0000
,
0230
0300
0220
0000
,
0000
0000
0330
0000
,
0100
0100
0001
0100
,
0002
0003
2000
3000
,
1000
0001
0001
1000
,
0002
0003
0020
0030
,
0010
0100
0100
0010
,
0020
0030
0200
0300
,
1000
0001
0001
2000
,
3002
0000
0000
0000
,
0023
0000
0000
0000
,
0230
0000
0000
0000
,
2300
0000
0000
0000
,
3010
0000
0100
0000
,
0001
0000
1000
0000
,
1001
1000
0000
1000
,
0000
0100
0000
0100
,
0000
0010
0000
0010
,
0000
0001
0000
0001
,
0000
1001
0000
1001
,
0000
1000
0000
1000
,
0000
1001
0000
1001
,
0000
0001
0000
0001
;

//---------------dance-single - ----------------
#NOTEDATA:;
#CHARTNAME:;
#CHARTHASH:2556736775;
#STEPSTYPE:dance-single;
#BANNER:;
#DESCRIPTION:;
#CHARTSTYLE:;
#DIFFICULTY:Easy;
#METER:4;
#METERF:0.000000;
#LASTSECONDHINT:142.910263;
#RADARVALUES:0.193498,0.211211,0.047886,0.266793,0.000000,198.000000,191.000000,7.000000,39.000000,0.000000,0.000000,0.000000,0.000000,0.000000,0.193498,0.211211,0.047886,0.266793,0.000000,198.000000,191.000000,7.000000,39.000000,0.000000,0.000000,0.000000,0.000000,0.000000;
#CREDIT:djfiBOO;
#NOTES:
0000
0000
0000
0000
,
0000
0000
0000
0000
,
1000
0001
0100
0000
,
0001
0010
0100
0000
,
1000
0100
1000
1000
,
0100
1000
0100
0010
,
0001
0000
0010
0000
,
0100
0100
0100
1000
,
0010
0000
0100
0000
,
0001
0001
0100
0001
,
1001
0000
1000
0000
,
0010
1000
0001
0010
,
0110
0000
0100
0000
,
0010
0001
1000
0100
,
1000
1000
0010
0010
,
0200
0001
1000
0301
,
0001
0001
1000
1000
,
0200
1000
0001
1300
,
2000
3002
2003
3002
,
0013
0010
0100
0100
,
0020
0230
0320
0230
,
1300
0020
0000
0100
,
0230
0001
0000
0001
,
0302
0010
0000
0013
,
0020
0100
0000
0100
,
0130
1000
0100
0000
,
1000
0001
1000
0000
,
0001
0000
0100
0000
,
0010
0000
1000
0000
,
1000
0000
0100
0000
,
0010
0001
0010
0000
,
0001
1000
0001
0000
,
0100
0100
0100
0000
,
0010
0100
0110
0000
,
0010
0010
0010
0000
,
1000
0001
1001
0000
,
2000
3100
0200
0310
,
0020
0031
0002
1003
,
0002
0103
0200
0310
,
0020
1030
2002
0000
,
0000
0000
3003
0000
,
0001
0001
0100
0100
,
0020
1000
0001
1030
,
1000
1000
0001
0001
,
0020
0001
1000
0031
,
0002
2003
3002
2003
,
3100
0100
0010
0010
,
0200
0320
0230
0320
,
0031
0200
0000
0010
,
0320
1000
0000
1000
,
2030
0100
0000
3100
,
0200
0010
0000
0010
,
0310
0001
1000
0000
,
0010
0100
0001
0000
,
1001
1000
0000
1000
,
0000
0001
0000
0001
,
0000
0010
0000
0010
,
0000
0100
0000
0100
,
2000
0010
0100
3010
,
0010
0000
0100
0000
,
0002
0010
0100
0013
,
0010
0000
0100
0110
;

//---------------dance-single - ----------------
#NOTEDATA:;
#CHARTNAME:;
#CHARTHASH:826420702;
#STEPSTYPE:dance-single;
#BANNER:;
#DESCRIPTION:;
#CHARTSTYLE:;
#DIFFICULTY:Medium;
#METER:9;
#METERF:0.000000;
#LASTSECONDHINT:142.910263;
#RADARVALUES:0.341064,0.380179,0.307838,0.191543,0.212066,349.000000,304.000000,45.000000,28.000000,0.000000,0.000000,0.000000,0.000000,0.000000,0.341064,0.380179,0.307838,0.191543,0.212066,349.000000,304.000000,45.000000,28.000000,0.000000,0.000000,0.000000,0.000000,0.000000;
#CREDIT:djfiBOO;
#NOTES:
0000
0000
0000
0000
,
0000
0000
0000
0000
,
0001
0010
0001
0000
0100
0000
0010
0000
,
1000
0001
0010
0001
,
0010
0000
0100
0000
1000
0000
0000
1000
0000
0100
0000
0000
1100
0000
0000
0000
,
0100
0000
0010
0000
0001
1000
0100
0000
,
0010
0000
0000
0000
0100
0000
0000
0010
0000
0010
0000
0001
0000
0000
0000
0000
,
1000
0200
0000
0001
0301
0100
1000
0000
,
0010
0000
0000
0100
0000
0000
0000
0001
0000
0100
0000
0001
0000
0000
0000
0000
,
0001
0000
0001
0200
0000
0000
1000
0000
1300
0000
0100
0000
0001
0000
0000
0000
,
0001
0000
0000
0101
0000
0000
0000
0000
0001
0000
0000
0011
0000
0000
0000
0000
,
0010
0100
1000
0010
,
1000
0000
0000
1010
0000
0000
0000
0000
1000
0000
0000
1100
0000
0000
0000
0000
,
1000
0010
0100
0001
,
0001
0000
0010
0000
0001
0000
0010
0100
0000
0000
0100
0000
1000
0000
0100
0000
,
1000
0001
1000
0001
0000
0000
0000
0000
0001
1000
0001
1000
0000
0000
0000
0000
,
1000
0000
0010
0000
1000
0000
0010
0100
0000
0000
0100
0000
0001
0000
0100
0000
,
0001
1000
0001
1000
0000
0000
0000
0000
1000
0001
1000
0001
0000
0000
0000
0000
,
0000
1001
0000
0110
0000
1001
0000
0110
,
0010
0100
0010
0100
0000
0000
0000
0000
0100
0010
0100
0010
0000
0000
0000
0000
,
0000
0110
0000
1001
0000
0110
0000
1001
,
1000
0001
1000
0001
2000
0000
0000
0000
0100
0000
0000
0000
0001
0000
0000
0000
,
3020
1000
0001
0100
,
0230
1000
0010
0001
,
0302
0000
0013
0011
,
0010
0100
1000
0100
,
1000
0000
1000
1000
0010
0001
0010
1000
,
1000
0000
0000
0000
0001
0000
0000
0000
0010
0000
0000
0020
0000
0000
0000
0000
,
0130
0000
0000
0000
0010
0000
0010
0000
0001
0000
0000
0001
0000
0100
0000
0000
,
0100
0000
0000
0000
0010
0000
1000
0000
0010
0000
0000
1000
0000
0000
1000
0000
,
0100
1000
0001
0010
,
0001
0000
1000
1000
0100
0001
0100
1000
,
1000
1010
0010
0110
,
0100
0000
0100
0000
0001
0000
0100
0001
0000
0001
0000
1000
0000
0000
0000
0000
,
1001
0000
0000
0000
0001
0000
0000
0000
0011
0000
0010
0001
0000
0000
0000
0000
,
0010
0000
0100
0000
1000
0000
0100
1000
0000
0000
0000
0000
1001
0000
0000
0000
,
2001
0000
0000
3100
0000
0000
0000
0000
1002
0000
0000
0103
0000
0000
0000
0000
,
2001
0000
0000
3010
0000
0000
0000
0000
1002
0000
0000
0013
0000
0000
0000
0000
,
0012
0000
0000
1003
0000
0000
0000
0000
2010
0000
0000
3001
0000
0000
0000
0000
,
1002
0000
0000
1003
0000
0000
0000
0000
2002
0000
0000
0000
0000
0000
0000
0000
,
0000
0000
3003
0000
1000
0010
0001
0010
,
1000
0000
0100
0000
1000
0000
0100
0010
0000
0000
0010
0000
0001
0000
0010
0000
,
0001
1000
0001
1000
0000
0000
0000
0000
1000
0001
1000
0001
0000
0000
0000
0000
,
0001
0000
0100
0000
0001
0000
0100
0010
0000
0000
0010
0000
1000
0000
0010
0000
,
1000
0001
1000
0001
0000
0000
0000
0000
0001
1000
0001
1000
0000
0000
0000
0000
,
0000
1001
0000
0110
0000
1001
0000
0110
,
0100
0010
0100
0010
0000
0000
0000
0000
0010
0100
0010
0100
0000
0000
0000
0000
,
0000
0110
0000
1001
0000
0110
0000
1001
,
0001
1000
0001
1000
0002
0000
0000
0000
0010
0000
0000
0000
1000
0000
0000
0000
,
0203
0001
1000
0010
,
0320
0001
0100
1000
,
2030
0000
3100
1100
,
0100
0010
0001
0011
,
0010
0000
0001
0000
0100
0001
1000
0000
,
2000
0020
3000
0002
,
0030
0020
0003
2000
,
0030
0200
3000
0002
,
0300
0200
0003
1300
,
1001
0110
1001
0110
,
0100
0100
0010
0010
,
0110
1001
0110
1001
,
1000
1000
0001
0001
;

//---------------dance-single - choreo?----------------
#NOTEDATA:;
#CHARTNAME:;
#CHARTHASH:45860744;
#STEPSTYPE:dance-single;
#BANNER:;
#DESCRIPTION:choreo?;
#CHARTSTYLE:;
#DIFFICULTY:Hard;
#METER:11;
#METERF:0.000000;
#LASTSECONDHINT:142.910263;
#RADARVALUES:0.391882,0.506906,0.212066,0.266793,0.383087,401.000000,370.000000,31.000000,39.000000,0.000000,0.000000,0.000000,0.000000,0.000000,0.391882,0.506906,0.212066,0.266793,0.383087,401.000000,370.000000,31.000000,39.000000,0.000000,0.000000,0.000000,0.000000,0.000000;
#CREDIT:djfiBOO;
#NOTES:
0000
0000
0000
0000
,
0000
0000
0000
0000
,
0001
0000
2000
0000
3100
0000
0000
0000
0100
0000
0000
0000
0100
0010
0000
0010
,
0001
0001
0100
0000
0001
0000
0010
0001
,
1000
0000
0100
0000
1000
0000
0000
0010
0000
1000
0000
0000
0101
0000
0000
0000
,
0100
0000
0001
1000
0000
0000
0100
0000
1000
0000
0010
0000
0100
0000
0001
0000
,
0100
0000
0100
0001
0100
0000
0000
0010
0000
0010
0000
1000
0000
1000
0010
1000
,
0000
0001
0100
0000
0000
0000
0001
0000
0100
0000
0010
0100
0000
0000
0000
0001
,
1000
0000
0000
0100
0000
0000
0000
0100
0000
0100
0000
0010
0000
0010
0001
0000
,
0010
0000
0010
0100
0000
0000
0000
0010
0000
0001
0000
0100
0000
0010
1000
0000
,
2000
0000
0000
3100
0000
0000
0000
0000
0020
0000
0000
0031
0000
0000
0000
1000
,
0010
1000
0000
0010
0000
0001
0000
0010
0000
1000
0000
1000
0000
0000
0000
1000
,
0001
1000
0000
0100
0000
0000
0000
0010
0001
0010
0000
0001
0000
0000
0000
0001
,
0100
0001
0000
0001
0000
0100
0000
1000
0000
0100
0000
0001
0000
0000
0000
0000
,
0001
0100
0001
0000
0100
0000
0010
1000
0000
1000
0010
0000
1000
0000
0100
0000
,
1000
0100
1000
0100
0000
0000
1001
0000
1000
0010
1000
0010
0000
0000
1010
0000
,
0010
1000
0010
0000
0100
0000
0100
0001
0000
0001
0100
0000
0001
0000
0010
0000
,
0001
0010
0001
0010
0000
0000
1001
0000
0001
0100
0001
0100
0000
0000
1001
0000
,
2000
3002
2003
3002
,
1000
1000
1000
1003
,
0002
2003
3002
2003
,
3001
0100
0001
0100
0002
0000
0000
0000
0010
0000
0000
1000
0000
0000
1003
0000
,
2000
0000
0000
0000
0100
0000
0000
0000
0010
0000
0000
0010
0000
0000
3010
0000
,
0020
0000
0000
0000
1000
0000
0000
0000
0100
0000
0000
0100
0000
0000
0130
0000
,
0200
0000
0000
0000
0001
0000
0000
0000
0301
0010
0100
1000
0100
0000
0000
0000
,
1000
0000
0000
0000
1010
0000
0000
1000
0000
0100
0000
1000
0000
0000
1000
0000
,
0100
0000
0110
0010
0001
0010
1000
0010
,
0011
0000
0001
0000
1000
0000
0100
0000
0100
0000
0000
0100
0000
0000
0000
0000
,
0010
0000
0001
0000
0000
0000
1000
0000
0010
0000
0010
0100
0000
0100
0000
0000
,
0001
0000
0010
0000
0000
0000
0010
0000
0100
0000
1000
0100
0000
1000
0100
0000
,
1000
1100
0100
0110
,
0010
0000
0011
0001
0010
0001
1000
0001
,
0100
0101
0100
0110
,
0010
0000
0010
0000
0010
1000
0010
0100
0000
0100
0000
0100
0000
0000
0000
0000
,
0100
0101
0001
1001
,
1000
0000
1000
0000
1000
0100
1000
0100
0000
0000
0000
0100
0000
0010
0001
0000
,
0010
0000
0000
0010
0000
0000
0000
0010
0100
0000
0000
0100
0000
0000
0000
0100
,
1000
0000
0000
1000
0000
0000
0000
1000
0010
0000
0000
0010
0000
0000
0000
0010
,
0100
0000
0000
0100
0000
0000
0000
0100
0001
0000
0000
0001
0000
0000
0000
0001
,
1000
0000
0000
1000
0000
0000
0000
0000
2002
0000
0000
0000
0000
0000
0000
0000
,
0000
0000
3003
0000
2000
3100
2000
3010
,
1000
0010
1000
0000
0010
0000
0100
0001
0000
0001
0100
0000
0001
0000
0010
0000
,
0001
0010
0001
1000
0000
0000
1001
0000
1000
0010
1000
0001
0000
0000
0101
0000
,
0100
0001
0100
0000
0010
0000
0010
1000
0000
1000
0010
0000
1000
0000
0100
0000
,
1000
0100
0010
0001
0000
0000
1001
0000
0001
0010
0100
1000
0000
0000
1001
0000
,
0002
2003
3002
2003
,
0001
0001
0001
3001
,
2000
3002
2003
3002
,
1003
0010
1000
0010
2000
0000
0000
0000
0010
0000
0000
0000
0100
0000
0100
0000
,
3200
0000
0010
0000
1000
0000
0010
0310
,
0020
0000
0001
0000
1000
0000
0001
0031
,
0002
0000
1000
0000
0103
0001
1000
0100
,
1000
1100
0100
0110
,
0010
0000
0011
0000
0010
0001
1000
0010
,
0100
0101
0000
1100
,
0000
1010
0000
0011
,
0000
1100
0000
1010
,
0000
0101
0000
0011
,
0020
0230
0320
0230
,
0010
0010
0010
0310
,
0200
0320
0230
0320
,
0100
0100
0100
0130
;

//---------------dance-single - DS XO FS-----------------
#NOTEDATA:;
#CHARTNAME:;
#CHARTHASH:1505156777;
#STEPSTYPE:dance-single;
#BANNER:;
#DESCRIPTION:DS XO FS-;
#CHARTSTYLE:;
#DIFFICULTY:Challenge;
#METER:14;
#METERF:0.000000;
#LASTSECONDHINT:143.182999;
#RADARVALUES:0.522835,0.613751,0.136817,0.472018,0.759333,535.000000,515.000000,20.000000,69.000000,17.000000,0.000000,2.000000,0.000000,0.000000,0.522835,0.613751,0.136817,0.472018,0.759333,535.000000,515.000000,20.000000,69.000000,17.000000,0.000000,2.000000,0.000000,0.000000;
#CREDIT:djfiBOO;
#NOTES:
0000
0000
0000
0000
,
0000
0000
0000
0000
,
2000
0000
3020
0000
0130
0000
0000
0000
0001
0000
0000
0000
0001
0010
0000
0010
,
0001
0000
0100
0000
0000
0000
0001
0100
0010
0100
0000
0100
0000
0001
0010
0000
,
0100
0000
1000
0100
1000
0000
0100
0010
0000
0001
0000
0000
0101
0000
1000
0010
,
1000
0000
0001
0100
0000
0000
0020
0000
0130
0000
0001
0000
0001
0100
0000
0010
,
0000
0000
0100
0001
0100
0000
0010
1000
0000
0001
0000
0100
0000
0001
0100
1000
,
0000
0100
0001
0000
0101
0000
0001
0000
0100
0000
0010
1000
0200
0000
0300
0000
,
0100
0010
0000
0010
0000
0000
0001
0010
0000
0010
0000
0100
0000
1000
0100
0000
,
1000
0000
0100
0010
0000
0000
0010
0100
0000
1000
0000
0100
0000
1000
0001
0000
,
0001
1000
0000
0100
0000
0000
0100
0000
1000
0001
0000
0100
0000
0000
0001
0100
,
0001
0100
0000
0001
0000
0100
0000
1000
0000
0100
0000
0001
0000
0000
0001
0010
,
0001
1000
0000
0001
0000
0000
1000
0010
1000
0001
0000
1000
0000
0000
1000
0010
,
1000
0010
0000
1000
0000
0010
0000
0001
0000
0010
0000
2000
0000
0002
3003
0000
,
1000
0001
1000
0001
0010
0001
0010
0002
0000
0103
0010
0100
0010
1000
0010
1000
,
0010
1000
0001
0200
0000
0000
0301
0000
0010
0001
1000
0200
0000
0000
1300
0000
,
0100
0010
0100
0010
0001
0010
0001
0020
0000
0031
0100
0001
0100
0010
0100
0010
,
0100
0001
1000
0020
0000
0000
1030
0000
0100
1000
0001
0010
0000
0000
0011
0000
,
0M02
0103
2M00
3100
0M02
0103
2M00
3100
,
0M01
0010
0100
1000
0000
0000
1001
0000
1000
0010
0100
0001
0000
0000
1001
0000
,
20M0
3010
00M2
0013
20M0
3010
00M2
0013
,
10M0
0100
1000
0100
2000
0000
0000
0000
3010
0000
0000
0010
0100
0000
0010
0000
,
0200
0000
0000
0000
0301
0000
0000
0000
0001
0000
0000
0010
0000
0010
0001
0000
,
0020
0000
0000
0000
0130
0000
0000
0000
0100
0000
0000
1000
0100
0000
1000
0000
,
0002
0000
0000
0000
0103
0000
0000
0000
0001
0100
0010
0100
0002
0000
0000
0000
,
2003
0000
0000
0000
0000
0000
0000
0000
3100
0000
0000
0000
1000
0000
0100
0000
0000
0000
0010
0000
0000
0000
0010
0100
0000
0000
0000
0000
0010
0000
0000
0000
,
0001
0000
0001
0010
0001
0000
0001
1000
0000
0010
0000
0100
0000
0100
0001
0100
,
0001
0000
0100
0000
1000
0000
0100
0000
0002
0000
0000
1003
0100
1000
0000
0100
,
0010
0000
0100
0000
0000
0000
0010
0000
0001
0000
0010
0100
0000
0010
0000
0000
,
0001
0000
0100
0000
0110
0000
0100
0000
0001
0000
0100
0010
0000
0010
1000
0000
,
1100
0101
0011
1010
,
0110
0000
1001
2000
3200
0302
2003
3020
,
0031
0000
0000
0000
0100
0000
0000
0000
0010
0000
0010
1000
0000
0000
0000
0000
,
1000
0000
1000
0000
1000
0100
1000
0100
0000
0100
00M0
0001
0000
0001
0010
0001
,
0010
0000
0000
0000
0100
0000
0000
0000
0010
0000
0010
0001
0000
0000
0000
0000
,
1000
0000
0001
0000
1000
0010
1000
0020
0000
0000
0000
0130
0000
0100
0001
0000
,
0001
0010
0000
2000
0000
3000
0000
1000
0010
0001
0000
0002
0000
0003
0000
1000
,
0010
0001
0000
0002
0000
0003
0000
0001
0010
1000
0000
2000
0000
3000
0000
1000
,
0100
0001
0000
0002
0000
0003
0000
0001
0100
1000
0000
2000
0000
3000
0000
0001
,
0100
1000
0000
2000
0000
3000
0000
1000
0400
0004
0000
0000
0000
0000
0000
0000
,
0000
0000
0000
0000
0000
0000
0000
0000
0303
0000
0000
0000
0000
0000
0000
0000
0001
0100
0000
0000
0010
0000
0000
0000
0010
1000
0000
0000
0100
0000
0000
0000
,
1000
0100
1000
0100
1000
0001
1000
0002
0000
0013
0100
0010
0100
1000
0001
1000
,
0001
1000
0010
0100
0000
0000
0110
0000
1000
0001
0010
0100
0000
0000
0110
0000
,
0010
0001
0010
0001
1000
0001
1000
0002
0000
1003
0010
1000
0010
0100
0001
0100
,
0010
1000
0001
0100
0000
0000
0102
0000
0013
0001
1000
0100
0000
0000
1200
0000
,
0320
1030
M200
1300
M020
1030
M200
1300
,
0001
0010
0100
1000
0000
0000
0120
0000
0130
0010
0001
0100
0000
0000
0210
0000
,
0320
0031
020M
0301
002M
0031
020M
0301
,
0100
0010
0100
0010
0200
0000
0000
0000
1000
0000
0000
0000
0301
0000
0000
0000
,
2000
0000
0000
0000
0001
0000
0000
0000
3100
0000
0000
0000
1100
0000
0100
1000
,
0200
1000
0010
0310
,
0020
0000
0031
0000
0001
0010
1000
0010
,
0002
0000
0000
0000
0103
0000
0000
0100
0000
0000
0001
0000
1000
0000
0010
1000
,
0020
0000
0000
0000
0130
0000
0000
0001
0000
0010
0000
0100
0000
0100
1000
0000
,
1000
0001
1000
0001
0100
0001
0100
0002
0000
0013
0001
0010
0001
1000
0001
1000
,
0000
1000
0100
1000
0000
0000
0000
0000
0010
0001
0010
0001
0000
0000
0000
0000
,
0001
1000
0001
1000
0010
1000
0010
2000
0000
3100
1000
0100
1000
0001
1000
0001
,
1000
0001
0010
0001
0000
0000
0000
0000
1000
0100
1000
0100
0000
0000
0000
0000
,
2000
3200
0302
0023
,
1030
0010
1000
0010
0000
0000
0000
0000
0100
0001
0100
0001
0000
0000
0000
0000
,
0002
0203
2300
3020
,
0031
0010
0001
0010
0000
0000
0000
0000
0100
1000
0100
1000
0000
0000
1001
0000
;

//---------------dance-double - ----------------
#NOTEDATA:;
#CHARTNAME:;
#CHARTHASH:3614520878;
#STEPSTYPE:dance-double;
#BANNER:;
#DESCRIPTION:;
#CHARTSTYLE:;
#DIFFICULTY:Hard;
#METER:12;
#METERF:0.000000;
#LASTSECONDHINT:142.910263;
#RADARVALUES:0.390905,0.506906,0.212066,0.280474,0.383087,400.000000,369.000000,31.000000,41.000000,1.000000,1.000000,0.000000,0.000000,0.000000,0.390905,0.506906,0.212066,0.280474,0.383087,400.000000,369.000000,31.000000,41.000000,1.000000,1.000000,0.000000,0.000000,0.000000;
#CREDIT:djfiBOO;
#NOTES:
00000000
00000000
00000000
00000000
,
00000000
00000000
00000000
00000000
,
00010000
00000000
00002000
00000000
00103000
00000000
00000000
00000000
01000000
00000000
00000000
00000000
01000000
10000000
00000000
00100000
,
01000000
00010000
01000000
00000000
00001000
00000000
00010000
00000000
,
00000100
00000000
00000010
00000000
00000001
00000000
00000000
00000001
00000000
00000100
00000000
00000000
00000101
00000000
00000000
00000000
,
00000101
00000000
00000001
00000100
00000000
00000000
00001000
00000000
01000000
00000000
10000000
00000000
01000000
00000000
00001000
00000000
,
00000100
00000000
00000001
00000100
00000001
00000000
00000000
00001000
00000000
00000010
00000000
00000100
00000000
00001000
01000000
00001000
,
00000000
01000000
00100000
00000000
00000000
00000000
00100000
00000000
10000000
00000000
00100000
01000000
00000000
00000000
00000000
00010000
,
10000000
00000000
00000000
01000000
00000000
00000000
00000000
00010000
00000000
00001000
00000000
00000010
00000000
00000010
00000001
00000000
,
00000010
00000000
00000010
00001000
00000000
00000000
00000000
00010000
00000000
01000000
00000000
10000000
00000000
01000000
10000000
00000000
,
20000000
00000000
00000000
31000000
00000000
00000000
00000000
00000000
00200000
00000000
00000000
00310000
00000000
00000000
00000000
10000000
,
00100000
10000000
00000000
00100000
00000000
00010000
00000000
00001000
00000000
00000010
00000000
00000001
00000000
00000000
00000000
00000100
,
00000001
00000100
00000000
00000010
00000000
00000000
00000000
00001000
00000100
00001000
00000000
00000001
00000000
00000000
00000000
00000001
,
00000100
00000001
00000000
00000100
00000000
00001000
00000000
00010000
00000000
01000000
00000000
10000000
00000000
00000000
00000000
00000000
,
00100000
01000000
00100000
00000000
01000000
00000000
00100000
10000000
00000000
10000000
01000000
00000000
10000000
00000000
00010000
00000000
,
00100000
00001000
00100000
00001000
00000000
00000000
00011000
00000000
00010000
00000010
00010000
00000010
00000000
00000000
00011000
00000000
,
00010000
00001000
00010000
00000000
00001000
00000000
00000010
00000001
00000000
00000001
00001000
00000000
00000100
00000000
00001000
00000000
,
00000100
00010000
00000100
00010000
00000000
00000000
00011000
00000000
00001000
01000000
00001000
01000000
00000000
00000000
10010000
00000000
,
20000000
30020000
00032000
00003002
,
00001000
00001000
00001000
00001003
,
00000002
00002003
00023000
20030000
,
30010000
01000000
00010000
01000000
00020000
00000000
00000000
00000000
00100000
00000000
00000000
01000000
00000000
00000000
10030000
00000000
,
20000000
00000000
00000000
00000000
01000000
00000000
00000000
00000000
00100000
00000000
00000000
00010000
00000000
00000000
30010000
00000000
,
00020000
00000000
00000000
00000000
10000000
00000000
00000000
00000000
01000000
00000000
00000000
00100000
00000000
00000000
00130000
00000000
,
00200000
00000000
00000000
00000000
00001000
00000000
00000000
00000000
00301000
00010000
00001000
00010000
00001000
00000000
00000000
00000000
,
00010000
00000000
00000000
00000000
00010100
00000000
00000000
00000100
00000000
00001000
00000000
00000010
00000000
00000000
00000010
00000000
,
00000100
00000000
00000110
00000100
00000001
00000100
00001000
00000100
,
00000001
00000000
00000001
00000000
00000010
00000000
00000100
00000000
00000100
00000000
00000000
00001000
00000000
00000000
00000000
00000000
,
00000001
00000000
00000010
00000000
00000000
00000000
00000100
00000000
00001000
00000000
00000100
00010000
00000000
00010000
00000000
00000000
,
00001000
00000000
00010000
00000000
00000000
00000000
00000010
00000000
00001000
00000000
00000001
00000100
00000000
00000001
00000100
00000000
,
00000010
00001010
00001000
00001100
,
00000100
00000000
00010100
00010000
00001000
01000000
00010000
01000000
,
00100000
10100000
10000000
11000000
,
01000000
00000000
01000000
00000000
10000000
01000000
00100000
01000000
00000000
01000000
00000000
01000000
00000000
00000000
00000000
00000000
,
00100000
00110000
00010000
01010000
,
01000000
00000000
01000000
00000000
00010000
01000000
00010000
01000000
00000000
00000000
00000000
00100000
00000000
10000000
00100000
00000000
,
00010000
00000000
00000000
00001000
00000000
00000000
00000000
00000100
00000001
00000000
00000000
00000001
00000000
00000000
00000000
00000001
,
00000010
00000000
00000000
00001000
00000000
00000000
00000000
00010000
01000000
00000000
00000000
10000000
00000000
00000000
00000000
10000000
,
01000000
00000000
00000000
00010000
00000000
00000000
00000000
00001000
00000010
00000000
00000000
00000001
00000000
00000000
00000000
00001000
,
00000100
00000000
00000000
00010000
00000000
00000000
00000000
00000000
00022000
00000000
00000000
00000000
00000000
00000000
00000000
00000000
,
00000000
00000000
00033000
00000000
00002000
01003000
0M020000
00030010
,
00001000
00000010
00001000
00000000
00000001
00000000
00000010
00000100
00000000
00000100
00000010
00000000
00000001
00000000
00000100
00000000
,
00001000
00010000
00001000
01000000
00000000
00000000
01002000
00000000
00013000
00001000
00010000
00000100
00000000
00000000
00010200
00000000
,
00010300
00001000
00010000
00000000
01000000
00000000
01000000
10000000
00000000
10000000
00100000
00000000
10000000
00000000
01000000
00000000
,
10000000
01000000
00100000
00010000
00000000
00000000
00010100
00000000
00001000
00000100
00000010
00000001
00000000
00000000
00001001
00000000
,
00000002
00002003
00023000
20030000
,
00010000
00010000
00010000
30010000
,
20000000
30020000
00032000
00003002
,
00000013
00000100
00000010
00000100
00000020
00000000
00000000
00000000
00001000
00000000
00000000
00000000
00000001
00000000
00000001
00000000
,
00000032
00000000
00000100
00000000
00000010
00000000
00001000
00001003
,
00002000
00000000
00000010
00000000
00000001
00000000
00000100
00003100
,
00000200
00000000
00010000
00000000
00010300
00001000
01000000
00100000
,
10000000
10100000
00100000
01100000
,
01000000
00000000
01010000
00000000
01000000
00010000
00100000
00001000
,
01000000
01001000
00000000
00011000
,
00000000
00010100
00000000
00000110
,
00000000
00000011
00000000
00001100
,
00000000
00011000
00000000
01001000
,
02000000
03002000
00023000
00030200
,
00000010
00000010
00000010
00000010
,
00002000
00003320
00200030
00320000
,
01000000
01000000
01000000
01030000
;

//---------------dance-double - ----------------
#NOTEDATA:;
#CHARTNAME:;
#CHARTHASH:3492284336;
#STEPSTYPE:dance-double;
#BANNER:;
#DESCRIPTION:;
#CHARTSTYLE:;
#DIFFICULTY:Challenge;
#METER:14;
#METERF:0.000000;
#LASTSECONDHINT:143.182999;
#RADARVALUES:0.520881,0.571423,0.123135,0.465177,0.759333,533.000000,515.000000,18.000000,68.000000,23.000000,0.000000,2.000000,0.000000,0.000000,0.520881,0.571423,0.123135,0.465177,0.759333,533.000000,515.000000,18.000000,68.000000,23.000000,0.000000,2.000000,0.000000,0.000000;
#CREDIT:djfiBOO;
#NOTES:
// measure 0
00000000
00000000
00000000
00000000
,  // measure 1
00000000
00000000
00000000
00000000
,  // measure 2
00012000
00000000
00203000
00000000
00310000
00000000
00000000
00000000
01000000
00000000
00000000
00000000
00100000
10000000
00000000
10000000
,  // measure 3
01000000
00000000
01000000
00000000
00000000
00000000
10000000
01000000
00100000
01000000
00000000
01000000
00000000
10000000
00100000
00000000
,  // measure 4
01000000
00000000
00010000
01000000
00010000
00000000
00100000
00001000
00000000
00010000
00000000
00000000
00010010
00000000
00000010
00001000
,  // measure 5
00000010
00000000
00000100
00000001
00000000
00000000
00000002
00000000
00000103
00000000
00010000
00000000
00010000
01000000
00000000
10000000
,  // measure 6
00000000
00000000
01000000
00010000
01000000
00000000
00001000
00000100
00000000
00000001
00000000
00000100
00000000
00000001
00000100
00001000
,  // measure 7
00000000
00001000
01000000
00000000
01010000
00000000
00010000
00000000
01000000
00000000
00100000
10000000
02000000
00000000
03000000
00000000
,  // measure 8
10000000
01000000
00000000
00010000
00000000
00000000
00001000
00000010
00000000
00000001
00000000
00001000
00000000
00000100
00010000
00000000
,  // measure 9
00001000
00000000
00010000
01000000
00000000
00000000
01000000
10000000
00000000
10000000
00000000
01000000
00000000
10000000
00010000
00000000
,  // measure 10
00010000
01000000
00000000
01000000
00000000
00000000
01000000
00000000
01000000
00100000
00000000
00100000
00000000
00000000
00100000
10000000
,  // measure 11
00100000
10000000
00000000
00100000
00000000
00010000
00000000
00001000
00000000
00000010
00000000
00000001
00000000
00000000
00000001
00000010
,  // measure 12
00000001
00000010
00000000
00000100
00000000
00000000
00001000
00000010
00001000
00000010
00000000
00000100
00000000
00000000
00000100
00000001
,  // measure 13
00000100
00000001
00000000
00000100
00000000
00001000
00000000
00010000
00000000
01000000
00000000
20000000
00000000
00020000
30030000
00000000
,  // measure 14
10000000
00010000
10000000
00010000
01000000
00010000
01000000
00020000
00000000
01030000
00100000
01000000
00100000
10000000
00100000
10000000
,  // measure 15
00100000
10000000
00010000
02000000
00000000
00000000
03010000
00000000
00100000
00001000
00010000
00000200
00000000
00000000
00000310
00000000
,  // measure 16
00000010
00000100
00000010
00000100
00001000
00000100
00001000
00000200
00000000
00001300
00000010
00001000
00000010
00000100
00000010
00000100
,  // measure 17
00000010
00001000
00000001
00000200
00000000
00000000
00000310
00000000
00000010
00010000
00001000
01000000
00000000
00000000
00011000
00000000
,  // measure 18
0M020000
00030100
0M002M00
01003000
0M020000
00030100
00002M00
01000000
,  // measure 19
0M013000
01000000
10000000
00010000
00000000
00000000
10100000
00000000
01000000
00001000
00010000
00001000
00000000
00000000
00011000
00000000
,  // measure 20
00M02000
00103000
00M20000
00030010
000020M0
00103000
00M20000
00000010
,  // measure 21
000310M0
00000100
00000001
00000100
00000002
00000000
00000000
00000000
00000013
00000000
00000000
00000010
00000100
00000000
00000100
00000000
,  // measure 22
00002000
00000000
00000000
00000000
00003010
00000000
00000000
00000000
00010000
00000000
00000000
00001000
00000000
00100000
00010000
00000000
,  // measure 23
00200000
00000000
00000000
00000000
01300000
00000000
00000000
00000000
01000000
00000000
00000000
10000000
01000000
00000000
10000000
00000000
,  // measure 24
00200000
00000000
00000000
00000000
01300000
00000000
00000000
00000000
00010000
01000000
00100000
01000000
00020000
00000000
00000000
00000000
,  // measure 25
20030000
00000000
00000000
00000000
00000000
00000000
00000000
00000000
31000000
00000000
00000000
00000000
10000000
00000000
01000000
00000000
00000000
00000000
00100000
00000000
00000000
00000000
00100000
00010000
00000000
00000000
00000000
00000000
00100000
00000000
00000000
00000000
,  // measure 26
00010000
00000000
01000000
00001000
01000000
00000000
00001000
00010000
00000000
00000100
00000000
00001000
00000000
00000001
00000010
00000001
,  // measure 27
00000010
00000000
00001000
00000000
00000010
00000000
00000001
00000000
00000200
00000000
00000000
00000301
00000100
00000001
00000000
00000100
,  // measure 28
00000010
00000000
00001000
00000000
00000000
00000000
00000001
00000000
00000100
00000000
00001000
00010000
00000000
01000000
00000000
00000000
,  // measure 29
10000000
00000000
01000000
00000000
01100000
00000000
00100000
00000000
00010000
00000000
01000000
00001000
00000000
00010000
00000010
00000000
,  // measure 30
00001010
00000101
00000011
00001001
,  // measure 31
00000110
00000000
00001001
00000002
00000023
00002030
00023000
00230000
,  // measure 32
10300000
00000000
00000000
00000000
01000000
00000000
00000000
00000000
00100000
00000000
01000000
10000000
00000000
00000000
00000000
00000000
,  // measure 33
10000000
00000000
00010000
00000000
01000000
00010000
01000000
00010000
00000000
01000000
00M00000
01000000
00000000
10000000
00100000
01000000
,  // measure 34
00100000
00000000
00000000
00000000
01000000
00000000
00000000
00000000
00010000
00000000
00100000
00001000
00000000
00000000
00000000
00000000
,  // measure 35
00010000
00000000
00010000
00000000
00001000
00010000
00001000
00020000
00000000
00000000
00000000
00030010
00000000
00001000
00000001
00000000
,  // measure 36
00000001
00000010
00000000
00002000
00000000
00003000
00000000
00010000
01000000
10000000
00000000
20000000
00000000
30000000
00000000
10000000
,  // measure 37
00100000
00010000
00000000
00002000
00000000
00003000
00000000
00001000
00000100
00000001
00000000
00000002
00000000
00000003
00000000
00000100
,  // measure 38
00001000
00010000
00000000
00200000
00000000
00300000
00000000
10000000
01000000
00010000
00000000
00002000
00000000
00003000
00000000
00000010
,  // measure 39
00000001
00000100
00000000
00000200
00000000
00000300
00000000
00001000
00040000
00004000
00000000
00000000
00000000
00000000
00000000
00000000
,  // measure 40
00000000
00000000
00000000
00000000
00000000
00000000
00000000
00000000
00033000
00000000
00000000
00000000
00000000
00000000
00000000
00000000
00010000
00001000
00000000
00000000
01000000
00000000
00000000
00000000
00001000
00010000
00000000
00000000
00000100
00000000
00000000
00000000
,  // measure 41
00000100
00001000
00000100
00001000
00000010
00001000
00000010
00002000
00000000
00003010
00000100
00000010
00000100
00000001
00000100
00000001
,  // measure 42
00000100
00000001
00001000
00000020
00000000
00000000
00001030
00000000
00000100
00010000
00001000
00200000
00000000
00000000
01300000
00000000
,  // measure 43
01000000
00100000
01000000
00100000
00010000
00100000
00010000
00200000
00000000
00310000
01000000
00010000
01000000
00100000
01000000
00100000
,  // measure 44
01000000
00010000
10000000
00200000
00000000
00000000
01300000
00000000
01000000
00001000
00010000
00000010
00000000
00000000
00011000
00000000
,  // measure 45
000020M0
00103000
00M200M0
00030010
000020M0
00103000
00M20000
00000010
,  // measure 46
000310M0
00000010
00000001
00001000
00000000
00000000
00000101
00000000
00000010
00010000
00001000
00010000
00000000
00000000
00011000
00000000
,  // measure 47
00020M00
00030100
00002M00
01003000
0M020000
00030100
00002M00
01000000
,  // measure 48
0M013000
01000000
10000000
01000000
20000000
00000000
00000000
00000000
00100000
00000000
00000000
00000000
30020000
00000000
00000000
00000000
,  // measure 49
02030000
00000000
00000000
00000000
00010000
00000000
00000000
00000000
03001000
00000000
00000000
00000000
01001000
00000000
00001000
01000000
,  // measure 50
00002000
00010000
00000010
00003010
,  // measure 51
00000002
00000000
00000013
00000000
00000010
00001000
00010000
00100000
,  // measure 52
20000000
00000000
00000000
00000000
31000000
00000000
00000000
01000000
00000000
00000000
10000000
00000000
00100000
00000000
00100000
10000000
,  // measure 53
00200000
00000000
00000000
00000000
01300000
00000000
00000000
00010000
00000000
00100000
00000000
01000000
00000000
01000000
10000000
00000000
,  // measure 54
10000000
00010000
10000000
00010000
01000000
00010000
01000000
00020000
00000000
00130000
00001000
00100000
00001000
00010000
00001000
00010000
,  // measure 55
00000000
00010000
00000100
00010000
00000000
00000000
00000000
00000000
00000100
00001000
00000100
00001000
00000000
00000000
00000000
00000000
,  // measure 56
00000010
00000001
00000010
00000001
00001000
00000001
00001000
00000002
00000000
00000103
00000010
00000100
00000010
00001000
00000010
00001000
,  // measure 57
00000100
00010000
00000100
00010000
00000000
00000000
00000000
00000000
00001000
01000000
00001000
01000000
00000000
00000000
00000000
00000000
,  // measure 58
00200000
02300000
03000200
00000320
,  // measure 59
00000031
00000010
00000001
00000010
00000000
00000000
00000000
00000000
00000010
00000100
00000010
00000100
00000000
00000000
00000000
00000000
,  // measure 60
00000020
00000230
02000300
03200000
,  // measure 61
10300000
00100000
10000000
00100000
00000000
00000000
00000000
00000000
01000000
00010000
01000000
00010000
00000000
00000000
01001000
00000000
;
