#TITLE:Stalker's Tango;
#SUBTITLE:;
#ARTIST:Autoheart;
#TITLETRANSLIT:;
#SUBTITLETRANSLIT:;
#ARTISTTRANSLIT:;
#GENRE:;
#CREDIT:;
#MUSIC:Stalkers Tango.ogg;
#BANNER:Stalkers Tango-bn.png;
#BACKGROUND:Stalkers Tango-bg.png;
#CDTITLE:;
#SAMPLESTART:54.970;
#SAMPLELENGTH:16.000;
#SELECTABLE:YES;
#OFFSET:-0.970;
#BPMS:0.000=120.000;
#STOPS:;
#BGCHANGES:;
#FGCHANGES:;

//--------------- dance-single - Jenro (2022) ----------------
#NOTES:
     dance-single:
     Jenro (2022):
     Beginner:
     5:
     0,0,0,0,0:
0000
0000
0000
0000
,
0000
0000
0000
0000
,
0000
0000
0000
0000
,
0000
0000
0000
0000
,
0010
0010
0010
1000
,
0100
0100
0100
1000
,
0020
1000
0100
1000
,
0100
0000
0000
0030
,
0100
0100
0100
0001
,
0010
0010
0010
0001
,
0200
0001
0010
0001
,
0020
0000
0330
0000
,
1000
0001
1000
0001
,
1000
0001
1000
0001
,
1000
0001
1000
0001
,
2000
0000
0000
0000
,
3000
0001
0101
2000
,
3010
0100
0100
0100
,
0001
0010
0010
0010
,
1000
0100
0100
0100
,
0001
0010
1000
0100
,
0001
0001
0001
0010
,
1000
1000
1000
0100
,
0010
0010
0001
1000
,
0002
0000
0000
0003
,
1000
0100
0001
1000
,
1000
0010
0001
1000
,
1001
0001
0100
0001
,
0010
1000
0100
1000
,
0010
0100
0100
0100
,
2000
0000
0000
0000
,
3001
0100
1000
0010
,
1000
0100
0001
0010
,
0001
0100
1000
0010
,
0100
0000
0000
0000
,
0100
1000
0100
1000
,
0001
0001
0010
0010
,
0002
0100
1000
0103
,
0001
0000
0000
0000
,
1000
0001
1000
0020
,
0130
0100
0001
0001
,
2000
0001
0100
3001
,
1001
1001
1001
1001
,
1000
0001
1000
0001
,
1000
0001
1000
0001
,
1000
0001
1000
0001
,
2002
0000
0000
0000
,
3003
0001
0101
1001
,
1010
0100
0100
0100
,
0001
0010
0010
0010
,
1000
0100
0100
0100
,
0001
0010
1000
0100
,
0001
0001
0001
0010
,
1000
1000
1000
0100
,
0010
0010
0001
1000
,
0002
0000
0000
0003
,
0000
0110
0110
0110
,
1001
0110
1001
1001
,
1001
0001
0100
0001
,
0010
1000
0100
1000
,
0010
0100
0100
0100
,
2000
0000
0000
0000
,
3001
0100
1000
0010
,
1000
0100
0001
0010
,
0001
0100
1000
0010
,
0100
0000
0000
0000
;

//--------------- dance-single - Jenro (2022) ----------------
#NOTES:
     dance-single:
     Jenro (2022):
     Easy:
     8:
     0,0,0,0,0:
0000
0000
0000
0000
,
0000
0000
0000
0000
,
0000
0000
0000
0000
,
0000
0000
0000
0000
,
0020
0130
0002
0103
,
0020
0100
0031
0100
,
0020
0100
0001
0100
,
0001
0M00
000M
0M30
,
0000
2000
3002
0203
,
0300
2000
3002
0203
,
2300
0001
0001
0001
,
0100
000M
3M00
0000
,
0001
0010
0100
0000
1000
0010
0100
0000
,
0001
0000
0010
0000
0100
0000
1000
0010
,
0100
0000
0001
0010
0100
0000
1000
0000
,
0001
0001
0001
0001
,
0001
0000
1000
0001
1000
0001
1000
0001
,
0100
0010
0010
0010
1000
0100
0100
1000
,
0000
0001
0001
0100
0001
0001
0001
0000
,
0000
0010
0100
1000
0001
0001
1000
0100
,
0020
0001
1000
0001
,
1030
0001
1000
0100
1000
0100
0020
0000
,
0031
0100
0001
0100
0001
1000
0200
0000
,
1300
0010
0100
0100
0001
1000
0010
1000
,
0002
0100
1000
0100
,
1003
0001
0100
0100
0001
0001
0100
0100
,
0001
0001
0100
0100
0001
0001
0100
0100
,
0110
0110
0110
1001
,
0110
0110
0110
1001
,
0110
0110
0110
1001
,
0220
0000
0000
0330
,
0001
0100
1000
0100
0002
0000
1003
0000
,
1000
0100
0001
0100
2000
0000
3001
0000
,
0100
0100
0100
0100
,
1001
0000
0000
0000
,
0200
0310
2000
3010
,
0200
0010
1300
0010
,
0200
0010
1000
0010
,
1000
00M0
M000
03M0
,
0000
0002
2003
3020
,
0030
0002
2003
3020
,
0032
1000
1000
1000
,
0010
M000
00M3
0000
,
1000
0100
0010
0000
0001
0100
0010
0000
,
1000
0000
0100
0000
0010
0000
0001
0100
,
0010
0000
1000
0100
0010
0000
0001
0000
,
1000
1000
1000
1000
,
1000
0000
0001
1000
0001
1000
0001
1000
,
0010
0100
0100
0100
0001
0010
0010
0001
,
0000
1000
1000
0010
1000
1000
1000
0000
,
0000
0100
0010
0001
1000
1000
0001
0010
,
0200
1000
0001
1000
,
0301
1000
0001
0010
0001
0010
0200
0000
,
1300
0010
1000
0010
1000
0001
0020
0000
,
0031
0100
0010
0010
1000
0001
0100
0001
,
2000
0010
0001
0010
,
3001
1000
0010
0010
1000
1000
0010
0010
,
1000
1000
0010
0010
1000
1000
0010
0010
,
0110
0110
0110
1MM1
,
0110
0110
0110
1MM1
,
0110
0110
0110
1MM1
,
0220
0000
0000
0330
,
1000
0010
0001
0010
2000
0000
3001
0000
,
0001
0010
1000
0010
0002
0000
1003
0000
,
0010
0010
0010
0010
;

//--------------- dance-single - Jenro (2022) ----------------
#NOTES:
     dance-single:
     Jenro (2022):
     Medium:
     11:
     0,0,0,0,0:
0000
0000
0000
0000
,
0000
0000
0000
0000
,
0000
0000
0000
0000
,
0000
0000
0000
0000
,
0001
1000
1000
0010
0100
0100
0100
0001
,
0010
0100
0100
0100
1000
1000
0100
0001
,
0001
1000
1000
0001
1000
0010
0100
0001
,
0020
0000
0000
0030
,
1100
0001
0010
0010
0001
0001
0100
0100
,
0010
0010
0001
1000
1000
0001
0100
0100
,
0100
0100
0100
0010
0100
0010
0100
0001
,
1000
0000
0100
0000
0001
0100
0010
0100
,
1000
0100
0010
0001
1000
0100
0010
0001
,
1000
0100
0010
0001
1000
0100
0010
0001
,
1000
0100
0010
0001
1000
0100
0010
0001
,
2000
0000
0010
0000
0001
0000
0100
3000
,
1000
0000
0001
0100
0001
0100
0002
0000
,
0013
0100
1000
1000
0100
1000
0010
0001
,
0000
1000
0100
1000
0001
0010
0200
0000
,
1300
0010
0010
0100
0010
0010
0010
0100
,
0002
0000
0020
0030
1000
0000
0020
0033
,
1000
0010
0001
0001
0010
0001
0100
1000
,
0000
0001
0010
0001
1000
0100
0020
0000
,
0031
0100
0100
0010
0100
0100
0100
0010
,
2000
0000
0200
0300
0001
0000
0200
3300
,
0001
1000
1000
0100
1000
1000
1000
0100
,
1000
1000
1000
1000
0110
1000
0110
0001
,
1001
0110
0011
0011
,
1001
0000
0000
0000
0110
0000
0000
0000
0011
0000
0001
0000
0000
0011
0000
0000
,
1001
0110
0011
0011
,
0100
1000
0001
0100
0010
1000
0001
0100
0010
0001
0010
1000
,
1001
0110
0011
0011
,
1001
0000
0000
0000
0110
0000
0000
0000
0011
0000
0001
0000
0000
0011
0000
0000
,
1001
0110
0011
0011
,
2000
3000
0000
0000
0000
0000
0000
0000
,
0000
0001
0001
0100
0010
0010
0010
1000
,
0100
0010
0010
0010
0001
0001
0010
1000
,
1000
0001
0001
1000
0001
0100
0010
1000
,
0200
0000
0000
0300
,
0011
1000
0100
0100
1000
1000
0010
0010
,
0100
0100
1000
0001
0001
1000
0010
0010
,
0010
0010
0010
0100
0010
0100
0010
1000
,
0001
0000
0010
0000
1000
0010
0100
0010
,
0001
0010
0100
1000
0001
0010
0100
1000
,
0001
0010
0100
1000
0001
0010
0100
1000
,
0001
0010
0100
1000
0001
0010
0100
1000
,
0002
0000
0100
0000
1000
0000
0010
0003
,
0001
0000
1000
0010
1000
0010
2000
0000
,
3100
0010
0001
0001
0010
0001
0100
1000
,
0000
0001
0010
0001
1000
0100
0020
0000
,
0031
0100
0100
0010
0100
0100
0100
0010
,
2000
0000
0200
0300
0001
0000
0200
3300
,
0001
0100
1000
1000
0100
1000
0010
0001
,
0000
1000
0100
1000
0001
0010
0200
0000
,
1300
0010
0010
0100
0010
0010
0010
0100
,
0002
0000
0020
0030
1000
0000
0020
0033
,
1000
0001
0011
0010
0110
0100
1100
1000
,
1001
1000
1010
0010
0110
0100
0101
1000
,
1001
0000
0110
0000
1100
0000
1100
0001
,
1001
0000
0000
0000
0110
0000
0000
0000
1100
0000
1000
0000
0000
1100
0000
0000
,
1001
0000
0110
0000
1100
0000
1100
0001
,
0202
0300
0000
0003
,
1001
0000
0110
0000
1100
0000
1100
1000
,
1001
0000
0000
0000
0110
0000
0000
0000
1100
0000
1000
0000
0000
1100
0000
0000
,
1001
0000
0110
0000
1100
0000
1100
0001
,
0002
0003
0000
0000
;

//--------------- dance-single - Jenro (2022) ----------------
#NOTES:
     dance-single:
     Jenro (2022):
     Hard:
     15:
     0,0,0,0,0:
0000
0000
0000
0000
,
0000
0000
0000
0000
,
0000
0000
0000
0000
,
0000
0000
0000
0000
,
0000
0000
0001
0000
1000
0000
0001
0000
1000
0000
0001
0000
0100
0010
0100
0010
,
0100
0000
0001
0000
1000
0000
0001
0000
1000
0000
0001
0000
0100
0010
0100
0010
,
0100
0000
0001
0000
1000
0000
0001
0000
1000
0000
0001
0000
0100
0010
0001
1000
,
0200
0000
0000
0300
,
0000
0000
0100
0000
0010
0000
0001
0000
1000
0000
0100
0000
0001
1000
0001
1000
,
0001
0000
0100
0000
0010
0000
0001
0000
1000
0000
0100
0000
0001
1000
0001
1000
,
0001
0000
0100
0000
0010
0000
0001
0000
1000
0000
0100
0000
0001
1000
0001
1000
,
0001
0000
0000
0000
0001
0000
0000
0000
0001
0000
0001
0100
0001
0100
0001
0000
,
0010
0100
1000
0100
0010
0001
1000
0100
0010
0100
1000
0100
0010
0001
1000
0100
,
0010
0100
1000
0100
0010
0001
1000
0100
0010
0100
1000
0100
0010
0001
1000
0100
,
0010
0100
1000
0100
0010
0001
1000
0100
0010
0100
1000
0100
0010
0001
1000
0100
,
2000
0010
0001
0100
,
3002
0000
0000
0000
0103
0010
1000
0001
0100
0010
1000
0000
0001
0000
0000
0000
,
0110
0000
0010
0001
0100
0000
0010
0001
0100
0000
0010
0100
1000
0000
1000
0000
,
0001
0000
0100
0001
0010
0000
0100
0001
0010
0000
0100
0010
1000
0000
1000
0000
,
0001
0000
0100
1000
0010
0000
0100
1000
0010
0000
0100
0010
0001
0000
0001
0000
,
1000
0000
0010
0000
0001
0010
0001
0000
1000
0000
0010
0000
0001
0010
0001
0000
,
1000
0000
0100
1000
0100
1000
0100
0000
1000
0010
1000
0000
0010
1000
0010
0000
,
0100
0000
0100
0001
0100
0001
0100
0000
0001
0010
0001
0000
0010
0001
0010
0000
,
0100
0000
0010
1000
0010
1000
0010
0000
1000
0100
1000
0000
0100
1000
0100
0000
,
0010
0000
0010
0000
0010
0001
0010
0000
0010
0000
0010
0000
0010
0001
0010
0000
,
1000
0000
0001
0100
0001
0010
0100
1000
0010
0100
0001
0100
1000
0100
1000
0001
,
1000
0000
0001
0100
0001
0010
0100
1000
0010
0100
0001
0100
1000
0100
1000
0000
,
0102
0000
0003
0000
0202
0000
0303
0000
0202
0000
0303
0000
0100
0001
0100
0001
,
0101
0000
0000
0000
0110
0000
0000
0000
2010
0000
3001
0000
0000
0110
0000
0000
,
0101
0001
0101
0001
0101
1000
2000
0000
,
3100
1000
0001
0100
0010
1000
0001
0100
0010
0001
0010
1000
,
0100
0000
0000
0000
0110
0000
0000
0000
1100
0000
0000
0000
1000
0001
0010
0001
,
1000
0000
0000
0000
0110
0000
0000
0000
2100
0000
3002
0000
0000
0103
0000
0000
,
0110
0110
0110
0110
,
1001
0000
0000
0000
,
0000
0000
1000
0000
0100
0000
0001
0000
1000
0000
0100
0000
0001
0010
0100
1000
,
0100
0000
0001
0000
0100
0000
1000
0000
0001
0000
0100
0000
1000
0010
0100
0001
,
0100
0001
0100
1000
0100
0001
0100
0001
,
1000
0100
0010
0100
1000
0010
0100
1000
,
0001
0001
0100
0001
0001
0001
0100
0001
,
0010
0100
0100
1000
0100
0100
1000
0100
,
0100
1000
0001
0100
0001
1000
0100
0010
,
0001
1000
0001
1000
0010
0100
0001
0100
0001
0010
0001
1000
0100
0000
0010
0000
,
0001
0010
0001
1000
0010
1000
0001
0100
0001
1000
0100
1000
0001
0010
0001
1000
,
0010
1000
0001
0100
0001
1000
0100
1000
0001
0010
0001
1000
0010
1000
0001
0100
,
0001
1000
0100
1000
0001
0010
0001
1000
0010
1000
0001
0100
0001
1000
0100
1000
,
0100
0000
0100
0000
0100
0000
0100
0000
0100
0000
0100
0000
0100
0010
0001
1000
,
0200
0000
0300
0000
1M00
0001
1000
0001
1000
0001
1000
0000
0010
0100
0010
0000
,
0110
0000
0001
0100
0010
1000
0001
0100
0010
1000
0001
0100
0010
2000
0000
0000
,
3100
0000
1000
0100
0010
0001
1000
0100
0010
0001
1000
0100
0010
0002
0000
0000
,
0103
0000
0001
0010
0100
1000
0001
0010
0100
1000
0001
0010
0100
2000
0000
0000
,
3010
0000
1000
0010
0100
0001
1000
0010
0100
0001
1000
0010
0100
0002
0000
0000
,
0013
0000
1000
0100
1000
0100
1000
0010
1000
0010
1000
0001
0200
0000
0000
0000
,
0310
0000
0001
0100
0001
0100
0001
0010
0001
0010
0001
1000
0200
0000
0000
0000
,
0310
0000
1000
0010
1000
0010
1000
0100
1000
0100
1000
0001
0020
0000
0000
0000
,
0130
0000
0001
0010
0001
0010
0001
0100
0001
0100
0001
1000
0020
0000
0000
0000
,
0130
0000
1000
0001
0100
0010
1000
0001
0010
0100
1000
0001
0100
0010
1000
0001
,
0010
0100
1000
0001
0100
0010
1000
0001
0010
0100
1000
0001
0100
0010
1000
0001
,
0010
0000
0100
0000
0110
0000
0100
0000
0110
0000
0100
0000
1000
0100
0001
0100
,
1000
0000
0010
0000
0110
0000
0010
0000
0110
0000
0010
0000
0001
0100
1000
0100
,
0001
0100
0110
0010
0110
0100
0110
0010
,
0220
0000
0000
0330
,
1000
0000
0001
0010
0100
0000
0010
0001
0100
0000
0001
0100
1000
0000
0010
0000
,
0100
0000
0100
1000
0010
0000
0100
1000
0100
0000
0100
1000
0010
0000
0100
1000
,
0001
0000
0001
0000
1000
0000
1000
0000
0001
0000
0100
0000
0010
0000
0001
1000
,
0001
0000
0000
0000
;
