#TITLE:Spooky Jack (And His Living Dead Symphony);
#SUBTITLE:;
#ARTIST:Varien & Razihel;
#TITLETRANSLIT:;
#SUBTITLETRANSLIT:;
#ARTISTTRANSLIT:;
#GENRE:;
#CREDIT:Braeden;
#MUSIC:Spooky Jack (And His Living Dead Symphony).ogg;
#BANNER:Spooky Jack-ban.png;
#JACKET:Spooky Jack-jacket.png;
#BACKGROUND:Spooky Jack-bg.png;
#CDTITLE:;
#SAMPLESTART:71.073;
#SAMPLELENGTH:11.045;
#SELECTABLE:YES;
#OFFSET:-0.345;
#BPMS:0.000=173.987;
#STOPS:;
#BGCHANGES:;
#FGCHANGES:;

//--------------- dance-single - ----------------
#NOTES:
     dance-single:
     :
     Beginner:
     4:
     0,0,0,0,0:
0000
0000
0000
0000
,
0000
1001
0000
1000
,
0000
0001
0000
0100
,
0000
0010
0000
1000
,
0000
0001
0000
1000
,
0000
0001
0000
0100
,
0000
0010
0000
1000
,
0000
0001
0000
0100
,
0000
0010
0000
1000
,
0000
1001
0000
0001
,
0000
0100
0000
0010
,
0000
1000
0000
0001
,
0000
0100
0000
0001
,
0000
1000
0000
0010
,
0000
1000
0000
0001
,
0000
0100
0000
0001
,
0000
1000
0000
0001
,
0000
1001
0000
1000
,
0000
0001
0000
1000
,
0000
0001
0000
1000
,
0000
0100
0000
0010
,
0000
0001
0000
0100
,
0000
0010
0000
1000
,
0000
0001
0000
0001
,
0000
1000
0000
0001
,
0000
1000
0000
0000
,
0000
0001
0000
0000
,
0000
0100
0000
0010
,
0000
0010
0000
0010
,
0000
0100
0000
0010
,
0010
0010
0000
0100
,
0100
0100
0000
0010
,
0010
0010
0010
0010
,
0010
0010
0000
0100
,
0100
0000
0000
0010
,
0010
0010
0000
0100
,
0100
0100
0100
0100
,
0100
0100
0000
1000
,
0000
0001
0000
1000
,
0000
0001
0000
1000
,
1000
1000
1000
1000
,
1000
1000
0000
0001
,
0000
0100
0000
0010
,
0000
1000
0000
0002
,
0000
0000
0003
1000
,
1000
1000
0000
0010
,
0000
0100
0000
0001
,
0000
1000
0000
0020
,
0000
0000
0030
0100
,
0100
0100
0000
0100
,
0000
0010
0000
0100
,
0100
0100
0000
0002
,
0000
0000
0003
1000
,
1000
1000
0000
0001
,
0000
0100
0000
0010
,
0000
1000
0000
0020
,
0000
0000
0030
0100
,
0000
0001
0000
1000
,
0000
0001
0000
1000
,
0000
0001
0000
0001
,
0000
1000
0000
1000
,
0000
0001
0000
1000
,
0000
0100
0000
1000
,
0000
0001
0000
0010
,
0000
0001
0000
0100
,
0000
0010
0000
1000
,
0000
0001
0000
0100
,
0000
0001
0000
1001
,
0000
0100
0000
0010
,
0000
0100
0000
0001
,
0000
1000
0000
0001
,
0000
0100
0000
0001
,
0000
1000
0000
0010
,
0000
1000
0000
0010
;

//--------------- dance-single - ----------------
#NOTES:
     dance-single:
     :
     Easy:
     7:
     0.303889,0.378114,0.221231,0.323338,0,186,26,38,0,0,0,0.303889,0.378114,0.221231,0.323338,0,186,26,38,0,0,0:
0000
0000
0000
0000
,
0000
1001
0001
1000
,
0010
1000
0001
0100
,
0010
0010
0100
1000
,
0001
0100
0100
0010
,
0100
0100
0001
1000
,
0001
0010
0010
0100
,
1000
1000
0001
0100
,
0010
1000
0001
0100
,
0100
0110
0010
1000
,
0001
1000
1000
0010
,
0100
0001
0001
0100
,
0010
1000
0001
0010
,
0100
0100
0010
0100
,
1000
1000
0001
0100
,
0010
0010
1000
0001
,
0100
0010
1000
0100
,
0010
0001
0001
0001
,
0001
0100
0100
0100
,
0100
0001
0001
0001
,
0001
1000
1000
1000
,
1000
0010
1000
0010
,
1000
0010
1000
0001
,
1000
0010
0010
0100
,
0100
0001
0001
1000
,
1000
1001
0000
0000
,
0000
0000
0000
0000
,
0000
2001
0000
3001
,
0000
1000
0000
0001
,
0100
0001
0001
0100
,
0100
0010
0010
1000
,
0001
0100
0010
0100
,
0100
0100
0100
0100
,
0010
0010
1000
0002
,
0003
1000
1000
0001
,
0100
0020
1030
0100
,
0100
1000
1000
0010
,
0100
0100
0001
0020
,
0031
0001
0100
0002
,
1003
0001
0100
0010
,
0100
0001
1000
0001
,
1000
1000
0001
0100
,
0001
0010
0010
0010
,
0010
0002
0103
0020
,
0000
0000
0000
1030
,
0100
0100
0010
0002
,
0103
0100
0010
2000
,
3001
0100
0010
0200
,
0000
0000
0000
0301
,
1000
0001
0100
0020
,
0130
0100
0001
1000
,
0010
0100
0000
2200
,
0000
0300
0000
3001
,
1000
0001
1000
0020
,
1030
1000
0001
0200
,
0310
0010
0100
0002
,
0000
0000
0000
0103
,
0010
0010
0100
0001
,
0100
0010
1000
0001
,
1000
0001
0000
1000
,
0000
0001
0000
0100
,
0000
0010
0000
1000
,
0000
0100
0000
0010
,
0010
0001
0000
0100
,
0000
0010
0000
1000
,
0000
0001
0000
0100
,
0000
0010
0000
1000
,
0001
1000
0000
1001
,
0000
0100
0000
0010
,
0000
1000
0000
1001
,
0000
0001
0000
1000
,
0010
0100
0000
0101
,
0000
0001
0000
0101
,
0000
0100
0000
0110
,
0000
0010
0000
1000
,
0000
0200
0000
0000
,
0000
0000
0300
0000
;

//--------------- dance-single - JA ----------------
#NOTES:
     dance-single:
     JA:
     Medium:
     12:
     0.431523,0.446611,0.297812,0.46799,0.008509,265,35,55,0,0,0,0.431523,0.446611,0.297812,0.46799,0.008509,265,35,55,0,0,0:
0000
0000
0000
0000
,
0000
0001
1000
1001
,
1000
0001
0100
0101
,
0100
0010
1000
1001
,
0001
0100
0010
1010
,
1000
0001
0100
0000
0010
0000
1010
0000
,
1000
0001
0001
1001
,
1000
0001
1000
0000
0001
0000
0101
0000
,
0100
0020
1030
1001
,
0001
1001
1000
1010
,
0010
0100
0100
0101
,
0001
0001
1000
1001
,
0001
0100
0010
1001
,
0010
0010
0001
0101
,
0100
0010
0010
1010
,
1000
1000
0001
0101
,
0100
0010
1000
0001
,
1000
0000
0001
1000
0100
1000
0000
0001
,
0010
0001
0000
1000
0010
1000
0000
0001
,
0010
0001
0000
1000
0100
0010
0000
0001
,
0010
0100
0000
1000
0010
1000
0000
0001
,
0100
0001
1000
0000
0010
0000
0100
0000
,
0001
0100
0001
0100
,
0010
0000
1000
1000
0010
0010
0100
0100
,
0001
0001
0100
0100
0001
0001
1000
0010
,
1000
0001
0100
0000
0010
0000
1000
0000
,
0001
0100
0001
0010
,
0001
0000
0000
0200
0000
0000
0000
0000
0000
0301
0000
0001
,
0000
0001
0000
1000
0000
1000
0000
1000
0000
0010
0000
0000
,
0100
0000
0001
0001
0200
0000
0310
1000
,
0010
0010
0100
0001
0200
0000
0310
0000
,
1000
1000
0002
0000
1003
0010
0100
0100
,
0100
0100
0100
0100
0100
0100
0100
0100
,
0010
0010
0100
0001
2000
0000
3020
0000
,
1030
1000
0001
0100
0100
0000
0001
1000
,
0001
0001
0200
0000
0310
1000
0001
0001
,
0001
0100
0001
0001
0100
0100
0001
0001
,
1000
1000
0001
0100
0002
0000
1003
0010
,
1000
1000
0001
0100
0001
0000
0200
0000
,
0310
0010
2000
3000
0001
1000
0010
0010
,
0010
0000
1000
1000
0010
0010
0100
0001
,
0010
0010
0002
0000
2003
0000
3020
0000
,
0230
0000
0310
0010
1000
1000
0001
0001
,
1000
0001
0200
0300
0001
1000
0020
0000
,
0000
0000
0000
0000
0000
0130
0100
0100
,
0001
0001
1000
0001
1000
0000
2000
0000
,
3001
0001
1000
0010
0100
0000
0002
0000
,
1003
1000
0002
0003
0100
0001
0020
0000
,
0000
0000
0000
0000
0000
0031
0001
0001
,
1000
1000
0001
0100
0010
0000
2000
0000
,
3001
0001
0100
0010
1000
0000
0001
0000
,
1000
1000
0001
0000
0000
0000
0201
0000
,
0000
0000
0000
0000
0000
0301
0001
0001
,
1000
1000
0001
0100
0010
0000
2000
0000
,
3100
0100
0010
0001
1000
0000
0020
0000
,
1030
1000
0002
0003
0100
0010
1000
0001
,
1000
0010
0100
0000
0001
0100
0100
0100
,
0010
0010
1000
0000
0001
0000
1000
0000
,
0001
1000
0100
0010
0001
0100
0010
1000
,
0100
0010
0001
0000
1000
0000
1001
0000
,
0001
0000
0100
0010
0100
0000
0101
0000
,
0001
0100
0010
1010
,
1000
0000
0001
0100
0001
1000
1000
0000
,
0001
1000
0001
0101
,
0100
0000
0010
1000
0001
0000
1000
0001
,
0100
0010
1000
1010
,
1000
0000
0001
0000
0100
0001
0001
1000
,
0001
0100
0010
0000
1000
0000
1001
0000
,
0001
0000
0100
0010
1000
0000
0001
0000
,
1000
0001
0100
0000
0010
0000
1010
0000
,
1000
0000
0001
0000
0100
0001
0001
1000
,
0010
1000
0001
0100
0001
0000
1010
0000
,
1000
0000
0001
0010
0001
0000
0001
0100
,
0010
1000
0001
0000
1000
0000
1001
0000
,
0001
0000
0100
0000
0001
1000
1000
0010
,
0100
0000
0001
0000
0000
0100
0000
0000
0010
0000
0000
1000
0000
0000
0001
0000
,
0000
0001
0000
0000
0100
0000
0000
0000
0000
0000
0000
0000
0000
0000
0000
0000
;

//--------------- dance-single - JA+ FS ----------------
#NOTES:
     dance-single:
     JA+ FS:
     Hard:
     15:
     0.52269,0.738573,0.502025,0.442463,0.136142,319,59,52,0,0,4,0.52269,0.738573,0.502025,0.442463,0.136142,319,59,52,0,0,4:
0000
0000
0000
0000
,
0000
0000
0000
0000
1001
0000
1000
0000
0001
0000
0001
0010
0100
0000
0100
0000
,
1000
0000
1000
0000
0001
0000
0001
0000
0010
0000
0010
0100
1000
0000
0010
0000
,
1000
0000
0100
0000
0010
0000
0100
0000
1000
0000
0100
0010
0001
0000
0100
0000
,
0010
0000
1000
0000
0100
0000
0100
0000
0010
0000
0010
0001
1000
0000
1000
0000
,
0001
0000
0001
0000
0001
0000
0010
0000
0100
0000
1000
0001
1000
0000
0100
0000
,
0010
0000
0100
0000
1000
0000
0001
0000
1000
0000
0001
0010
0100
0000
1000
0000
,
0100
0000
0100
0000
0100
0000
1000
0000
0010
0000
0100
0001
0100
0000
0010
0000
,
0100
1000
0100
0010
0001
0010
0011
0000
,
0010
0000
0000
0000
0010
0000
0100
0000
0100
0000
1000
0001
1000
0000
0100
0000
,
1000
0000
0100
0000
0020
0000
0001
0000
0031
0000
1000
0100
2000
0000
0000
0000
,
0001
0000
3000
0000
2000
0000
0000
0000
3100
0000
0010
0100
0010
0000
0001
0000
,
1000
0001
0100
0010
1000
0010
1010
0000
,
1000
0000
0000
0000
1000
0000
0001
0000
1000
0000
1000
0010
0200
0000
0301
0000
,
1000
0000
0100
0000
1000
0000
0100
0000
0010
0000
0100
0010
0001
0000
1000
0000
,
0001
0000
0000
0000
0010
0000
0001
0000
1000
0000
0100
0010
0100
0000
0010
0000
,
0001
1000
0001
0010
0100
1000
1100
0000
,
1000
0000
1001
1000
0001
0010
0M00
0010
,
1000
0100
00M0
0100
0001
0010
0M00
0010
,
1000
0001
1001
1000
0100
0010
0M00
0010
,
1000
0100
000M
0100
0001
0100
000M
0100
,
1000
0100
1100
0000
1000
0000
0001
0000
,
0010
0100
1000
0001
,
0010
0000
0001
0001
0001
0001
0100
0100
,
0100
0000
0100
0000
0010
0000
0010
0000
0010
0000
0010
0000
1000
0100
1000
0010
,
0100
0001
1000
0001
0010
0000
0000
0000
0001
0000
0000
0000
1000
0000
0000
0000
,
0010
1000
0001
1000
,
1001
0000
0000
0000
0000
0000
0202
0000
0000
0000
0000
0000
0000
0000
0000
0303
0000
0000
0001
0000
0000
0000
0001
0000
,
0000
0000
0001
0000
0000
0000
1000
0000
0000
0000
1000
0000
0000
0000
1000
0000
0000
0000
0001
0000
0000
0100
0000
0000
,
0010
1000
0001
0001
0020
0000
0130
1000
,
0001
0001
0020
0100
0230
0000
1300
0001
,
1000
0000
0001
0010
0004
0000
0003
0000
1000
0000
1000
0001
0100
0000
0100
0000
,
0100
0100
0100
0100
0100
0100
0100
0100
,
0010
0010
1000
0001
1001
0000
2000
3100
,
0010
0010
0100
1000
0200
0300
1000
0100
,
1000
0000
0001
1000
0400
0000
0300
0000
0110
0000
0010
0001
0100
0000
0100
0000
,
0100
0010
1000
1000
0100
0100
0100
0010
,
0001
0001
1000
0100
0040
0000
0031
1000
,
0100
0100
1000
0100
2200
3300
2000
0010
,
3100
0000
0100
0010
4000
0000
3000
0000
1000
0000
0001
0010
0001
0100
0010
1000
,
0001
0000
1000
0010
0100
0001
1000
0000
0001
0010
0100
1000
0001
0000
1000
0010
,
1000
0100
0010
0000
0001
0000
1000
0000
0001
0000
0100
0000
0010
0000
1000
0000
,
0001
0100
0010
0010
0100
0100
0010
0010
,
0100
0001
0100
0001
0200
0000
0000
0000
0310
0000
1000
0001
2000
0000
0000
0000
,
0000
0000
0010
0000
0000
0100
0100
3100
,
0010
0010
0001
0200
0310
0000
2020
3030
,
0010
0010
1000
0002
0103
0000
0220
0330
,
0010
0000
0010
0000
2000
0000
0000
0000
3100
0000
1000
0100
2000
0000
0000
0000
,
0000
0000
0100
0000
0000
0010
0010
3010
,
0100
0100
0001
2000
3010
0000
0220
0330
,
0100
0100
0001
2000
3001
0000
0100
0000
,
0010
0010
2000
0000
3000
0000
2002
0000
,
3000
0000
1000
0000
0000
0010
0010
0013
,
0100
0100
0010
0200
1300
0000
2002
3003
,
0001
0001
1000
0200
0310
0000
0220
0330
,
0100
0000
0100
0000
2000
0000
0000
0000
3001
0000
0100
0010
1000
0000
0100
0000
,
0010
0100
1000
0000
1000
0100
0100
0100
,
0010
0010
0100
0000
0001
0000
1000
0000
,
0010
1000
0010
0010
0100
0100
0001
0001
,
1000
0010
1000
0010
0100
0000
0100
0000
0001
0000
1000
0001
1000
0000
0010
0000
,
1000
0000
0001
0000
0010
0000
0100
0000
1000
0000
0001
1000
0001
0000
1000
0000
,
0001
0100
0010
0000
1000
0000
0010
0000
0100
0000
0001
1000
0100
0000
1000
0000
,
0100
0010
0001
0100
0010
1000
0001
1000
,
0001
0010
0001
0000
0010
0000
0001
0000
0100
0000
0010
1000
0010
0000
0100
0000
,
0001
0000
1000
0000
0010
0000
0100
0000
0001
0000
1000
0001
1000
0000
0100
0000
,
1000
0010
1000
0000
0010
0000
0100
0000
0001
0000
1000
0001
1000
0000
0001
0000
,
0010
0001
0100
0010
1000
0100
0100
0010
,
0001
1000
0100
0000
0010
0000
0001
0000
1000
0000
0001
0000
1001
0000
1000
0000
,
0010
0000
0100
0000
0001
0000
0010
0000
0001
0000
1000
0010
1000
0000
0100
0000
,
0010
0100
1000
0000
0010
0000
0100
0000
0001
0000
1000
0001
1000
0000
0001
0000
,
0100
0010
1000
0001
0010
0100
0100
0010
,
0001
1000
0001
0000
0010
0000
0100
0000
1000
0000
0001
1000
0100
0000
0010
0000
,
0100
0000
1000
0000
0010
0000
1000
0000
0001
0000
1000
0001
0010
0000
0100
0000
,
1000
0001
1000
0000
0010
0000
1000
0000
0001
0000
1000
0001
1000
0000
0001
0000
,
0100
0010
1000
0001
0010
0100
0100
1000
,
0001
1000
0100
0000
0000
0100
0000
0000
0010
0000
0000
0001
0000
0000
1000
0000
,
0000
0001
0000
0000
0010
0000
0000
0001
0000
0000
0020
0000
0000
0000
0000
0000
,
0000
0000
0030
0000
;

//--------------- dance-single - JA+ BR BU FS- ----------------
#NOTES:
     dance-single:
     JA+ BR BU FS-:
     Challenge:
     17:
     0,0,0,0,0:
0000
0000
0000
0000
,
0000
0000
0000
0000
1001
0000
0001
0000
1000
0000
1000
0010
0100
0000
0100
0000
,
0001
0000
0001
0000
1001
0000
1000
0000
0010
0000
0010
0100
0001
0000
0010
0000
,
0001
0000
1000
0000
0001
0000
0100
0000
0001
0000
0100
0010
1000
0000
0100
0000
,
0010
0000
0001
0000
0100
0000
0100
0000
0010
0000
0010
1000
0001
0000
0001
0000
,
1000
0000
1000
0000
1000
0000
0010
0000
0100
0000
0001
1000
0001
0000
0100
0000
,
0010
0000
0100
0000
0101
0000
0001
0000
1000
0000
0001
1000
0010
0000
0100
0000
,
0001
0000
0001
0000
0001
0000
0100
0000
0010
0000
1000
0001
1000
0000
0010
0000
,
0100
0001
0101
0100
0010
1000
1010
0000
,
0010
0000
0000
0000
0110
0000
0100
0000
0100
0000
0001
1000
0001
0000
0100
0000
,
0001
0000
0100
0000
0020
0000
1000
0000
1030
0000
0001
0100
0002
0000
1000
0000
,
1000
0000
1003
0000
0002
0000
0100
0000
0100
0000
0103
0010
0100
0000
0010
0000
,
1000
0001
1000
0100
0010
0001
0011
0000
,
0001
0000
0000
0000
1001
0000
1000
0000
0001
0000
0001
0010
0200
0000
1300
0000
,
0001
0000
0100
0000
0101
0000
0001
0000
0100
0000
0100
0010
1000
0000
0001
0000
,
1000
0000
0010
0000
1010
0000
1000
0000
0001
0000
0100
0010
0100
0000
0010
0000
,
1000
0001
1000
0010
0100
0001
0101
0001
,
0100
0000
0010
0000
1010
0000
1000
0100
0010
0001
1000
0100
1000
0000
0001
0100
,
0001
0010
0001
1000
0010
0000
0100
0001
0010
0001
0100
0010
1000
0000
0001
0010
,
0100
1000
0001
0100
0011
0000
1000
0100
0010
0001
0100
0010
1000
0000
0001
0010
,
0100
0010
0001
0010
0100
0000
1000
0100
0010
0100
1000
0100
0010
0000
0001
0010
,
0001
0100
0010
1000
0101
0000
1000
0100
1000
0010
0100
0001
0010
0000
0001
0100
,
0010
1000
0001
1000
0100
0000
1000
0010
1000
0001
0010
0001
1000
0000
0001
0010
,
0001
1000
0001
0010
0001
0000
0001
0000
0001
0000
0001
0000
0100
0000
0100
0000
,
0100
0000
0100
0000
0010
0000
0010
0000
0010
0000
0010
0000
1000
0100
1000
0100
,
1000
0010
0100
0001
0100
0010
1000
0000
0000
0000
0000
0000
0001
0000
0000
0000
0000
0000
1000
0000
0000
0000
0000
0000
,
0010
1000
0001
1000
,
1001
0000
0000
0000
0000
0000
0404
0000
0000
0000
0000
0000
0000
0000
0000
0303
0000
0000
0101
0000
0000
0000
0101
0000
,
0000
0000
0101
0000
0000
0000
1010
0000
0000
0000
1010
0000
0000
0000
1010
0000
0000
0000
1000
0000
0000
0100
0000
0000
,
0010
0001
1000
1000
0020
0000
0130
0001
,
1000
1000
0020
0100
0230
0000
0301
1000
,
0001
0000
1000
0010
4000
0000
3000
0000
0001
0000
0001
1000
0100
0000
0100
0000
,
0100
0100
0100
0100
0100
0100
0100
0100
,
0010
0000
0010
0000
0001
0000
1000
0000
1001
0000
0001
1000
0020
0000
0130
0000
,
0010
0010
0100
0001
0200
0300
0101
0001
,
1001
0000
1000
0001
0400
0000
0300
0000
0110
0000
0010
1000
0100
0000
0100
0000
,
0100
0010
0001
0001
0100
0100
0100
0010
,
1000
1000
0001
0100
0040
0000
1030
0001
,
0100
0100
0001
0100
0202
0303
0002
0010
,
0103
0000
0100
0010
0004
0000
0003
0000
0001
0000
1000
0010
1000
0100
0010
0001
,
1000
0000
0001
0010
0100
1000
0001
0000
1000
0010
0100
0001
1000
0000
0001
0010
,
0001
0100
0010
0000
1010
0000
1000
0000
0001
0000
0100
0000
0010
0000
1000
0000
,
0001
0100
0010
0010
0100
0100
0010
0010
,
0100
0001
0100
0001
0200
0000
0000
0000
0310
0000
0100
0100
2000
0000
0000
0000
,
0000
0000
0010
0000
0000
0100
0100
3100
,
0010
0010
0001
0200
0310
0000
2020
3030
,
0010
0010
1000
0002
0103
0000
0220
0330
,
0010
0000
0010
0000
2000
0000
0000
0000
3100
0000
0010
001M
2000
0000
0000
0000
,
0000
0000
0001
0000
0000
0010
0010
3010
,
0100
0100
0001
2000
3010
0000
0220
0330
,
0100
0100
0001
2000
3001
0000
0100
0000
,
0010
0010
2000
0000
3000
0000
2002
0000
,
3000
0000
1000
0000
0000
0010
0010
0013
,
0100
0100
0010
0200
1300
0000
2002
3003
,
0001
0001
1000
0200
0310
0000
0220
0330
,
0100
0000
0100
0000
2000
0000
0000
0000
3001
0000
0100
0010
1000
0000
0100
0000
,
0110
0010
0100
0000
1000
0100
0100
0100
,
0010
0010
0100
0000
1000
0000
0001
0000
,
0010
0001
0010
0010
0100
0100
1000
1000
,
0001
0010
0001
0010
0100
0000
0100
0000
1000
0000
0001
1000
0101
0000
0010
0000
,
0001
0000
1000
0000
0010
0000
0100
0000
0001
0000
1000
0001
1010
0000
0001
0000
,
1000
0001
1000
0000
0100
0000
0000
0000
1000
0000
0000
0000
0010
0000
0000
0000
0100
0000
0000
0000
0001
0000
1000
0000
0101
0000
0000
0000
1000
0000
0000
0000
,
0100
0010
0001
0100
0010
1000
1000
0001
,
1000
0100
1000
0000
0001
0000
0000
0000
0010
0000
0000
0000
0001
0000
0000
0000
0100
0000
0000
0000
0010
0000
1000
0000
0101
0000
0000
0000
0010
0000
0000
0000
,
0100
0000
1000
0000
0010
0000
0100
0000
0001
0000
1000
0001
1010
0000
0100
0000
,
1000
0001
1000
0000
0001
0000
0000
0000
0010
0000
0000
0000
0100
0000
0000
0000
1000
0000
0000
0000
0001
0000
1000
0000
0101
0000
0000
0000
1000
0000
0000
0000
,
0010
1000
0100
0010
0001
0100
0100
0010
,
1000
0001
1000
0000
0100
0000
0000
0000
0010
0000
0000
0000
0001
0000
0000
0000
1000
0000
0000
0000
0001
0000
1000
0000
0101
0000
0000
0000
1000
0000
0000
0000
,
0010
0000
1000
0000
0100
0000
0010
0000
0001
0000
1000
0001
1010
0000
0001
0000
,
1000
0100
1000
0000
0001
0000
0000
0000
0010
0000
0000
0000
0100
0000
0000
0000
1000
0000
0000
0000
0001
0000
1000
0000
0011
0000
0000
0000
1000
0000
0000
0000
,
0100
0010
0001
1000
0010
0100
0100
0010
,
1000
0001
1000
0000
0100
0000
0000
0000
0010
0000
0000
0000
0100
0000
0000
0000
1000
0000
0000
0000
0001
0000
1000
0000
0101
0000
0000
0000
0010
0000
0000
0000
,
0100
0000
1000
0000
0010
0000
1000
0000
0100
0000
0010
0001
1010
0000
0100
0000
,
1000
0001
1000
0000
0100
0000
0000
0000
0010
0000
0000
0000
0001
0000
0000
0000
1000
0000
0000
0000
0001
0000
1000
0000
0011
0000
0000
0000
1000
0000
0000
0000
,
0100
0010
0001
1000
0010
0100
0100
0001
,
0001
1000
0001
0000
1000
0000
0000
0000
0000
0000
0100
0000
0000
0000
0000
0000
0010
0000
0000
0000
0000
0000
0001
0000
0000
0000
0000
0000
1000
0000
0000
0000
,
0000
0001
0000
0000
0010
0000
0000
0001
0000
0000
0020
0000
0000
0000
0000
0000
,
0000
0000
0030
0000
;

//--------------- dance-double - JA+ ----------------
#NOTES:
     dance-double:
     JA+:
     Medium:
     13:
     0,0,0,0,0:
00000000
00000000
00000000
00000000
,
00000000
00011000
00001000
00101000
,
00100000
00010000
10000000
00000000
00010000
00000000
01010000
00000000
,
01000000
00000000
01000000
00000000
00001000
00010000
00000100
00000000
,
00001000
00000000
00000001
00000000
00001000
00000010
00001000
00000000
,
00000001
00001000
00000010
00000000
00010000
00001000
00100000
00000000
,
00001000
00000000
01001000
00000000
01000000
00100000
01000000
00000000
,
00010000
10000000
01000000
00000000
10000000
00000000
10010000
00000000
,
00010000
00000000
02010000
00000000
03010000
00100000
00001000
00000000
,
00010000
00000000
00010100
00000000
00000100
00010000
00001000
00000000
,
00010000
00000000
00000020
00000000
00001030
00000001
00000200
00000000
,
00000310
00000000
00020000
00000000
00031000
00010000
00000200
00000000
,
00010300
00000000
00000010
00000000
00001000
00000001
00001000
00000000
,
00001010
00000000
00000101
00000000
00000001
00000100
00000020
00000000
,
00010030
00000000
00002000
00000000
00013000
00000100
00010000
00000000
,
00001000
00000000
00101000
00000000
00100000
00010000
10000000
00000000
,
00010000
00000000
01010000
00000000
01000000
00100000
10000000
00000000
,
00010000
00000000
10010000
10000000
00100000
10000000
00000000
00010000
,
01000000
00010000
00000000
00100000
00001000
00100000
00000000
00000100
,
00010000
00000100
00001000
00000010
00000100
00000010
00000000
00010000
,
00001000
00010000
00000000
00000010
00000100
00000010
00000000
00010000
,
00001000
00010000
00000100
00000000
00001000
00000000
00000001
00000000
,
00001000
00000010
00100000
00010000
,
10000000
00000000
00010000
00010000
01000000
01000000
00100000
00100000
,
01000000
01000000
00001000
00001000
00010000
00010000
00001000
00010000
,
00000100
00001100
00001000
00000010
,
00001000
00000001
00001000
00000010
,
00001000
00000000
00000000
00002002
00000000
00000000
00003003
00000000
00000000
00000001
00000000
00000001
,
00000000
00000000
00000001
00000000
00000000
00000000
00000010
00000000
00000000
00000000
00000010
00000000
00000000
00000000
00000010
00000000
00000000
00000000
00000100
00000000
00000000
00000010
00000000
00000000
,
00020000
00000000
00031000
00100000
00010000
00000000
20000000
00000000
,
30100000
00100000
10000000
00010000
01000000
00000000
00002000
00000000
,
00013000
00010000
00000010
00000000
00001010
00000000
00000100
00000100
,
00000100
00000100
00000100
00000100
00000100
00000100
00000100
00000100
,
00000010
00000010
00001000
00000001
00001000
00000000
00000002
00000000
,
00001003
00001000
00000010
00010000
00001000
00000000
00010000
00000000
,
00001000
00001000
00200000
00000000
00310000
10000000
00010000
00010000
,
01000000
00100000
10000000
10000000
00010000
01000000
00100000
00100000
,
10000000
10000000
00010000
01000000
00001000
00000000
00020000
00000000
,
00030010
00000010
00001000
00000001
00000100
00000000
00000002
00000000
,
00001003
00001000
00000010
00000000
00001010
00000000
00001000
00000010
,
00001000
00000001
00000100
00000001
00001000
00000100
00001000
00000100
,
00010000
00010000
00000200
00000000
00010300
00000000
00002000
00000000
,
01003000
00000000
00010000
00100000
00010000
00100000
01000000
10000000
,
00010000
01000000
00200000
00000000
10300000
00010000
02000000
00000000
,
00000000
00000000
00000000
00000000
00000000
00001000
00001000
03001000
,
00010000
00010000
00000010
00000100
00000001
00000000
00001002
00000000
,
00000013
00000010
00000100
00001000
00000100
00000000
00020000
00000000
,
00031000
00001000
01000000
00000000
00100000
10000000
00020000
00000000
,
00000000
00000000
00000000
00000000
00000000
01000000
01000000
01030000
,
00100000
00100000
01000000
00001000
00010000
00000000
00000020
00000000
,
00010030
00010000
00000100
00001000
00000100
00000000
00010000
00000000
,
00001000
00001000
02000000
00000000
03000000
00000000
01020000
00000000
,
00000000
00000000
00100000
00000000
00000000
10000000
10000000
10030000
,
00100000
00100000
01000000
00001000
00010000
00000000
00000020
00000000
,
00001030
00001000
00000001
00000100
00000010
00000000
00020000
00000000
,
00031000
00001000
00100000
00000000
00010000
10000000
00100000
01000000
,
00100000
10000000
00020000
00000000
00000000
01000000
01000000
01030000
,
00100000
00100000
01000000
00000000
00001000
00000000
00010000
00000000
,
00000010
00001000
00000100
00010000
00000010
00000100
00001000
00000100
,
00000010
00010000
00000100
00000000
00010000
00000000
00101000
00000000
,
00001000
00000000
10000000
00000000
00010000
00000000
01000000
00010000
,
01000000
00100000
10000000
00000000
00010000
00000000
01010000
00000000
,
01000000
00000000
00001000
00000000
00010000
00001000
00001000
00010000
,
00000100
00001000
00000010
00000000
00001000
00000000
00001001
00000000
,
00000001
00000000
00000100
00000010
00001000
00000001
00001000
00000010
,
00001000
00000100
00000010
00000000
00000001
00000000
00000011
00000000
,
00000001
00000000
00001000
00000010
00001000
00000001
00000001
00000100
,
00000010
00001000
00000100
00000000
00010000
00000000
00010100
00000000
,
00000100
00010000
00001000
00000000
00100000
00000000
00010000
00100000
,
00001000
01000000
00010000
00000000
10000000
00000000
10100000
00000000
,
00100000
00000000
01000000
00000000
00000000
00001000
00001000
00100000
,
00001000
00010000
00000100
00000000
00010000
00000000
00011000
00000000
,
00001000
00010000
00000010
00000000
00000100
00000001
00001000
00000010
,
00000100
00000001
00000010
00000000
00000100
00000000
00001100
00000000
,
00001000
00000000
00000001
00000000
00001000
00000010
00000010
00000100
,
00000001
00000000
00001000
00000000
00000000
00000010
00000000
00000000
00010000
00000000
00000000
00001000
00000000
00000000
00100000
00000000
,
00000000
00010000
00000000
00000000
01000000
00000000
00000000
00001000
00000000
00000000
10000000
00000000
00000000
00000000
00000000
00000000
;

//--------------- dance-double - JA+ BR ----------------
#NOTES:
     dance-double:
     JA+ BR:
     Hard:
     16:
     0,0,0,0,0:
00000000
00000000
00000000
00000000
,
00000000
00000000
00011000
00010000
00000010
00001000
00000011
00001000
,
00000010
00000010
00001000
00000100
00010000
00010000
00011000
00001000
,
01000000
00100000
01000000
00010000
10000000
00010000
11000000
00010000
,
00100000
00100000
00001000
01000000
00100000
10000000
00110000
01000000
,
00001000
00001000
00010000
00000100
00001000
00000010
00001100
00000010
,
00010000
00001000
00000010
00001000
00010000
00100000
00110000
00010000
,
10000000
10000000
00010000
01000000
00001000
00010000
00001100
00010000
,
00001000
00010000
00000001
00001000
00000001
00001000
00000101
00000000
,
00001000
00000000
00001001
00000001
00001000
00001000
00001010
00000010
,
00010000
00001000
01001000
01000000
00100000
10000000
00110000
10000000
,
00010000
01000000
00001000
00010000
00000100
00001000
00000011
00001000
,
00000100
00010000
00001000
00001000
00100000
00100000
00110000
00000000
,
10010000
00000000
10100000
00100000
10000000
10000000
00110000
10000000
,
00001000
00010000
00001000
00010000
00000100
00010000
00001100
00010000
,
00001000
00001000
00010000
00000010
00000100
00000010
00001100
00000001
,
00000010
00000001
00001000
00000001
00000000
00001000
00001001
00000001
,
00001000
00000000
00000010
00000000
00001000
00000000
00000001
00001000
00000010
00001000
00000001
00000000
00001000
00000000
00000010
00001000
,
00000100
00001000
00000010
00000000
00010000
00000000
00001000
00010000
00001000
00010000
00001000
00000000
00100000
00000000
00010000
00100000
,
00010000
00100000
00010000
00000000
11000000
00000000
00010000
00100000
00001000
00100000
00010000
00000000
01000000
00000000
00001000
00010000
,
00001000
00100000
00001000
00000000
00010000
00000000
00000100
00001000
00000100
00001000
00000010
00000000
00000100
00000000
00000001
00000010
,
00000001
00000010
00000100
00000000
00001000
00000000
00000001
00000100
00000010
00001000
00000010
00000000
00001000
00000000
00000100
00010000
,
00001000
00010000
00000100
00000000
00001000
00000000
00000100
00010000
00001000
00010000
00001000
00000000
00100000
00000000
00010000
10000000
,
01000000
10000000
00010000
00000000
00100000
00000000
00100000
00000000
00001000
00000000
00001000
00000000
00010000
00000000
00010000
00000000
,
00000010
00000000
00000010
00000000
00010000
00000000
00010000
00000000
00001000
00000000
00001000
00000000
00100000
00001000
00100000
00001000
,
00020000
00030000
00011000
00000000
00010000
00000000
00000010
00000000
,
00010000
00001000
01000000
00001000
,
00101000
00000000
00000000
00044000
00000000
00000000
00033000
00000000
00000000
00010000
00000000
00010000
,
00000000
00000000
00010000
00000000
00000000
00000000
00001000
00000000
00000000
00000000
00001000
00000000
00000000
00000000
00001000
00000000
00000000
00000000
00100000
00000000
00000000
00010000
00000000
00000000
,
01000000
00100000
10000000
00010000
20000000
00000000
30040000
00000000
,
01030000
01000000
00001000
00010000
00000002
00000000
00004003
00000000
,
00003010
00000000
00000010
00001000
00000002
00000000
00000000
00000000
00001003
00000000
00010000
00001000
01000000
00000000
01000000
00000000
,
01000000
01000000
00100000
00100000
00100000
00100000
10000000
10000000
,
00001000
00001000
00100000
00000010
00020000
00000000
00030200
00000000
,
00010300
00010000
00000010
00001000
00000200
00000000
00001300
00000001
,
00001000
00000000
00000010
00001000
00000002
00000000
00000000
00000000
00001003
00000000
00000010
00010000
00001000
00000000
00001000
00000000
,
00010000
00010000
00000100
00000100
00001000
00001000
00000010
00000010
,
00000100
00000100
00000001
00010000
00002000
00000000
00023000
00000000
,
00031000
00001000
00100000
00010000
20000000
00000000
30020000
00000000
,
01030000
00000000
01000000
00100000
10000000
00000000
00000000
00000000
00010000
00000000
10000000
00010000
01000000
00001000
01000000
00001000
,
01000000
00000000
00001000
00010000
00001000
00010000
00001000
00000000
00010000
00000100
00010000
00000100
00010000
00000000
00000010
00001000
,
00000010
00000010
00001000
00000100
00000001
00000100
00001000
00010000
,
00100000
10000000
00100000
00100000
10000000
10000000
00010000
10000000
,
00001000
00010000
00001000
00010000
00002000
00000000
00000000
00000000
00013000
00000000
00000010
00000100
00000020
00000000
00000000
00000000
,
00000000
00000000
00001000
00000000
00000030
00000100
00000100
00000100
,
00010000
00010000
00001000
01000000
00200000
00000000
40300000
00000000
,
30010000
00010000
01000000
00001000
00020000
00000000
00030040
00000000
,
00001030
00000000
00001000
00000000
00000001
00000000
00001000
00000000
00000001
00000000
00001000
00000100
00002000
00000000
00000000
00000000
,
00000000
00000000
00000010
00000000
00003000
00000100
00000100
00000100
,
00000010
00000010
00000100
00010000
00002000
00000000
40003000
00000000
,
30001000
00001000
01000000
00100000
10000000
00000000
10010000
00000000
,
00010000
00010000
02000000
00000000
03000000
00000000
02100000
00000000
,
00000000
00000000
00010000
00000000
03000000
00100000
00100000
00100000
,
01000000
01000000
00001000
00010000
00000200
00000000
00040300
00000000
,
00030010
00000010
00000100
00000001
00001000
00000000
00001002
00000000
,
00001003
00000000
00001000
00000000
00000020
00000000
00000000
00000000
00001030
00000000
00000100
00010000
00002000
00000000
00010000
00000000
,
00010000
00010000
00013000
00000000
00001000
00100000
00100000
00100000
,
00001000
00001000
00010000
00000000
00000001
00000000
00010000
00000000
,
00001000
10000000
00010000
01000000
00100000
10000000
01000000
00100000
,
00010000
01000000
00010000
01000000
00010000
00000000
01000000
00000000
00100000
00000000
01000000
00000000
00110000
00000000
01000000
00000000
,
00001000
00100000
00000010
00001000
00000001
00001000
00000011
00001000
,
00000001
00001000
00000001
00000000
00001000
00000000
00000100
00000000
01000000
00000000
00100000
00000000
11000000
00000000
00010000
00000000
,
01000000
00100000
10000000
00001000
00010000
00001000
00001000
00010000
,
00000010
00000100
00000010
00000000
00001000
00000000
00000100
00000000
00000001
00000000
00000100
00000000
00001100
00000000
00001000
00000000
,
00000100
00010000
00001000
01000000
00100000
01000000
01100000
00100000
,
10000000
00010000
01000000
00000000
00001000
00000000
00010000
00000000
00001000
00000000
00010000
00000000
00011000
00000000
00001000
00000000
,
00100000
00001000
00010000
00000100
00001000
00000010
00000010
00001000
,
00000001
00001000
00000001
00000000
00000010
00000000
00000100
00000000
00001000
00000000
00000100
00000000
00001100
00000000
00001000
00000000
,
00000100
00001000
00000002
00000000
00000003
00000000
00001001
00000000
,
00000001
00001000
00000100
00000000
00001000
00000000
00000100
00000000
00010000
00000000
00000100
00000000
00020200
00000000
00000000
00000000
,
00030300
00000000
00001000
00000000
00000000
00010000
00010000
00001000
,
01000000
00100000
01000000
00000000
00010000
00000000
10000000
00000000
00100000
00000000
01000000
00000000
00220000
00000000
00000000
00000000
,
00330000
00000000
02000000
00000000
03000000
00000000
01001000
00001000
,
00010000
00001000
00010000
00000000
00000100
00000000
00001000
00000000
00000001
00000000
00001000
00000000
00001001
00000000
00000001
00000000
,
00000100
00000010
00001000
00000001
00001000
00000010
00000010
00001000
,
00000001
00001000
00000001
00000000
00000000
00010000
00000000
00000000
00001000
00000000
00000000
10000000
00000000
00000000
00001000
00000000
,
00000000
00010000
00000000
00000000
00001000
00000000
00000000
00100000
00000000
00000000
02000000
00000000
00000000
00000000
00000000
00000000
,
03000000
00000000
00000000
00000000
;
