#TITLE:Something In My House;
#SUBTITLE:;
#ARTIST:Dead or Alive;
#TITLETRANSLIT:;
#SUBTITLETRANSLIT:;
#ARTISTTRANSLIT:;
#GENRE:;
#CREDIT:;
#MUSIC:Something In My House.ogg;
#BANNER:;
#BACKGROUND:;
#CDTITLE:;
#SAMPLESTART:43.969;
#SAMPLELENGTH:15.002;
#SELECTABLE:YES;
#OFFSET:-0.347;
#BPMS:0.000=129.980;
#STOPS:;
#BGCHANGES:-1.500=Something In My House.avi=1.000=0=0=0=StretchNoLoop====,
99999.000=-nosongbg-=1.000=0=0=0=StretchNoLoop====
#FGCHANGES:;

//--------------- dance-single - eataninja ----------------
#NOTES:
     dance-single:
     eataninja:
     Beginner:
     3:
     0,0,0,0,0:
0000
0000
0000
0000
,
0000
0000
0000
0000
,
0000
0000
0000
0000
,
0000
0000
0000
0000
,
0001
0000
0001
0000
,
1000
0000
1000
0000
,
0001
0000
0001
0000
,
0010
0000
0010
0000
,
0100
0100
0100
0000
,
0100
0100
0100
0000
,
0100
0000
0010
0000
,
1001
0000
0000
0000
,
1000
0000
0010
0000
,
0100
0000
0010
0000
,
1000
0000
0001
0000
,
0020
0000
0030
0000
,
0001
0000
0010
0000
,
0001
0000
1000
0000
,
0010
0000
0100
0000
,
0002
0000
0003
0000
,
1000
0000
0100
0000
,
0001
0000
0100
0000
,
1000
0000
0100
0000
,
0001
0000
0100
0000
,
0010
0000
0001
0000
,
1000
0000
0010
0000
,
0100
0100
0100
0000
,
1001
0000
0000
0000
,
0001
0000
0010
0000
,
0100
0000
0100
0000
,
1000
0001
0001
0000
,
0100
0000
0000
0000
,
0001
0000
0100
0000
,
0010
0010
0010
0000
,
1000
0001
1000
0000
,
0100
0000
0000
0000
,
2000
0000
3000
0000
,
0002
0000
0003
0000
,
0100
0100
0010
0000
,
0010
0000
0000
0000
,
1000
0000
0001
0000
,
1000
0000
1000
0000
,
0100
0000
0010
0000
,
1001
0000
0000
0000
,
0010
0010
0010
0000
,
0010
0010
0010
0000
,
0010
0000
0100
0000
,
1001
0000
0000
0000
,
1000
0000
0000
1000
,
0001
0000
0000
0001
,
0010
0000
0000
0010
,
0100
0000
0000
0100
,
1000
0000
0000
1000
,
0010
0000
0000
0010
,
0100
0000
0000
0100
,
0001
0000
0000
0000
,
1000
0000
0100
0000
,
0001
0000
0100
0000
,
0010
0000
0001
0000
,
1000
0000
0010
0000
,
0100
0100
0100
0000
,
0001
0001
0001
0000
,
0010
0000
0100
0000
,
1001
0000
0000
0000
,
1000
0000
0001
0000
,
0100
0000
0100
0000
,
0010
0100
0010
0000
,
1000
0000
0000
0000
,
0100
0000
0010
0000
,
0001
0001
0001
0000
,
0100
0010
0100
0000
,
0100
0000
0000
0000
,
0002
0000
0003
0000
,
2000
0000
3000
0000
,
0001
1000
0001
1000
,
0010
0000
0000
0000
,
2002
0000
0000
0000
,
0000
0000
0000
0000
,
3003
0000
0000
0000
;

//--------------- dance-single - eataninja ----------------
#NOTES:
     dance-single:
     eataninja:
     Easy:
     6:
     0,0,0,0,0:
0000
0000
0000
0000
,
0000
0000
0000
0000
,
0000
0000
0000
0000
,
0000
0000
0000
0000
,
2001
0001
3001
0000
,
0201
0001
0301
0000
,
1002
1000
1003
0000
,
1200
1000
1300
0000
,
0001
0000
0001
0000
1000
1000
1000
0000
,
0001
0000
0001
0000
1000
1000
1000
0000
,
0100
0001
0010
1000
,
0100
0000
0000
1000
,
0001
0100
0010
0010
,
1000
0001
1000
0100
,
0010
0010
0100
0100
,
1000
0001
0000
1000
0000
0010
0100
0000
,
0001
1000
0010
0010
,
0100
0010
1000
0001
,
0010
0000
0010
0000
0100
0000
0100
1000
,
0000
0001
0000
0100
0000
0010
0100
0000
,
0110
0001
1000
1000
,
0100
0010
0001
1001
,
0110
1000
0001
0001
,
0100
0010
1000
1001
,
0002
1000
0103
0000
,
0020
0001
0130
0000
,
0001
0000
1000
0000
0100
0100
0000
1001
,
0000
0000
0000
0000
,
1000
0010
0001
0010
,
0100
0100
0001
0001
,
1000
0100
0010
0010
,
0001
1000
0001
0001
,
1000
0100
0001
0100
,
0010
0001
1000
1000
,
0010
0100
0001
0001
,
1000
0100
0001
0010
,
2000
0000
3001
0000
,
0002
0000
1003
0000
,
1000
0010
0100
0100
,
0010
1000
0001
0001
,
0010
1000
0010
0001
,
1000
0010
0100
0100
,
0001
0010
0100
0100
,
1001
0000
0000
0000
,
1000
0000
1000
0000
0001
0001
0001
0000
,
1000
0000
1000
0000
0001
0001
0001
0000
,
0010
1000
0100
0001
,
0010
0000
0000
0110
,
1001
0000
0000
0000
0000
0000
1000
1000
,
0010
0000
0000
0110
,
1001
0000
0000
0000
0000
0000
0001
0001
,
0010
0000
0000
0110
,
1100
0000
0000
0000
0000
0000
1000
1000
,
0001
0000
0000
0101
,
0110
0000
0000
0000
0000
0000
0001
0001
,
2000
3200
0320
0032
,
1003
1000
0010
0010
,
0001
0010
1000
0001
,
1000
1000
0100
0001
,
1000
0010
0001
1000
,
0020
0001
0130
0000
,
0002
0010
1003
0000
,
0010
0000
1000
0000
0100
0100
0000
1001
,
0000
0000
0000
0000
,
1000
0100
0001
0100
,
0010
0010
0001
0001
,
1000
0010
0100
0100
,
0001
1000
0001
0001
,
1000
0100
0001
0100
,
0010
0001
1000
1000
,
0010
0010
0100
0100
,
0001
0010
1000
0100
,
0002
0000
1003
0000
,
2000
0000
3001
0000
,
0001
0100
0010
0010
,
1000
0001
0010
0100
,
2002
0000
0000
0000
,
0000
0000
0000
0000
,
3003
0000
0000
0000
;

//--------------- dance-single - eataninja ----------------
#NOTES:
     dance-single:
     eataninja:
     Medium:
     9:
     0,0,0,0,0:
0000
0000
0000
0000
,
0000
0000
0000
0000
,
0000
0000
0000
0000
,
0000
0000
0000
0000
,
2000
0000
0001
0000
0100
0100
0100
0000
,
3002
0000
1000
0000
0100
0100
0100
0000
,
2003
0000
0010
0000
0100
0100
0100
0000
,
3200
0000
0010
0000
1000
1000
1300
0000
,
1001
0000
1001
0000
0001
0100
0001
0000
,
1001
0000
1001
0000
1000
0100
1000
0000
,
0001
0000
0100
0000
1000
1000
0000
0010
,
0000
0001
0000
0000
0000
0000
0011
0000
,
1000
0001
0000
0100
0010
0100
0000
0001
,
1000
0100
0000
0010
0001
1000
0020
0000
,
0130
0001
0000
1000
0010
1000
0000
0001
,
0010
0100
0100
1000
1000
0001
0001
0000
,
1000
0010
0000
0100
0010
0100
0000
0001
,
1000
0100
0000
0010
0001
1000
0020
0000
,
0130
0001
0000
1000
0001
1000
0000
1100
,
0000
0011
0000
0101
0000
1000
0020
0000
,
0130
0001
1000
0001
0000
0010
0100
1000
,
0000
0001
1000
0010
0000
0100
0100
0000
,
0010
1000
0001
1000
0000
0100
0010
0000
,
0010
0010
0001
1000
0000
0010
0100
0000
,
0001
0100
1000
0000
0100
0010
0100
0000
,
0001
0010
1000
0000
0010
0100
0010
0000
,
0001
0000
0001
0000
1000
0010
0100
0100
,
1001
0000
0000
1100
,
0001
0000
0000
0010
0000
0000
0001
0000
0001
0000
0000
0000
1000
0000
0000
0000
,
0010
0000
0000
0100
0000
0000
0001
0000
0001
0000
0000
0000
1000
0000
0000
0000
,
0100
0000
0000
0010
0000
0000
0100
0000
0100
0000
0000
0000
1000
0000
0000
0000
,
0010
0000
0000
0100
0000
0000
0001
0000
1000
0000
0100
0000
0100
0000
0000
0000
,
0010
0000
0000
0001
0000
0000
1000
0000
1000
0000
0000
0000
0010
0000
0000
0000
,
0100
0000
0000
0010
0000
0000
1000
0000
1000
0000
0000
0000
0001
0000
0000
0000
,
0010
0000
0000
0100
0000
0000
0010
0000
0010
0000
0000
0000
0001
0000
0000
0000
,
1000
0010
0100
0000
1000
0100
0001
0000
,
1000
0010
1000
0010
0100
0001
1000
0000
,
0001
0010
0001
0010
0100
1000
0001
0000
,
1000
0010
0100
0000
1000
0100
0001
0000
,
0001
1000
0100
0100
0010
0010
0001
0000
,
1000
0000
0000
0010
0000
0000
0100
0000
0100
0000
0000
0000
0001
0000
0000
0000
,
1000
0000
0000
0100
0000
0000
0010
0000
0010
0000
0000
0000
0001
0000
0000
0000
,
1000
0010
0001
0000
0010
0100
0001
0000
,
1001
0000
0000
0000
,
1001
0000
1001
0000
0001
0010
0001
0000
,
1001
0000
1001
0000
1000
0010
1000
0000
,
0001
0000
0010
0000
1000
1000
0000
0100
,
0000
0001
0000
0000
0000
0000
0011
0000
,
1100
0000
1000
0000
0010
0000
0100
0100
,
0101
1000
0001
0011
,
1010
0000
0001
0000
0100
0000
0010
0010
,
1010
0001
1000
1100
,
0011
0000
1000
0000
0010
0000
0100
0100
,
0101
1000
0001
0011
,
1100
0000
0001
0000
0100
0000
0010
0010
,
1010
0000
0001
0000
1000
0001
0010
0000
,
0100
0010
0001
0000
1000
0010
0100
0000
,
0001
0100
1000
0100
0010
0100
0001
0000
,
1000
0010
0100
0000
0001
0010
0100
0000
,
1000
0100
0001
0100
0010
0001
0100
0000
,
0010
1000
0001
0000
0100
1000
0100
0000
,
0010
1000
0100
0000
0001
0100
0001
0000
,
0100
0010
0001
0000
1000
1000
0010
0010
,
1001
0000
0000
0000
,
1000
0000
0000
0010
0000
0000
0100
0000
0100
0000
0000
0000
1000
0000
0000
0000
,
0100
0000
0000
0001
0000
0000
1000
0000
1000
0000
0000
0000
0001
0000
0000
0000
,
0010
0000
0000
1000
0000
0000
0010
0000
0010
0000
0000
0000
0100
0000
0000
0000
,
1000
0000
0000
0001
0000
0000
0100
0000
0010
0000
0010
0000
1000
0000
0000
0000
,
0001
0000
0000
0010
0000
0000
1000
0000
1000
0000
0000
0000
0010
0000
0000
0000
,
0100
0000
0000
0010
0000
0000
0001
0000
0001
0000
0000
0000
1000
0000
0000
0000
,
0010
0000
0000
0100
0000
0000
1000
0000
1000
0000
0000
0000
0100
0000
0000
0000
,
0001
1000
0100
0000
0001
0100
1000
0000
,
0100
0010
0001
0001
1000
0010
0100
0000
,
0001
0100
0010
0010
1000
0001
1000
0000
,
0100
0001
0100
0000
0010
0001
1000
0000
,
0010
0100
0001
0001
1000
1000
0100
0000
,
2002
0000
0000
0000
,
0000
0000
0000
0000
,
3003
0000
0000
0000
;

//--------------- dance-single - eataninja ----------------
#NOTES:
     dance-single:
     eataninja:
     Hard:
     12:
     0,0,0,0,0:
0000
0000
0000
0000
,
0000
0000
0000
0000
,
0000
0000
0000
0000
,
0000
0000
0000
0000
,
0001
0000
0000
0001
0000
0000
0001
0000
0000
0000
0100
0000
0010
0000
1000
0000
,
0001
0000
0000
0001
0000
0000
0001
0000
0000
0000
0010
0000
0100
0000
1000
0000
,
0010
0000
0000
0010
0000
0000
0010
0000
0000
0000
0100
0000
0001
0000
1000
0000
,
0100
0000
0000
0100
0000
0000
0010
0000
0001
0000
1000
0000
0001
0000
0100
0000
,
0110
0000
0000
0000
1001
0000
0000
0000
0001
0100
0001
0100
0001
0000
0000
0000
,
0110
0000
0000
0000
1001
0000
0000
0000
1000
0100
1000
0100
1000
0000
0000
0000
,
0010
0000
0001
0000
1000
0100
0000
0001
,
1000
0000
0100
0000
0100
0000
0000
0000
1000
0001
1000
0001
1000
0000
0010
0000
,
0100
0001
1000
0001
0010
0100
1000
0001
,
0100
1000
0100
0001
1000
0100
0020
0000
,
0031
1000
0010
0100
0010
1000
0100
0010
,
0001
0000
0100
0000
0100
0000
0100
0000
0001
0000
0001
1000
0000
0000
0100
0000
,
0010
0001
1000
0001
0100
0010
1000
0001
,
0010
1000
0010
0100
1000
0001
0200
0000
,
0310
1000
0001
1000
0100
0010
0001
1000
,
0000
1010
0000
0011
0000
0101
2001
0000
,
3001
1000
0100
0001
0100
0010
0001
1000
,
0010
0100
0010
1000
0001
0010
1001
0000
,
0101
1000
0001
0100
0010
1000
0100
0001
,
0100
0010
0001
1000
0010
0100
1001
0000
,
0011
1000
0001
0000
1000
0010
0100
0001
,
1000
0100
1000
0001
0000
0100
0110
0000
,
1001
0000
0000
0000
1000
0000
0000
0000
0010
0000
0100
0001
0100
0000
0001
1000
,
0001
0000
0000
0101
,
2001
0000
0000
3100
0010
0000
0001
0000
1000
0000
1000
0000
0010
0000
0100
0000
,
0002
0000
0000
1003
0100
0000
0010
0000
0001
0000
0001
0000
1000
0000
0010
0000
,
0200
0000
0000
0310
1000
0000
0001
0000
1000
0000
1000
0000
0100
0000
0010
0000
,
0200
0000
0000
0310
0001
0000
1000
0000
0010
0000
0010
0000
1001
0000
0000
0000
,
0210
0000
0000
0310
1000
0000
0001
0000
0010
0000
1000
0000
0010
0000
0010
0000
,
0200
0000
0000
0310
0001
0000
1000
0000
0010
0000
0001
0000
0010
0000
0010
0000
,
0200
0000
0000
0301
1000
0000
0100
0000
0001
0000
0100
0000
1000
0000
1000
0000
,
0001
0000
0100
0000
0010
0000
0100
0000
1000
0000
0100
0000
0010
0000
1000
0001
,
2000
0000
0000
3001
0010
0000
0100
0000
0000
0000
1100
0000
0000
0000
0001
0000
,
2001
0000
0000
3010
0100
0000
0001
0000
0000
0000
0101
0000
0000
0000
1000
0000
,
1002
0000
0000
0013
0100
0000
1000
0000
0000
0000
1100
0000
0000
0000
0001
0000
,
1002
0000
0000
1003
0010
0000
0010
0000
0100
0000
0100
0000
0001
0000
1000
0000
,
1200
0000
0000
0310
0001
0000
1000
0000
0020
0000
0000
0130
0001
0000
1000
0000
,
1002
0000
0000
0013
0100
0000
1000
0000
0020
0000
0000
0130
0010
0000
1000
0000
,
1020
0000
0000
0130
0001
0000
1000
0000
0001
0000
0010
0000
1000
0000
0010
0000
,
0100
0000
0000
0110
,
1001
0000
0000
0000
1010
0000
0000
0000
0001
0100
0001
0100
0001
0000
0000
0000
,
1001
0000
0000
0000
1100
0000
0000
0000
0001
0010
0001
0010
0001
0000
0000
0000
,
0100
0000
1000
0000
0001
0010
0000
1000
,
0001
0000
1000
0000
1000
0000
0000
0000
0100
0010
0100
0010
0001
0000
1000
0000
,
0010
0000
0000
0000
0110
0000
0000
0000
0001
0000
0000
0000
1000
0010
1000
0010
,
0100
0000
0000
0000
1001
0000
0000
0000
1000
0000
0100
0010
0001
0000
0000
0000
,
0100
0000
0000
0000
0110
0000
0000
0000
0001
0000
0000
0000
1000
0001
1000
0001
,
0010
0100
0001
0100
0010
0100
1000
0000
,
0001
0000
0000
0000
0101
0000
0000
0000
1000
0000
0000
0000
0001
0010
0001
0010
,
0100
0000
0000
0000
1001
0000
0000
0000
1000
0000
0010
0100
0001
0000
0000
0000
,
1000
0000
0000
0000
1010
0000
0000
0000
0001
0000
0000
0000
1000
0010
1000
0010
,
0100
0000
0100
0000
0001
0000
0001
0000
1000
0100
1000
0100
1000
0000
0001
0000
,
0010
0100
0001
0100
0010
0001
1000
0010
,
0100
1000
0100
0001
1000
0100
0010
0000
,
0001
1000
0010
0100
1000
0100
0001
1000
,
0100
0001
1000
0010
0001
1000
0010
0000
,
0110
0000
0100
0000
0001
0000
0000
0000
1000
0000
0000
0000
0100
0010
0100
0010
,
0001
1000
0010
0000
0100
0010
1001
0000
,
0011
0000
0010
0000
0100
0000
0000
0000
1000
0000
0001
0100
0001
0000
1000
0001
,
1000
0000
0000
1001
,
0012
0000
0000
0013
0100
0000
1000
0000
0001
0000
1000
0010
1000
0000
0001
0000
,
0020
0000
0000
0130
1000
0000
0001
0000
0100
0000
0010
0100
0010
0000
1000
0000
,
0002
0000
0000
0013
0100
0000
1000
0000
0001
0000
0100
0001
0100
0000
0010
0000
,
2000
0000
0000
3010
0100
0000
0001
0000
1000
0000
0100
0000
0110
0000
0000
0000
,
1002
0000
0000
1003
0010
0000
0100
0000
0001
0000
1000
0010
1000
0000
0001
0000
,
0020
0000
0000
0130
1000
0000
0001
0000
1000
0000
0010
0100
0010
0000
1000
0000
,
0002
0000
0000
1003
0010
0000
1000
0000
0001
0000
0010
0100
0010
0000
0100
0000
,
2000
0000
0000
0000
3010
0000
0100
0000
1000
0000
0100
0000
0001
0000
1000
0010
,
2000
0000
0000
3001
0010
0000
0000
0000
0010
0000
0100
0000
1000
0001
1000
0001
,
2000
0000
0000
3010
0100
0000
0000
0000
0100
0000
1000
0000
0100
0000
0001
0000
,
2000
0000
0000
3001
0100
0000
0000
0000
0100
0000
0001
0000
1000
0000
0100
0000
,
0020
0000
0000
0130
1000
0000
1000
0000
0001
0000
0001
0000
0110
0000
0000
0000
,
2002
0000
0000
0000
,
0000
0000
0000
0000
,
3003
0000
0000
0000
;
