#VERSION:0.83;
#TITLE:She Wants Me Dead [MODS-];
#SUBTITLE:ft. The High;
#ARTIST:CAZZETTE vs. AronChupa;
#TITLETRANSLIT:;
#SUBTITLETRANSLIT:;
#ARTISTTRANSLIT:;
#GENRE:;
#ORIGIN:;
#CREDIT:;
#BANNER:She Wants Me Dead-banner.png;
#BACKGROUND:She Wants Me Dead-BG.png;
#PREVIEWVID:;
#JACKET:She Wants Me Dead-Jacket.png;
#CDIMAGE:;
#DISCIMAGE:;
#LYRICSPATH:;
#CDTITLE:;
#MUSIC:She Wants Me Dead.ogg;
#OFFSET:-1.057000;
#SAMPLESTART:27.172995;
#SAMPLELENGTH:9.357000;
#SELECTABLE:YES;
#DISPLAYBPM:106.000000;
#BPMS:0.000=106.000;
#STOPS:;
#DELAYS:;
#WARPS:;
#TIMESIGNATURES:0.000=4=4;
#TICKCOUNTS:0.000=4;
#COMBOS:0.000=1;
#SPEEDS:0.000=1.000=0.000=0;
#SCROLLS:0.000=1.000,
60.000=0.000,
60.125=2.000,
60.250=0.000,
60.375=2.000,
60.500=0.000,
60.625=2.000,
60.750=0.000,
60.875=2.000,
61.000=0.000,
61.125=2.000,
61.250=0.000,
61.375=2.000,
61.500=0.000,
61.625=2.000,
61.750=0.000,
61.875=2.000,
62.000=1.000,
63.500=4.000,
63.563=0.000,
63.750=1.000,
188.000=0.000,
188.125=2.000,
188.250=0.000,
188.375=2.000,
188.500=0.000,
188.625=2.000,
188.750=0.000,
188.875=2.000,
189.000=0.000,
189.125=2.000,
189.250=0.000,
189.375=2.000,
189.500=0.000,
189.625=2.000,
189.750=0.000,
189.875=2.000,
190.000=1.000,
191.500=4.000,
191.563=0.000,
191.750=1.000;
#FAKES:;
#LABELS:0.000=Song Start;
#BGCHANGES:-1.750=She Wants Me Dead.avi=1.000=1=0=0=StretchNoLoop==CrossFade==,
99999=-nosongbg-=1.000=0=0=0 // don't automatically add -songbackground-
;
#KEYSOUNDS:;
#ATTACKS: TIME=36.58:LEN=18.11:MODS=70% Beat: TIME=109.03:LEN=18.11:MODS=70% Beat;

//---------------dance-single - ----------------
#NOTEDATA:;
#CHARTNAME:;
#STEPSTYPE:dance-single;
#DESCRIPTION:;
#CHARTSTYLE:;
#DIFFICULTY:Challenge;
#METER:13;
#RADARVALUES:0.454340,0.505252,0.052630,0.022556,0.661639,423.000000,416.000000,7.000000,3.000000,9.000000,0.000000,2.000000,0.000000,0.000000,0.454340,0.505252,0.052630,0.022556,0.661639,423.000000,416.000000,7.000000,3.000000,9.000000,0.000000,2.000000,0.000000,0.000000;
#CREDIT:Jacko Lantern;
#DISPLAYBPM:106.000000;
#NOTES:
// measure 0
0000
0000
0000
0000
,  // measure 1
0000
0000
0000
0000
,  // measure 2
0000
0000
0000
0000
,  // measure 3
0000
0000
0000
0000
,  // measure 4
1001
0000
0001
0000
0010
0100
0000
1000
0000
0001
0000
0010
0100
0000
0000
0000
,  // measure 5
1000
0001
0000
0100
0000
0010
0000
0200
0000
0000
0000
0000
0300
0000
0000
0000
,  // measure 6
0001
0000
0010
0100
0000
0000
0000
0000
1000
0000
0010
0100
0000
0000
0001
0100
,  // measure 7
0010
0000
1000
0100
0000
0010
0000
0001
0000
0000
1000
0000
1000
0000
0010
1000
,  // measure 8
0000
0000
0100
0000
0001
0000
0000
0100
0000
0000
1000
0000
0001
0000
0000
0100
,  // measure 9
0000
0000
1000
0000
0100
0000
0001
1000
0000
0000
0001
0000
0010
0000
0100
1000
,  // measure 10
0000
0000
0010
0000
0001
0000
0000
0010
0000
0000
1000
0000
0001
0000
0000
0000
,  // measure 11
0010
0000
0100
0000
1000
0000
0010
0000
0100
0001
0000
0000
1000
0000
0010
0000
,  // measure 12
0100
0000
0010
1000
0000
0000
0001
0010
0100
0010
0000
0001
0000
0000
1000
0000
,  // measure 13
0010
0000
0100
0001
0000
0000
0010
0100
1000
0100
0000
1000
0000
0000
0001
0000
,  // measure 14
0010
0000
0001
0100
0000
0000
0010
1000
0001
0100
0000
0010
0000
0000
1000
0001
,  // measure 15
0100
01M0
1000
0100
01M0
0001
1000
0010
0M10
0001
0000
1000
0000
0000
1MM1
0000
,  // measure 16
1000
0000
0010
0100
0000
0000
0001
0010
0001
1000
0000
0100
0000
0000
0000
0000
,  // measure 17
0010
0000
0100
1000
0000
0000
0010
0100
1000
0100
0000
0010
0000
0000
0000
0000
,  // measure 18
1000
0000
0001
0010
0000
0000
0100
0001
0100
0010
0000
0001
0000
0000
1000
0010
,  // measure 19
0100
0001
0000
1000
0000
0000
0001
0010
1000
0010
0100
0001
0100
0000
0010
0000
,  // measure 20
0001
0000
1000
0010
0000
0000
0100
0001
0100
0010
0000
1000
0000
0000
0000
0000
,  // measure 21
0010
0000
0100
0001
0000
0000
0100
1000
0100
0010
0000
0100
0000
0000
0000
0000
,  // measure 22
0001
0000
0010
0100
0000
0000
1000
0000
0010
0100
0000
0001
0000
0000
1000
0000
,  // measure 23
0100
1000
0000
0010
0000
0000
0100
0000
0001
0100
0000
0010
0000
0000
0000
0000
,  // measure 24
0000
0000
0000
0000
1000
0000
0000
0000
0100
0000
0000
0001
0000
0000
0100
0000
0000
0000
1000
0000
0000
0000
0000
0000
0000
0000
0000
0000
0010
0000
0000
0000
,  // measure 25
0001
0000
0000
0010
0000
1000
0000
0002
0000
0000
0000
0003
0000
0000
0000
0000
,  // measure 26
0000
0000
0010
0000
0001
1000
0000
0100
0000
0010
0000
0000
0000
0000
0001
0000
,  // measure 27
1000
0000
0010
0100
0000
0000
0000
0000
0110
0000
0000
0000
0101
0000
0000
0000
,  // measure 28
1001
0000
0001
0000
0100
0010
0000
1000
0000
0100
0000
0000
0000
0000
0010
0001
,  // measure 29
1000
0000
0000
0000
0100
0010
0000
0002
0000
0000
0000
0000
0003
0000
0000
0000
,  // measure 30
1000
0000
0010
0100
0000
0000
0000
0000
0001
0000
0100
0010
0000
0000
1000
0000
,  // measure 31
0100
0000
0010
0001
0000
0010
0000
0100
0000
0000
1000
0000
0100
0000
1000
0001
,  // measure 32
0000
0000
0100
0000
1000
0000
0000
0001
0000
0000
0010
0000
1000
0000
0000
0100
,  // measure 33
0000
0000
0001
0000
1000
0000
0010
0100
0000
0000
1000
0000
0001
0000
0100
0010
,  // measure 34
0000
0000
1000
0000
0100
0000
0000
0001
0000
0000
1000
0000
0010
0000
0000
0000
,  // measure 35
0001
0000
0100
0000
1000
0000
0001
0000
0000
0000
1000
0000
0100
0000
0010
1000
,  // measure 36
0000
0000
0001
0010
0100
0010
0000
0001
0000
0000
1000
0000
0100
0000
1000
0010
,  // measure 37
0000
0000
0001
0000
1000
0000
0100
0010
0000
0000
1000
0000
0100
0000
0010
0001
,  // measure 38
0000
0000
0100
0000
1000
0000
0000
0100
0000
0000
0010
0000
1000
0000
0000
0000
,  // measure 39
0004
0400
0000
0000
0000
0000
0000
0303
0000
0000
0010
0010
1000
0000
0001
0000
,  // measure 40
0100
0000
1000
0100
0000
0000
0010
0100
0001
1000
0000
0100
0000
0000
0010
0000
,  // measure 41
1000
0000
0010
0100
0000
0000
1000
0010
0100
0001
0000
1000
0000
0000
0010
0000
,  // measure 42
0001
0000
0010
0100
0000
0000
0001
1000
0010
0100
0000
0010
0000
0000
1000
0100
,  // measure 43
0010
0100
0000
1000
0000
0000
0100
0001
0100
0010
0000
0001
0000
0000
0100
0000
,  // measure 44
1000
0000
0100
0010
0000
0000
0100
1000
0100
0010
0000
1000
0000
0000
0100
0000
,  // measure 45
0001
0000
0100
0010
0000
0000
0100
0001
0100
0010
0000
0001
0000
0000
0010
0000
,  // measure 46
1000
0000
0010
0100
0000
0000
0010
1000
0010
0100
0000
1000
0000
0000
0001
0100
,  // measure 47
01M0
1000
0010
0M10
0001
1000
01M0
0100
0001
1000
0000
0010
0000
0000
M110
0000
,  // measure 48
0010
0000
0001
0010
0000
0000
0100
0000
1000
0100
0000
0001
0000
1000
0100
0000
,  // measure 49
0001
0000
0100
0001
0000
0000
0100
0000
1000
0001
0000
0100
0000
1000
0100
0000
,  // measure 50
0010
0000
0001
0010
0000
0000
1000
0000
0100
0010
0000
1000
0000
0010
0100
0000
,  // measure 51
1000
0000
0001
0100
0000
0000
1000
0000
0100
1000
0000
0100
0000
0010
0100
0000
,  // measure 52
0001
0000
0010
0001
0000
0000
0010
0000
1000
0010
0000
0100
0000
0000
1000
0000
,  // measure 53
0100
0000
0001
0100
0000
0000
0010
0000
0001
1000
0000
0010
0000
0000
0001
0000
,  // measure 54
0010
0000
0100
0001
0000
0000
0010
0000
0100
0010
0000
0001
0000
0000
1000
0000
,  // measure 55
0010
0000
0000
0000
0100
0000
0010
0000
0000
0000
0000
0000
1000
0000
0000
0000
0001
0000
0000
0100
0000
0000
0001
0100
0001
0000
0000
0000
0000
0000
0000
0000
,  // measure 56
1100
0000
0000
0000
;

//---------------dance-single - ----------------
#NOTEDATA:;
#CHARTNAME:;
#STEPSTYPE:dance-single;
#DESCRIPTION:;
#CHARTSTYLE:;
#DIFFICULTY:Hard;
#METER:12;
#RADARVALUES:0.425339,0.505252,0.075186,0.150373,0.484951,396.000000,386.000000,10.000000,20.000000,2.000000,0.000000,0.000000,0.000000,0.000000,0.425339,0.505252,0.075186,0.150373,0.484951,396.000000,386.000000,10.000000,20.000000,2.000000,0.000000,0.000000,0.000000,0.000000;
#CREDIT:Jacko Lantern;
#ATTACKS:TIME=36.58:LEN=18.11:MODS=70% Beat:TIME=109.03:LEN=18.11:MODS=70% Beat:TIME=36.58:LEN=18.11:MODS=70% Beat:TIME=109.03:LEN=18.11:MODS=70% Beat:TIME=36.58:LEN=18.11:MODS=70% Beat:TIME=109.03:LEN=18.11:MODS=70% Beat:TIME=36.58:LEN=18.11:MODS=70% Beat:TIME=109.03:LEN=18.11:MODS=70% Beat;
#DISPLAYBPM:106.000000;
#NOTES:
// measure 0
0000
0000
0000
0000
,  // measure 1
0000
0000
0000
0000
,  // measure 2
0000
0000
0000
0000
,  // measure 3
0000
0000
0000
0000
,  // measure 4
1000
0000
1000
0000
0100
0010
0000
0001
0000
0100
0000
0000
0000
0000
0001
0000
,  // measure 5
0001
1000
0000
0010
0000
0100
0000
0020
0000
0000
0000
0000
0030
0000
0000
0000
,  // measure 6
1000
0000
0100
1000
0000
0000
0000
0000
0001
0000
0100
0001
0000
0000
0100
0001
,  // measure 7
1000
0000
0001
0010
0000
0100
0000
1000
0000
0000
0010
0000
0100
0000
0010
0000
,  // measure 8
2000
3001
1000
0000
0200
1300
0001
0000
,  // measure 9
2000
0000
3100
0000
0010
0000
0001
0010
0000
0000
0100
0000
0010
0000
0000
0000
,  // measure 10
0002
0103
0001
0000
2000
3100
1000
0000
,  // measure 11
0010
0000
1000
0000
0010
0000
0100
0000
0001
0100
0000
0000
0010
0000
1000
0000
,  // measure 12
0010
0000
0100
0000
0002
0000
1003
0000
0100
1000
0000
0001
0000
0000
0010
0000
,  // measure 13
0100
0000
0010
0000
0200
0000
1300
0000
0001
0100
0000
0010
0000
0000
0100
0000
,  // measure 14
0010
0000
1000
0000
0002
0000
0103
0000
0010
0100
0000
0001
0000
0000
1000
0001
,  // measure 15
1000
0001
1000
0001
1000
0001
1000
0001
0100
0010
0000
1000
0000
0000
101M
0000
,  // measure 16
0010
0000
0010
1000
0000
0000
0001
0000
0001
0010
0000
0100
0000
0000
0000
0000
,  // measure 17
0010
0000
0001
0010
0000
0000
0100
0000
1000
0100
0000
0010
0000
0000
0000
0000
,  // measure 18
0001
0000
0001
0100
0000
0000
0010
0000
1000
0010
0000
0100
0000
0000
0001
0000
,  // measure 19
0010
0001
0000
1000
0000
0000
0100
0000
1000
0100
0000
0010
0000
0000
0000
0000
,  // measure 20
0001
0000
1000
0010
0000
0000
0100
0000
0001
0100
0000
0010
0000
0000
0000
0000
,  // measure 21
1000
0000
0001
0010
0000
0000
0100
0000
0100
1000
0000
0001
0000
0000
0000
0000
,  // measure 22
1000
0010
1010
0000
0001
0100
0101
0000
,  // measure 23
0100
0010
0110
0000
1000
0100
1100
0000
,  // measure 24
0000
0000
0001
0000
0010
0000
0001
0010
0000
0100
0000
0000
0000
0000
1000
0000
,  // measure 25
0001
0000
0000
0010
0000
0001
0000
0002
0000
0000
0000
0003
0000
0000
0000
0000
,  // measure 26
0000
0000
0010
0000
0001
0010
0000
0100
0000
1000
0000
0000
0000
0000
0001
0000
,  // measure 27
1000
0000
0010
1000
0000
0000
0000
0000
1001
0000
0000
0000
0011
0000
0000
0000
,  // measure 28
0101
0000
0100
0000
0001
0100
0000
0010
0000
1000
0000
0000
0000
0000
0001
0000
,  // measure 29
0100
0000
0000
0000
0001
0100
0000
0020
0000
0000
0000
0000
0030
0000
0000
0000
,  // measure 30
1000
0000
0001
1000
0000
0000
0000
0000
0100
0000
0010
0100
0000
0000
1000
0000
,  // measure 31
0001
0000
1000
0001
0000
0010
0000
0001
0000
0000
0100
0000
0100
0000
0000
0000
,  // measure 32
0002
1003
1000
0000
0200
0310
0001
0000
,  // measure 33
1000
0000
0100
0000
1000
0000
0001
1000
0000
0000
0010
0000
0100
0000
0010
0000
,  // measure 34
2000
3001
0001
0000
0200
0310
1000
0000
,  // measure 35
0001
0010
0001
1000
0100
0000
1000
0000
,  // measure 36
0002
0000
0013
0000
0100
0010
0000
0001
0000
0000
1000
0000
0001
0000
1000
0000
,  // measure 37
0020
0000
1030
0000
0001
0000
0100
0001
0000
0000
1000
0000
0100
0000
1000
0000
,  // measure 38
0002
0103
0010
0000
2000
3010
1000
0000
,  // measure 39
0020
0130
0001
0010
0000
0000
0000
0100
,  // measure 40
1000
0000
0100
1000
0000
0000
0010
0000
1000
0010
0000
0100
0000
0000
0001
0000
,  // measure 41
0010
0000
0001
0010
0000
0000
0001
0000
1000
0001
0000
0100
0000
0000
0010
0000
,  // measure 42
0100
0000
0010
0100
0000
0000
0001
0000
1000
0001
0000
0100
0000
0000
0010
0000
,  // measure 43
1000
0001
0000
1000
0000
0000
0100
0000
0100
1000
0000
0001
0000
0000
0010
0000
,  // measure 44
0001
0000
1000
0001
0000
0000
1000
0000
0010
1000
0000
0010
0000
0000
0100
0000
,  // measure 45
0001
0000
1000
0001
0000
0000
0100
0000
0001
1000
0000
0001
0000
0000
0010
0000
,  // measure 46
0100
0000
1000
0100
0000
0000
0010
0000
0001
0010
0000
0001
0000
0000
1000
0010
,  // measure 47
1000
0010
1000
0010
1000
0010
1000
0010
1000
0001
0000
0010
0000
0000
M011
0000
,  // measure 48
0001
0000
1000
0001
0000
0000
0010
0000
0100
0010
0000
0001
0000
1000
0010
0000
,  // measure 49
1000
0000
0001
0100
0000
0000
0010
0000
0010
0100
0000
0001
0000
1000
0001
0000
,  // measure 50
0100
0000
0010
0100
0000
0000
0001
0000
0001
1000
0000
0100
0000
0010
0100
0000
,  // measure 51
1000
0000
0010
1000
0000
0000
0001
0000
1000
0010
0000
1000
0000
0001
0010
0000
,  // measure 52
0100
0000
1000
0001
0000
0000
0010
0000
0100
0010
0000
0001
0000
0001
0010
0000
,  // measure 53
0100
0000
1000
0100
0000
0000
0010
0000
0001
0100
0000
0010
0000
0010
1000
0000
,  // measure 54
0010
0000
0100
0010
0000
0000
1000
0000
0100
1000
0000
0001
0000
0001
1000
0000
,  // measure 55
0001
0000
0100
0001
0000
0000
0010
0000
0001
0000
0000
1000
0001
0000
0000
0000
,  // measure 56
1001
0000
0000
0000
;

//---------------dance-single - ----------------
#NOTEDATA:;
#CHARTNAME:;
#STEPSTYPE:dance-single;
#DESCRIPTION:;
#CHARTSTYLE:;
#DIFFICULTY:Medium;
#METER:9;
#RADARVALUES:0.307190,0.378939,0.150373,0.037593,0.101501,286.000000,266.000000,20.000000,5.000000,2.000000,0.000000,0.000000,0.000000,0.000000,0.307190,0.378939,0.150373,0.037593,0.101501,286.000000,266.000000,20.000000,5.000000,2.000000,0.000000,0.000000,0.000000,0.000000;
#CREDIT:Jacko Lantern;
#ATTACKS:TIME=36.58:LEN=18.11:MODS=70% Beat:TIME=109.03:LEN=18.11:MODS=70% Beat:TIME=36.58:LEN=18.11:MODS=70% Beat:TIME=109.03:LEN=18.11:MODS=70% Beat:TIME=36.58:LEN=18.11:MODS=70% Beat:TIME=109.03:LEN=18.11:MODS=70% Beat:TIME=36.58:LEN=18.11:MODS=70% Beat:TIME=109.03:LEN=18.11:MODS=70% Beat;
#DISPLAYBPM:106.000000;
#NOTES:
0000
0000
0000
0000
,
0000
0000
0000
0000
,
0000
0000
0000
0000
,
0000
0000
0000
0000
,
0001
1000
0100
1000
0010
0000
0000
0000
,
1000
0100
0010
0001
1000
0000
0000
0000
,
0010
0100
0010
0000
1000
0010
0100
0000
,
0001
0010
0001
1000
0100
0000
0000
0000
,
1100
0100
1000
0000
1001
0001
0100
0000
,
0110
0010
1000
0001
0100
0000
0000
0000
,
0011
0010
0100
0000
1100
1000
0001
0000
,
0100
0010
1000
0010
0000
0000
1010
0000
,
0000
0000
0001
0000
0000
0010
0000
0000
0000
0000
0100
0000
0000
1000
0000
0000
,
0000
0000
0010
0000
0000
0100
0000
0000
0000
0000
0001
0000
0000
0001
0000
0000
,
0000
0000
0100
0000
0000
0010
0000
0000
0000
0000
1000
0000
0000
0010
0000
0000
,
1000
0000
0001
0000
1000
0000
0001
0000
1000
0000
0000
0010
0000
0000
011M
0000
,
0001
1000
0001
0000
1000
0010
1000
0000
,
0001
0100
0001
0000
0010
0100
1000
0000
,
0100
1000
0100
0000
0010
0001
0010
0000
,
0100
0010
0001
0000
0100
0010
1000
0000
,
0000
0000
0001
0000
0000
0100
0000
0000
0000
0000
0010
0000
0000
1000
0000
0000
,
0000
0000
0100
0000
0000
0010
0000
0000
0000
0000
0001
0000
0000
0000
0001
0000
,
0000
0000
0010
0000
0000
0100
0000
0000
0000
0000
1000
0000
0000
0100
0000
0000
,
0000
0000
1000
0000
0000
0010
0000
0000
0000
0000
1000
0000
0000
0000
1000
0000
,
0000
0100
0010
0001
1000
0000
0000
0000
,
0001
0100
0010
1000
0010
0000
0000
0000
,
0000
1000
1000
0001
0010
0000
0000
0100
,
0010
0001
0000
0000
0110
0000
1100
0000
,
1001
0000
0001
0100
0010
1000
0000
0010
,
0100
0000
0001
0100
0000
0000
0000
0000
,
0001
1000
0010
0000
1000
0100
1000
0000
,
0001
0010
0001
1000
0100
0000
0000
0000
,
1100
1000
0001
0000
0011
0001
0100
0000
,
0110
0010
1000
0001
0100
0000
0000
0000
,
0101
0100
0010
0000
0110
0010
1000
0000
,
1100
0100
0010
0001
1001
0000
1010
0000
,
1000
0100
0010
0001
0100
0000
0000
0000
,
0010
0100
0001
1000
0100
0000
0000
0000
,
0010
0001
0010
0000
0100
1000
1000
0000
,
0100
0010
0001
0010
0000
0000
0000
0000
,
0000
0000
0001
0000
0000
1000
0000
0000
0000
0000
0100
0000
0000
0010
0000
0000
,
0000
0000
0100
0000
0000
1000
0000
0000
0000
0000
0010
0000
0000
0000
0010
0000
,
0000
0000
0100
0000
0000
0001
0000
0000
0000
0000
1000
0000
0000
0010
0000
0000
,
0000
0000
1000
0000
0000
0100
0000
0000
0000
0000
0020
0000
0000
0000
0030
0000
,
0000
0000
0100
0000
0000
1000
0000
0000
0000
0000
0001
0000
0000
0010
0000
0000
,
0000
0000
0001
0000
0000
0100
0000
0000
0000
0000
0010
0000
0000
0100
0000
0000
,
0000
0000
0001
0000
0000
0001
0000
0000
0000
0000
1000
0000
0000
0001
0000
0000
,
1000
0000
0100
0000
1000
0000
0100
0000
1000
0000
0000
0001
0000
0000
0M11
0000
,
0010
0100
1000
0000
0010
0100
0010
0000
,
1000
0100
1000
0000
0001
1000
0100
0000
,
0010
0001
0010
0000
0100
1000
1000
0000
,
0010
0100
0010
0000
1000
0010
0100
0000
,
0001
0010
0100
0000
1000
0100
0010
0000
,
0001
0100
0001
0000
1000
0010
0100
0000
,
0001
0010
0200
0300
1000
0001
0200
0300
,
0001
0000
0010
0000
0002
0000
0003
0000
0010
0000
0000
0100
0020
0000
0030
0000
,
0110
0000
0000
0000
;

//---------------dance-single - ----------------
#NOTEDATA:;
#CHARTNAME:;
#STEPSTYPE:dance-single;
#DESCRIPTION:;
#CHARTSTYLE:;
#DIFFICULTY:Easy;
#METER:6;
#RADARVALUES:0.200855,0.231574,0.255633,0.075186,0.000000,187.000000,153.000000,34.000000,10.000000,2.000000,0.000000,0.000000,0.000000,0.000000,0.200855,0.231574,0.255633,0.075186,0.000000,187.000000,153.000000,34.000000,10.000000,2.000000,0.000000,0.000000,0.000000,0.000000;
#CREDIT:Jacko Lantern;
#ATTACKS:TIME=36.58:LEN=18.11:MODS=70% Beat:TIME=109.03:LEN=18.11:MODS=70% Beat:TIME=36.58:LEN=18.11:MODS=70% Beat:TIME=109.03:LEN=18.11:MODS=70% Beat:TIME=36.58:LEN=18.11:MODS=70% Beat:TIME=109.03:LEN=18.11:MODS=70% Beat:TIME=36.58:LEN=18.11:MODS=70% Beat:TIME=109.03:LEN=18.11:MODS=70% Beat;
#DISPLAYBPM:106.000000;
#NOTES:
0000
0000
0000
0000
,
0000
0000
0000
0000
,
0000
0000
0000
0000
,
0000
0000
0000
0000
,
1000
0010
0100
0000
,
0001
0100
0010
0000
,
1000
0100
1000
0001
,
0100
0010
1000
0000
,
0011
0000
1100
0000
,
0011
0001
1000
0000
,
1010
0000
0101
0000
,
1010
1000
0100
0000
,
0010
0001
0010
0001
,
1000
0100
1000
0100
,
0010
0010
0001
0001
,
2002
0000
0000
0000
3003
0000
0000
1M10
,
0000
1100
0000
0110
,
0000
0011
0000
0101
,
0000
1001
0000
1010
,
0000
0011
0000
0101
,
0000
1100
0000
1001
,
0000
0110
0000
1001
,
0000
1000
0100
0010
,
0001
0100
0010
1000
,
0000
0010
0100
0000
,
0001
0010
0100
0000
,
0000
1000
0100
0000
,
0010
0100
0110
1100
,
1001
0001
0100
0000
,
0010
1000
0001
0000
,
0100
0010
1000
0100
,
1000
0100
0010
0000
,
0001
1000
0001
1000
,
0010
1000
0010
0000
,
0100
0001
0100
0001
,
0010
0001
0000
0000
,
0100
0010
0010
0000
,
1000
0010
0100
0000
,
0001
0010
0100
1000
,
0100
1000
1100
1001
,
0000
0001
0100
0001
,
0000
1000
0100
1000
,
0000
0001
0010
0001
,
1000
0010
1000
0100
,
0000
0010
0100
0010
,
0000
0001
0100
0010
,
0000
1000
0100
0010
,
0220
0000
0000
0000
0330
0000
0000
M011
,
0000
0000
1010
0000
,
1100
0000
1001
0000
,
0101
0000
0011
0000
,
0110
0000
0100
0100
,
1000
0000
0002
0000
,
2003
0000
3010
0100
,
0002
1003
0020
1030
,
0200
0310
0002
1003
,
1001
0000
0000
0000
;
