#TITLE:シャル・ウィ・ダンス?;
#SUBTITLE:;
#ARTIST:ReoNa;
#TITLETRANSLIT:Shall We Dance?;
#SUBTITLETRANSLIT:;
#ARTISTTRANSLIT:;
#GENRE:;
#CREDIT:;
#BANNER:Shall We Dance.png;
#BACKGROUND:Shall We Dance-bg.png;
#LYRICSPATH:Shall We Dance.lrc;
#CDTITLE:;
#MUSIC:Shall We Dance.ogg;
#OFFSET:-0.227938;
#SAMPLESTART:36.061981;
#SAMPLELENGTH:18.920000;
#SELECTABLE:YES;
#BPMS:0.000000=117.014999
;
#STOPS:117.500000=0.513000
;
#BGCHANGES:-0.800=Shall We Dance.avi=1.000=0=0=0=StretchNoLoop====,
99999=-nosongbg-=1.000=0=0=0 // don't automatically add -songbackground-
;
#KEYSOUNDS:;
#ATTACKS:;

//---------------dance-single - ----------------
#NOTES:
     dance-single:
     :
     Hard:
     12:
     0.567371,0.612859,0.316042,0.463529,0.368716,377.000000,347.000000,30.000000,44.000000,0.000000,0.000000,0.567371,0.612859,0.316042,0.463529,0.368716,377.000000,347.000000,30.000000,44.000000,0.000000,0.000000:
0000
0000
0000
0000
,
1000
0000
0000
0001
0000
0000
0000
0100
,
0000
0000
0000
0010
0020
0000
2030
0000
,
3001
0000
0000
1000
0000
0000
0000
0100
,
0000
0000
0000
0000
0000
0000
0010
0000
0020
0000
0000
0000
0331
0100
0010
1000
,
0001
0000
1000
0000
0100
0000
1000
0001
1000
0000
0001
0000
0100
0010
0100
0000
,
0001
0000
1000
0100
1000
0000
0100
0000
0010
0000
0001
0000
1000
0000
0001
0000
,
0100
0100
0010
0010
1000
0100
0001
0100
,
1000
0000
0100
0010
0000
0000
0001
0000
1000
0001
0000
1000
0010
0000
0000
0100
0000
0000
0001
0000
1000
0001
0000
0000
,
2000
0100
3100
0020
0001
0031
1000
0001
,
0000
0001
0100
0000
0010
0100
0010
0000
1000
0000
0100
0000
0001
0000
0100
0000
,
0010
0000
0001
1000
0001
0000
1000
0000
0010
0000
0100
0000
0100
0000
0001
0000
,
1000
0000
0100
0010
0001
0000
0012
0000
0000
0000
1003
0000
0001
0000
1000
0010
,
0100
0000
0000
0000
0000
0000
0201
0000
0000
0000
0000
0000
0000
0000
0000
0000
0000
0000
0310
0000
0000
0000
0000
0000
2010
0000
0000
0000
0000
0000
0000
0000
0000
3100
3000
0000
0000
0000
0000
0000
0000
0000
1000
0000
0000
0000
0000
0000
,
1200
0000
0000
0000
0000
0000
0000
0000
0000
0310
0300
0000
0000
0000
0000
0000
0000
0000
0001
0000
0000
0000
0000
0000
0012
0000
0000
0000
0000
0000
0000
0000
0000
0133
0003
0000
0000
0000
0000
0000
0000
0000
0100
0000
0000
0000
0000
0000
,
0120
0000
0000
0000
0000
0000
0000
0000
0000
1030
0030
0000
0000
0000
0000
0000
0000
0000
0001
0000
0000
0000
0000
0000
2001
0000
0000
0000
0000
0000
0000
0000
0000
0000
0000
0000
3001
0000
0000
0000
0000
0000
0100
0000
0000
0000
0000
0000
,
0010
0000
1000
0010
0000
0000
1000
0000
0000
0100
0000
0010
0001
0000
0000
0000
0000
0000
0000
0000
0000
0000
0000
0000
,
1000
0000
0000
0001
0000
0000
1000
0000
0010
0100
0000
0000
0101
0000
0000
0001
0000
0000
1001
0000
0000
0001
0000
0000
,
0021
0000
0000
0000
0130
0000
1000
0100
0010
0000
0001
1000
0000
0001
1000
0000
,
0020
0000
0000
0130
0000
0000
0001
0000
0000
1000
0000
0000
0001
0000
0100
0010
0000
0100
0010
0000
0000
1000
0000
0000
,
0100
0000
0010
0001
0000
0010
0001
0000
0000
0100
0000
0000
0101
0000
0000
0110
0000
0000
1010
0000
0000
1001
0000
0000
,
1000
0010
0001
0010
1010
1000
1001
1000
,
1200
0000
0000
0000
0310
0000
0001
0010
0100
0000
1000
0001
0000
1000
0001
0000
,
0200
0000
0000
0310
0000
0000
0010
0000
0000
0010
0000
0000
1000
0000
0010
0100
0000
0010
0100
0000
0000
0001
0000
0000
,
0010
0000
0100
1000
0000
0100
1000
0000
0000
0010
0000
0000
1010
0000
0000
0110
0000
0000
0102
0000
0000
0000
0000
0000
,
1003
0000
0000
0000
0000
0000
0001
0000
0000
1000
0000
0000
0100
0000
1000
0100
0000
1000
0002
0000
0000
0100
0000
0000
,
2303
0000
0000
0010
0000
0000
3002
0000
0000
0000
0000
0000
0013
0000
0001
0010
0000
0001
2000
0000
0000
0010
0000
0000
,
3032
0000
0000
0100
0000
0000
2003
0000
0000
0000
0000
0000
3001
0000
0010
0100
0000
0010
0001
0000
0000
1000
0000
0000
,
0010
0000
0100
0001
0000
0100
0010
0000
0000
1000
0000
0000
0001
0000
1000
0010
0000
1000
0001
0000
0000
0100
0000
0000
,
0001
0000
0000
0000
0000
0000
0000
0000
0000
0000
0000
0000
0000
0000
0000
0000
0000
0000
0000
0000
0000
0000
0000
0000
0001
0000
0000
0000
0000
0000
0000
0000
0000
0000
0000
0000
0000
0000
0000
0000
0000
0000
0000
0000
0000
0000
0000
0000
0020
0000
0000
0000
0000
0000
0000
0000
0000
0000
0000
0000
0000
0000
0000
0000
0000
0000
0000
0000
0000
0000
0000
0000
3200
0000
0000
0000
0000
0000
3333
0000
0000
0000
0000
0000
3003
0000
0000
0000
0000
0000
0000
0000
0000
0000
0000
0000
2001
0000
0000
0000
0000
0000
0000
0000
0000
0000
0000
0000
0000
0000
0000
0000
0000
0000
0000
0000
0000
0000
0000
0000
0000
0000
0000
0000
0000
0000
0000
0000
0000
0000
0000
0000
0000
0000
0000
0000
0000
0000
0000
0000
0000
0000
0000
0000
3001
0000
0000
0000
0000
0000
0000
0000
0000
0000
0000
0000
0000
0000
0000
0000
0100
0000
0000
0000
0000
0000
0000
0000
0010
0000
0000
0000
0000
0000
0000
0000
0000
0000
0000
0000
0000
0000
0000
0000
1000
0000
0000
0000
0000
0000
0000
0000
,
0002
0000
0000
0010
0000
0000
0013
0000
0000
0000
0000
0000
1002
0000
0000
0000
0000
0000
1003
0000
0010
0100
0000
0001
,
2000
0000
0000
0100
0000
0000
3100
0000
1000
0001
0000
1000
0010
0000
0000
0100
0000
0000
0001
0000
0100
0010
0000
0100
,
0001
0000
0000
1000
0000
0000
0100
0000
0010
0001
0000
0010
0100
0000
0000
1000
0000
0000
1010
0000
0000
0010
0000
0000
,
0110
0000
0000
0000
1002
0000
0000
0100
0000
0000
0100
0000
2003
0000
0000
0100
,
0000
0100
3001
0001
0010
0010
1000
1000
,
0100
0100
0002
1000
0000
0103
0020
0100
,
0230
0001
0302
1000
1003
0100
0001
0100
,
1100
0000
2001
0000
0010
0000
3001
0100
,
0101
0000
0000
0000
1002
0000
0000
0000
0010
0000
0000
0000
1003
0100
0010
0000
,
0001
1000
0001
0000
2000
0000
0001
0000
0000
0000
3010
0000
0200
0000
0010
0000
,
0320
1000
2030
0001
3001
0010
1000
0010
,
0011
0000
0000
0000
1000
0100
0010
0000
0001
0000
1000
0000
0001
0100
0010
0000
,
1000
0000
0001
0000
1000
0010
1000
0000
0001
0100
0001
0000
1000
0100
1000
0000
,
0001
1000
0020
0000
0230
0000
0302
0000
,
0000
1003
0000
3003
;

//---------------dance-single - ----------------
#NOTES:
     dance-single:
     :
     Medium:
     8:
     0.350656,0.396238,0.189625,0.484598,0.031604,233.000000,215.000000,18.000000,46.000000,0.000000,0.000000,0.350656,0.396238,0.189625,0.484598,0.031604,233.000000,215.000000,18.000000,46.000000,0.000000,0.000000:
0000
0000
0000
0000
,
1000
0000
0000
0001
0000
0000
0000
0100
,
0000
0000
0100
0100
,
0001
0000
0000
1000
0000
0000
0000
0100
,
0000
0000
0100
0100
,
2000
3010
2000
3001
,
0002
0013
0002
1003
,
0001
0100
0010
0000
1000
0100
0010
0000
,
0001
1000
0001
1000
0020
0000
0030
0000
,
1000
0100
0100
1000
0100
0100
1000
0001
,
0000
1001
0000
0000
0001
0100
0000
0001
,
1000
0000
1000
0100
0010
0001
0000
0000
,
0001
0010
0010
0001
0010
0010
0001
1000
,
0000
0000
1001
0000
0000
0000
0000
0000
2000
0000
0000
3010
0000
0000
0000
0000
,
2000
0000
0000
3001
0000
0000
0000
0000
0002
0000
0000
0013
0000
0000
0000
0000
,
0002
0000
0000
1003
0000
0000
0000
0000
0002
0000
0000
0000
0203
0000
0000
0000
,
0310
1000
0001
0000
1001
0000
0000
0000
,
0000
0000
1100
1010
,
1002
0000
0000
0000
1003
0000
0100
0000
0010
0000
0000
0010
0000
0000
0001
0000
,
2000
0000
3001
0000
1000
0010
0100
0000
,
0001
0010
0100
0000
1000
0001
1000
0001
,
0100
0010
1000
0001
0011
0000
0101
0000
,
2001
0000
0000
0000
3001
0000
0010
0000
0100
0000
0000
0100
0000
0000
1000
0000
,
0002
0000
1003
0000
0001
1000
0010
1000
,
0001
0010
0100
0000
1000
0100
1100
0000
,
0110
0000
0002
0000
2003
0000
3010
0100
,
0010
0000
2000
0000
3002
0000
0013
0100
,
0010
0000
0002
0000
1003
0100
1000
0000
,
0001
0100
0001
0000
1000
0010
1000
0000
,
0001
0010
0100
1000
2001
0000
3020
0000
,
0130
0001
1000
0001
0020
0000
0230
0000
,
1300
0001
2000
0000
0000
3100
0100
0010
,
0001
1000
0002
0000
0000
0103
0100
0010
,
1000
0001
2001
0000
3010
0000
1002
0000
,
0013
0000
0001
0100
1000
0100
0001
0010
,
0100
1000
0020
0000
0130
0000
0200
0000
,
0302
0000
2003
0000
3100
0010
0002
0000
,
1003
0000
2200
0000
3300
0000
0100
0010
,
0001
0000
0202
0000
0303
0000
0001
1000
,
0010
0000
1000
0100
1000
0100
0020
0000
,
0031
0000
1000
0001
1000
0001
0200
0000
,
0310
0000
2002
0000
3003
0000
0001
1000
,
0010
0000
1020
0000
0230
0000
0301
0010
,
0100
1000
0002
0000
2003
0000
3020
0000
,
0000
0130
0000
0000
;

//---------------dance-single - ----------------
#NOTES:
     dance-single:
     :
     Easy:
     5:
     0.200160,0.233081,0.063208,0.379251,0.000000,133.000000,127.000000,6.000000,36.000000,0.000000,0.000000,0.200160,0.233081,0.063208,0.379251,0.000000,133.000000,127.000000,6.000000,36.000000,0.000000,0.000000:
0000
0000
0000
0000
,
1000
0000
0001
0000
,
0100
0000
0100
0000
,
0001
0000
1000
0000
,
0100
0000
0100
0000
,
2002
3003
1000
0001
,
0100
0100
0010
0000
,
1000
0100
0010
0000
,
0001
1000
0010
0000
,
1000
0000
0000
1000
0000
0000
0001
0000
,
0000
0001
0000
0000
1000
0000
0000
0100
,
0000
0000
1000
0000
0001
0002
0000
0303
,
1000
0000
0000
0001
0000
0000
0100
0000
,
0000
0100
0000
0000
0001
0000
0001
0000
,
0001
0010
0100
0100
,
0100
0000
1000
1000
,
1000
0010
0100
0000
,
0000
0000
0002
0203
,
0320
0030
2000
3200
,
0320
0030
0001
1000
,
0010
0000
0010
0000
1000
0001
1000
0001
,
0000
0000
2000
3200
,
0320
0030
0002
0203
,
0320
0030
1000
1000
,
0001
0001
1000
0100
,
0010
0000
2002
3003
,
0001
1000
0020
0030
,
1000
0001
0200
0300
,
0001
0010
0100
0100
,
1000
0001
2002
3003
,
1000
0001
0100
0200
,
0300
0010
0000
0010
,
1000
0200
0300
0100
,
0010
2002
0000
0000
,
3003
0001
1000
0010
,
0100
2002
3003
1000
,
0001
0000
0010
0000
0001
0100
0001
0000
,
0000
0200
0300
0000
,
0010
0020
0030
1000
,
0000
2002
3003
0001
,
1000
0000
0100
0000
1000
0010
1000
0000
,
0000
0020
0030
0000
,
0100
0200
0300
0001
,
0000
2000
3200
0320
,
0000
0031
0000
0000
;

//---------------dance-single - ----------------
#NOTES:
     dance-single:
     :
     Beginner:
     2:
     0.106852,0.139849,0.010535,0.000000,0.000000,71.000000,70.000000,1.000000,0.000000,0.000000,0.000000,0.106852,0.139849,0.010535,0.000000,0.000000,71.000000,70.000000,1.000000,0.000000,0.000000,0.000000:
0000
0000
0000
0000
,
0001
0000
0000
0000
,
1000
0000
0000
0000
,
0010
0000
0000
0000
,
0100
0000
0000
0000
,
0001
0000
0001
0000
,
0001
0000
0000
0000
,
1000
0000
1000
0000
,
1000
0000
0000
0000
,
0010
0000
0000
0010
,
0000
0000
0100
0000
,
0000
0100
0000
0000
,
0001
0000
0000
0001
,
0000
0000
1000
0000
,
1000
0000
1000
0000
,
0000
0000
0010
0000
,
0010
0000
0010
0000
,
0000
0000
1000
1000
,
1000
0000
1000
0000
,
0000
0000
0100
0000
,
0100
0000
0010
0000
,
0000
0000
0001
0001
,
0001
0000
0001
0000
,
0000
0000
0100
0000
,
0100
0000
0010
0000
,
0000
0000
1000
0000
,
0000
0100
0100
0000
,
0000
0010
0010
0000
,
0010
0000
0010
0000
,
0000
0001
0000
0000
,
1000
1000
0000
0000
,
0001
0001
0000
0001
,
0000
0001
0000
0000
,
0100
0100
0000
0000
,
0000
0010
0000
0000
,
0000
1000
0000
1000
,
1000
1000
0000
1000
,
0000
0100
0000
0000
,
0000
0010
0000
0000
,
0000
0001
0000
0001
,
0001
0001
0000
0001
,
0000
0100
0000
0000
,
0000
0010
0000
0010
,
0000
0010
0000
0000
,
0000
1001
0000
0000
;

//---------------dance-double - ----------------
#NOTES:
     dance-double:
     :
     Hard:
     12:
     0.562856,0.606011,0.284438,0.474063,0.368716,374.000000,347.000000,27.000000,45.000000,0.000000,0.000000,0.562856,0.606011,0.284438,0.474063,0.368716,374.000000,347.000000,27.000000,45.000000,0.000000,0.000000:
00000000
00000000
00000000
00000000
,
00021000
00000000
00000000
02030000
00000000
00000000
00000000
23000000
,
00000000
00000000
00000000
30100000
00200000
00000000
00320000
00000000
,
00032000
00000000
00000000
00003020
00000000
00000000
00000000
00000032
,
00000000
00000000
00000000
00000000
00000000
00000000
00000103
00000000
00000200
00000000
00000000
00000000
00001300
00010000
00001000
00010000
,
00001000
00000000
00100000
00000000
00010000
00000000
01000000
00100000
01000000
00000000
00010000
00000000
00100000
00001000
00100000
00000000
,
00001000
00000000
00010000
00000100
00010000
00000000
00000100
00000000
00001000
00000000
00000010
00000000
00000100
00000000
00000001
00000000
,
00001000
00000100
00000001
00000100
00010000
00010000
00001000
00001000
,
00100000
00000000
00010000
00100000
00000000
00000000
00010000
00000000
01000000
00100000
00000000
01000000
00100000
00000000
00000000
10000000
00000000
00010000
01000000
00000000
00000000
00100000
00000000
00000000
,
20000000
01000000
31000000
00020000
00001000
00031000
00000020
00000001
,
00000000
00000031
00001000
00000000
00000001
00000100
00000001
00000000
00001000
00000000
00000100
00000000
00000001
00000000
00000100
00000000
,
00010000
00000000
00001000
00000100
00001000
00000000
00000100
00000000
00000010
00000000
00001000
00000000
00000001
00000000
00001000
00000000
,
00000100
00010000
00000100
00000000
00010000
00000000
00001000
00000000
00100000
00000000
00010000
00000000
01000000
00001000
01000000
00000000
,
00001000
00000000
00010000
00000000
00000100
00000000
00001000
00000000
00001002
00000000
00000000
00000103
00000000
00000000
00000100
00000000
,
00002010
00000000
00000000
00003100
00000000
00000000
00000100
00000000
00020100
00000000
00000000
00031000
00000000
00000000
00001000
00000000
,
00201000
00000000
00000000
00310000
00000000
00000000
00010000
00000000
10000000
00000000
00100000
00000000
00010000
00000000
00100000
00000000
,
10000000
00000000
01000000
10000000
00000000
00000000
00010000
00000000
01000000
00010000
00000000
10000000
00010000
00000000
00000000
00000000
00000000
00000000
00000000
00000000
00000000
00000000
00000000
00000000
,
10000000
00000000
00000000
00010000
00000000
00000000
10000000
00000000
01000000
00100000
00000000
00000000
00101000
00000000
00000000
00001000
00000000
00000000
00011000
00000000
00000000
00001000
00000000
00000000
,
00001200
00000000
00000000
00000000
00000310
00000000
00001000
00000001
00001000
00000000
00000001
00000010
00000000
00000010
00000100
00000000
,
00010000
00000000
00000000
00000010
00000000
00000000
00000100
00000000
00000000
00000001
00000000
00000000
00001000
00000000
00000001
00000100
00000000
00000001
00001000
00000000
00000000
00000100
00000000
00000000
,
00010000
00000000
00001000
00100000
00000000
00001000
00010000
00000000
00000000
00001000
00000000
00000000
00101000
00000000
00000000
00011000
00000000
00000000
00010100
00000000
00000000
00001100
00000000
00000000
,
00001000
00000010
00001000
00000100
00010100
00010000
00011000
00010000
,
00210000
00000000
00000000
00000000
01300000
00000000
00010000
10000000
00010000
00000000
10000000
01000000
00000000
01000000
00100000
00000000
,
00010000
00000000
00000000
01000000
00000000
00000000
01000000
00000000
00000000
01000000
00000000
00000000
00010000
00000000
00100000
00001000
00000000
00100000
00010000
00000000
00000000
01000000
00000000
00000000
,
00001000
00000000
00010000
00000100
00000000
00010000
00001000
00000000
00000000
00000100
00000000
00000000
00000001
00000000
00000000
00000010
00000000
00000000
00000110
00000000
00000000
00000000
00000000
00000000
,
00002001
00000000
00000000
00000000
00000000
00000000
00003020
00000000
00000000
00000000
00000000
00000000
00000130
00000000
00000001
00000100
00000000
00000001
00002000
00000000
00000000
00000100
00000000
00000000
,
00003200
00000000
00000000
00010000
00000000
00000000
00020300
00000000
00000000
00000000
00000000
00000000
00031000
00000000
00100000
00010000
00000000
00100000
00020000
00000000
00000000
01000000
00000000
00000000
,
02030000
00000000
00000000
00100000
00000000
00000000
03200000
00000000
00000000
00000000
00000000
00000000
10300000
00000000
01000000
00100000
00000000
01000000
00100000
00000000
00000000
00010000
00000000
00000000
,
01000000
00000000
00001000
00010000
00000000
00001000
00010000
00000000
00000000
00000100
00000000
00000000
00001000
00000000
00000001
00000100
00000000
00000001
00000100
00000000
00000000
00001000
00000000
00000000
,
00010000
00000000
00000000
00000000
00000000
00000000
00000000
00000000
00000000
00000000
00000000
00000000
00000000
00000000
00000000
00000000
00000000
00000000
00000000
00000000
00000000
00000000
00000000
00000000
00100000
00000000
00000000
00000000
00000000
00000000
00000000
00000000
00000000
00000000
00000000
00000000
00000000
00000000
00000000
00000000
00000000
00000000
00000000
00000000
00000000
00000000
00000000
00000000
20000000
00000000
00000000
00000000
00000000
00000000
00000000
00000000
00000000
00000000
00000000
00000000
00000000
00000000
00000000
00000000
00000000
00000000
00000000
00000000
00000000
00000000
00000000
00000000
00020000
00000000
00000000
00000000
00000000
00000000
30030000
00000000
00000000
00000000
00000000
00000000
00000000
00000000
00000000
00000000
00000000
00000000
00000000
00000000
00000000
00000000
00000000
00000000
10020000
00000000
00000000
00000000
00000000
00000000
00000000
00000000
00000000
00000000
00000000
00000000
00000000
00000000
00000000
00000000
00000000
00000000
00000000
00000000
00000000
00000000
00000000
00000000
00000000
00000000
00000000
00000000
00000000
00000000
00000000
00000000
00000000
00000000
00000000
00000000
00000000
00000000
00000000
00000000
00000000
00000000
00000000
00000000
00000000
00000000
00000000
00000000
10030000
00000000
00000000
00000000
00000000
00000000
00000000
00000000
00000000
00000000
00000000
00000000
00000000
00000000
00000000
00000000
01000000
00000000
00000000
00000000
00000000
00000000
00000000
00000000
00100000
00000000
00000000
00000000
00000000
00000000
00000000
00000000
00000000
00000000
00000000
00000000
00000000
00000000
00000000
00000000
00010000
00000000
00000000
00000000
00000000
00000000
00000000
00000000
,
01000000
00000000
00000000
00001000
00000000
00000000
00010000
00000000
00000000
00000000
00000000
00000000
00021000
00000000
00000000
00000000
00000000
00000000
00030010
00000000
00001000
00000100
00000000
00000010
,
00000001
00000000
00000000
00001000
00000000
00000000
00000001
00000000
00000100
00000010
00000000
00000100
00000001
00000000
00000000
00001000
00000000
00000000
00000100
00000000
00010000
00001000
00000000
00010000
,
00000100
00000000
00000000
00010000
00000000
00000000
00001000
00000000
00100000
00010000
00000000
00100000
00010000
00000000
00000000
10000000
00000000
00000000
10100000
00000000
00000000
00000000
00000000
00000000
,
01010000
00000000
00000000
00000000
20010000
00000000
00000000
01000000
00000000
00000000
01000000
00000000
30020000
00000000
00000000
01000000
,
00000000
01000000
10030000
01000000
00100000
00010000
00001000
00000100
,
00000010
00000000
00000001
00000000
00000200
00000000
00000010
00000000
00000000
00000000
00000310
00000300
00002000
00000000
00003100
00003000
,
00200000
00000000
00310000
00000000
02000000
00000000
03100000
03000000
10000000
00000000
01000000
00000000
00010000
00000000
01000000
00000000
,
11000000
00000000
10020000
00000000
01030000
00000000
00010000
01000000
,
01010000
00000000
00000000
00000000
20100000
00000000
00000000
00000000
30010000
00000000
00000000
00000000
10000000
01000000
00100000
00000000
,
00010000
00000000
10000000
00000000
00200000
00000000
01000000
00000000
00000000
00000000
01300000
00300000
00020000
00000000
00130000
00030000
,
00000200
00000000
00001300
00000000
00000020
00000000
00000130
00000030
00000001
00000000
00000010
00000000
00001000
00000000
00000010
00000000
,
00000011
00000000
00000000
00000000
00001000
00000010
00000100
00000000
00000001
00000000
00001000
00000000
00000100
00010000
00001000
00000000
,
00100000
00000000
00010000
00000000
10000000
00100000
01000000
00000000
00010000
00100000
01000000
00000000
10000000
00000000
00100000
00000000
,
00010000
00001000
00000020
00000000
00000230
00000000
00020300
00000000
,
00000000
00031000
00000000
00000000
;

//---------------dance-double - ----------------
#NOTES:
     dance-double:
     :
     Medium:
     8:
     0.341627,0.372930,0.252834,0.505668,0.010535,227.000000,203.000000,24.000000,48.000000,0.000000,0.000000,0.341627,0.372930,0.252834,0.505668,0.010535,227.000000,203.000000,24.000000,48.000000,0.000000,0.000000:
00000000
00000000
00000000
00000000
,
00010000
00000000
00000000
00000100
00000000
00000000
00000000
00000010
,
00000000
00000000
00000001
00001000
,
00000100
00000000
00000000
00010000
00000000
00000000
00000000
00001000
,
00000000
00000000
00100000
00010000
,
20010000
30100000
10020000
01030000
,
00010000
10000000
01000000
00000000
00100000
00010000
01000000
00000000
,
00002000
00013000
00020000
00030100
,
00010000
00000100
00000010
00000001
00002000
00000000
00003000
00000000
,
00000001
00000100
00000100
00000001
00000100
00000100
00000001
00001000
,
00000000
00010100
00000000
00000000
00010000
00001000
00010000
00001000
,
00000000
00000000
00100000
00010000
00100000
00010000
00000000
00000000
,
10000000
00100000
00100000
10000000
00100000
00100000
10000000
00010000
,
00000000
00101000
00000000
00000000
00002000
00000000
00013000
00000000
,
00020000
00030100
00000200
00000310
,
00000020
00000000
00000031
00000000
00001000
00000001
00001000
00000000
,
00000001
00000100
00000010
00000000
00020000
00000000
00000000
00000000
,
00031000
00000000
00101000
00010100
,
00012000
00000000
00103000
00000000
00001000
00100000
01000000
10000000
,
00200000
00000000
01300000
00000000
00010000
10000000
00010000
10000000
,
00100000
01000000
00100000
00000000
10000000
00100000
00010000
00001000
,
00000000
00010000
00010100
00101000
,
00021000
00000000
00030100
00000000
00010000
00000100
00000010
00000001
,
00000200
00000000
00000310
00000000
00001000
00000100
00001000
00000100
,
00010000
00001000
00010000
00000000
00001000
00100000
00020000
00000000
,
20030000
30100000
20020000
30030000
,
10000000
01000000
00100000
00000000
00202000
00000000
00303000
00000000
,
00001000
00010000
00000010
00000000
00002010
00000000
00000001
00000000
,
00003100
00001100
00001002
00000100
,
00000013
00000000
00000000
00000000
00000000
00000000
00000000
00000000
00000000
00000000
00000000
00000000
00000000
00000000
00000000
00000000
00000000
00000000
00000000
00000000
00000000
00000000
00000000
00000000
00000100
00000000
00000000
00000000
00000000
00000000
00000000
00000000
00000000
00000000
00000000
00000000
00000000
00000000
00000000
00000000
00000000
00000000
00000000
00000000
00000000
00000000
00000000
00000000
00000020
00000000
00000000
00000000
00000000
00000000
00000000
00000000
00000000
00000000
00000000
00000000
00000000
00000000
00000000
00000000
00000000
00000000
00000000
00000000
00000000
00000000
00000000
00000000
00000200
00000000
00000000
00000000
00000000
00000000
00003333
00000000
00003000
00000000
00000000
00000000
00000000
00000000
00000000
00000000
00000000
00000000
00000000
00000000
00000000
00000000
00000000
00000000
00002001
00000000
00000000
00000000
00000000
00000000
00000000
00000000
00000000
00000000
00000000
00000000
00000000
00000000
00000000
00000000
00000000
00000000
00000000
00000000
00000000
00000000
00000000
00000000
00000000
00000000
00000000
00000000
00000000
00000000
00000000
00000000
00000000
00000000
00000000
00000000
00000000
00000000
00000000
00000000
00000000
00000000
00000000
00000000
00000000
00000000
00000000
00000000
00003100
00000000
00000000
00000000
00000000
00000000
00000000
00000000
00000000
00000000
00000000
00000000
00000000
00000000
00000000
00000000
00000000
00000000
00000000
00000000
00000000
00000000
00000000
00000000
00010000
00000000
00000000
00000000
00000000
00000000
00000000
00000000
00000000
00000000
00000000
00000000
00000000
00000000
00000000
00000000
00000000
00000000
00000000
00000000
00000000
00000000
00000000
00000000
,
00000100
00010000
00002000
00000000
00203000
00000000
00310000
01000000
,
00010000
01000000
00200000
00000000
10000000
00000000
00010000
00000000
,
01000000
02300000
10000000
00010000
,
03100000
10020000
01030000
20010000
,
31000000
00000000
10000000
01000000
00100000
00010000
00001000
00000100
,
00000010
00000001
00001001
00000000
00000000
00000000
00000002
00000000
,
00000203
00000000
00002300
00000000
00013000
00000100
00020000
00000000
,
00031000
00202000
00303000
00001000
,
00010000
00000000
00020020
00000000
00030030
00000000
00010000
00001000
,
00100000
00020000
10030000
20000000
,
30200000
00000000
02300000
00000000
03010000
00100000
00001000
00000000
,
00101000
00000000
00010200
00000000
00000310
00000000
00000010
00000001
,
00000100
00000000
00000201
00000000
00000310
00001000
00000200
00000000
,
00010300
00001000
00200000
00000000
01000000
00000000
00302000
00000000
,
00000000
00013000
00000000
00000000
;

//---------------dance-double - ----------------
#NOTES:
     dance-double:
     :
     Easy:
     5:
     0.186615,0.209773,0.063208,0.379251,0.000000,124.000000,118.000000,6.000000,36.000000,0.000000,0.000000,0.186615,0.209773,0.063208,0.379251,0.000000,124.000000,118.000000,6.000000,36.000000,0.000000,0.000000:
00000000
00000000
00000000
00000000
,
00001000
00000000
00100000
00000000
,
00010000
00000000
00100000
00000000
,
00001000
00000000
00010000
00000000
,
00000010
00000000
00010000
00000000
,
00022000
00033000
00001000
00000000
,
00100000
00010000
01000000
00000000
,
00010000
00010000
10000000
10000000
,
01000000
00100000
00001000
00000000
,
00010000
00000000
00000000
00010000
00000000
00000000
00000100
00000000
,
00000000
00000100
00000000
00000000
00001000
00000000
00000000
00001000
,
00000000
00000000
00000001
00000000
00000000
00000001
00000000
00000000
,
00000100
00000000
00000000
00000100
00000000
00000000
00000010
00000000
,
00000000
00000010
00000000
00000000
00010000
00000000
00000000
00000000
,
00010000
00000000
00001000
00000000
,
00001000
00000000
00100000
00100000
,
00010000
10000000
00100000
00000000
,
00000000
00000000
20000000
32000000
,
03020000
00000000
00032000
00003200
,
00000302
00000000
00001003
00000001
,
00000010
00000010
00000100
00001000
,
00000001
00000000
00000002
00000023
,
00002330
00000000
00023000
00230000
,
20300000
00000000
30010000
01000000
,
00100000
00100000
10000000
01000000
,
00100000
00000000
20020000
30030000
,
00010000
00100000
00002000
00003000
,
00010000
00000010
00000200
00000300
,
00000100
00000010
00002000
00003000
,
00000001
00001000
00000000
00000000
,
00011000
00022000
00033000
00000000
,
00100000
00200000
00300000
00010000
,
10000000
00200000
00300000
10000000
,
00010000
02000000
03000000
00020000
,
00030000
10000000
01000000
00010000
,
00001000
00000020
00000030
00000001
,
00001000
00000010
00000010
00000200
,
00000300
00002002
00003003
00000000
,
00020000
00032000
00003000
00000000
,
00000000
20020000
30030000
00010000
,
10000000
00100000
00100000
01000000
,
00000000
00002000
00003000
00000000
,
00010000
00010000
00000100
00000010
,
00000001
00000200
00000000
00000320
,
00000000
00001030
00000000
00000000
;
