#VERSION:0.83;
#TITLE:SLIME PILE [MODS+];
#SUBTITLE:;
#ARTIST:FLOOR BABA;
#TITLETRANSLIT:;
#SUBTITLETRANSLIT:;
#ARTISTTRANSLIT:;
#GENRE:;
#ORIGIN:;
#CREDIT:;
#BANNER:SLIME PILE.png;
#BACKGROUND:SLIME PILE-bg.png;
#PREVIEWVID:;
#JACKET:SLIME PILE-jacket.png;
#CDIMAGE:;
#DISCIMAGE:;
#LYRICSPATH:;
#CDTITLE:;
#MUSIC:SLIME PILE.ogg;
#OFFSET:0.000000;
#SAMPLESTART:41.963058;
#SAMPLELENGTH:13.427000;
#SELECTABLE:YES;
#BPMS:0.000=143.000;
#STOPS:19.000=0.420,
81.000=0.105,
89.000=0.105,
97.000=0.210,
105.000=0.060,
127.000=0.262,
135.000=0.105,
143.000=0.052,
188.000=0.315,
196.000=0.210,
204.000=0.105,
212.000=0.315,
220.000=0.105,
228.000=0.210,
372.750=0.210,
380.750=0.105;
#DELAYS:50.000=0.420,
113.000=0.360,
165.000=0.420,
388.750=5.000;
#WARPS:81.000=8.000,
89.000=8.000,
97.000=8.000,
105.000=8.000,
127.000=8.000,
135.000=8.000,
143.000=8.000,
165.000=8.000,
188.000=8.000,
196.000=8.000,
204.000=8.000,
212.000=8.000,
220.000=8.000,
228.000=8.000,
298.000=10.000,
372.750=8.000,
380.750=8.000,
388.750=8.000;
#TIMESIGNATURES:0.000=4=4,
16.000=3=4,
19.000=4=4,
47.000=3=4,
50.000=4=4,
78.000=3=4,
81.000=4=4,
113.000=3=4,
116.000=4=4,
124.000=3=4,
127.000=4=4,
175.000=3=4,
178.000=4=4,
186.000=2=4,
188.000=4=4,
308.000=2=4,
310.000=4=4;
#TICKCOUNTS:0.000=4;
#COMBOS:0.000=1;
#SPEEDS:0.000=1.000=0.000=0;
#SCROLLS:0.000=1.000,
50.000=0.800,
58.000=0.500,
62.000=0.800,
62.500=1.000,
63.000=1.200,
63.500=1.400,
66.000=1.000,
74.000=1.100,
113.000=1.000,
151.000=0.800,
159.000=1.000,
173.000=-1.000,
174.000=2.500,
174.250=2.250,
174.500=2.000,
174.625=1.750,
174.750=1.500,
174.875=1.250,
175.000=1.000,
188.000=0.850,
298.000=1.000,
308.000=0.000,
309.000=1.000;
#FAKES:;
#LABELS:0.000=Song Start;
#BGCHANGES:0.000=SLIME PILE.mp4=1.000=0=0=0=StretchNoLoop====,
99999=-nosongbg-=1.000=0=0=0 // don't automatically add -songbackground-
;
#KEYSOUNDS:;
#ATTACKS:
;

//---------------dance-single - ----------------
#NOTEDATA:;
#CHARTNAME:;
#STEPSTYPE:dance-single;
#DESCRIPTION:;
#CHARTSTYLE:;
#DIFFICULTY:Hard;
#METER:12;
#RADARVALUES:0.391892,0.473461,0.018228,0.856695,0.273413,301.000000,299.000000,2.000000,94.000000,0.000000,0.000000,2.000000,0.000000,0.000000,0.391892,0.473461,0.018228,0.856695,0.273413,301.000000,299.000000,2.000000,94.000000,0.000000,0.000000,2.000000,0.000000,0.000000;
#CREDIT:(No Mods Version);
#OFFSET:0.000000;
#BPMS:0.000000=143.000000
;
#STOPS:372.750000=0.210000
,380.750000=0.105000
;
#DELAYS:388.750000=5.000000
;
#WARPS:372.750000=8.000000
,380.750000=8.000000
,388.750000=8.000000
;
#TIMESIGNATURES:0.000000=4=4
,16.000000=3=4
,19.000000=4=4
,47.000000=3=4
,50.000000=4=4
,78.000000=3=4
,81.000000=4=4
,113.000000=3=4
,116.000000=4=4
,124.000000=3=4
,127.000000=4=4
,175.000000=3=4
,178.000000=4=4
,186.000000=2=4
,188.000000=4=4
,308.000000=2=4
,310.000000=4=4
;
#TICKCOUNTS:0.000000=4
;
#COMBOS:0.000000=1
;
#SPEEDS:0.000000=1.000000=0.000000=0
;
#SCROLLS:0.000000=1.000000
;
#FAKES:;
#LABELS:0.000000=Song Start
;
#NOTES:
0000
0000
0000
0000
,
0000
0000
0000
0000
,
0000
0000
0000
0000
,
0000
0000
0000
0000
,
0000
0000
0000
0000
,
0000
0000
0000
0000
0000
0000
0000
0000
0000
0000
0000
0000
0000
0000
0000
0000
0000
0001
0000
0000
0000
0000
0000
0000
0000
0001
0000
0000
0000
0000
0000
0000
0000
1000
0000
0000
0000
0000
0000
0000
0000
0000
0000
0000
0000
0000
0000
0000
0000
0000
0000
0001
0000
0000
0000
0000
0000
0000
0000
0000
0000
0000
0000
0000
,
0000
0000
0000
0000
0000
0000
0000
0000
0000
0000
0000
0000
0000
0000
0000
0000
1000
0000
0000
0000
0000
0000
0000
0000
1000
0000
0000
0000
0000
0000
0000
0001
0000
0000
0000
0000
0000
0000
0000
0000
0000
0000
0000
0000
0000
0000
0000
0000
0000
1000
0000
0000
0000
0000
0000
0000
0000
0000
0000
0000
0000
0000
0000
0000
,
0000
0000
0000
0000
0000
0000
0000
0000
0000
0000
0000
0000
0000
0000
0000
0000
0001
0000
0000
0000
0000
0000
0000
0001
0000
0000
0000
0000
0000
0000
0000
0000
1000
0000
0000
0000
0000
0000
0000
0000
0000
0000
0000
0000
0000
0000
0000
0000
0000
0000
0001
0000
0000
0000
0000
0000
0000
0000
0000
0000
0100
0000
0000
0000
,
0002
0000
0000
0003
0000
0000
0002
0000
0000
0003
0000
0000
1000
0000
0000
0000
0000
0000
0200
0000
0000
0000
0300
0000
,
0020
0000
0000
0000
0030
0000
0001
0000
0100
0000
0001
0000
0000
0000
0000
1000
,
0200
0000
0300
0000
0200
0000
0300
1000
0010
0000
0000
0000
0100
0000
0000
0000
,
0002
0000
0000
0000
0003
0000
2000
0000
0001
0000
0000
0000
3000
0000
0000
0001
,
0020
0030
0020
0030
0100
0000
0000
0000
,
2000
0000
0000
0000
0000
0000
3001
0000
1000
0000
0010
0000
0000
0000
0000
0100
,
0002
0000
0003
0000
0002
0000
0003
1000
0100
0000
0000
0000
0010
0000
0000
0000
,
0020
0000
0000
0000
0000
0000
0031
0000
0010
0000
0200
0000
0000
0000
0300
1000
,
0002
0000
2003
0000
3002
0000
2003
0000
3100
0010
0000
0000
0001
0000
0000
0100
,
0020
0000
0000
0000
0000
0000
0000
0000
0000
0000
0000
0000
0000
0000
0000
0000
1030
0000
0000
0000
0000
0000
0000
0000
0100
0000
0000
0000
0000
0000
0000
0000
0010
0000
0000
0000
0000
0000
0000
0000
0100
0000
0000
0000
0000
0000
0000
0000
0000
0000
0000
2000
0000
0000
0000
0000
0000
0000
0000
0000
3001
0000
0000
0000
,
0200
0000
0300
0000
0010
0000
0000
0010
1000
0000
0000
0000
0010
0000
0100
0000
,
0002
0000
0000
0003
0010
0000
0100
0000
2000
0000
0000
3000
0010
0000
0100
0000
,
0002
0000
0000
0003
1000
0000
0000
0000
0010
0000
0000
0000
0000
0000
0000
0000
,
0000
0000
0000
0000
0000
0000
0000
0000
0000
0000
0000
0000
0000
0000
0000
0000
1000
0000
0000
0000
0000
0000
0000
0000
1000
0000
0000
0000
0000
0000
0000
0000
0010
0000
0000
0000
0000
0000
0000
0000
1000
0000
0000
0000
0000
0000
0000
0000
0000
0000
0000
0002
0000
0000
0000
0000
0000
0000
0000
0000
0013
0000
0000
0000
,
0200
0000
0300
0000
1000
0000
0000
1000
0010
0000
0000
0000
1000
0000
0100
0000
,
0020
0000
0031
0100
0020
0000
1030
0100
,
0020
0031
0100
0000
,
0002
0000
0000
0000
0000
0000
0000
0000
0000
0000
0000
0000
0000
0000
0000
0000
0003
0000
0000
0000
0000
0000
0000
0000
0100
0000
0000
0000
0000
0000
0000
0000
0010
0000
0000
0000
0000
0000
0000
0000
0100
0000
0000
0000
0000
0000
0000
0000
0000
0000
0000
0002
0000
0000
0000
0000
0000
0000
0000
0000
0013
0000
0000
0000
,
0200
0000
0300
0000
1000
0000
0000
0001
0010
0000
0000
0000
0100
0000
1000
0000
,
0020
0000
0130
0001
0020
0000
0130
1000
,
0020
0230
0300
0002
,
1003
0000
0000
0000
0000
0000
0000
0000
0000
0000
0000
0000
0000
0000
0000
0000
0000
0000
0000
0000
0000
0000
0000
0000
0001
0000
0000
0000
0000
0000
0000
0000
0000
0000
0000
0000
0000
0000
0000
0000
0010
0000
0000
0000
0000
0000
0000
0000
0000
0000
0000
0002
0000
0000
0000
0000
0000
0000
0000
0000
0013
0000
0000
0000
,
0200
0000
0000
0000
1300
0000
0000
1000
0001
0000
0000
0000
0100
0000
0001
0000
,
0020
0000
0130
1000
0020
0000
0130
0010
,
2000
0000
0000
0000
3001
0000
0000
0001
0010
0000
0000
0000
0000
0000
0000
0000
,
0000
0002
0000
0010
,
0000
2003
0001
0010
,
0000
3002
0000
1000
,
0023
0000
0230
1000
1000
0000
0310
0000
,
0002
0000
1000
0000
0000
0203
0000
0000
0000
0000
0010
0000
0301
0000
1000
0000
,
0000
0000
0000
1000
0002
0000
0003
0000
0002
0000
0003
1000
0010
0000
0000
0000
,
1000
0000
0000
0000
0200
0000
0000
0000
0000
0000
0310
0000
0001
1000
0200
0000
,
0000
0300
0000
0100
2000
0000
3000
0000
2000
0000
3000
0000
0010
0000
0000
0000
,
0200
0300
0002
0000
0003
1000
0100
1000
,
0000
0000
0000
0001
0020
0000
0030
0000
0020
0000
0030
0001
1000
0000
0000
0000
,
0001
0000
0002
0000
0000
0100
2003
0000
,
3000
0000
0000
0100
0020
0000
0030
0000
0020
0000
0030
0000
0100
0000
0000
0000
,
1000
0000
0020
0000
0000
0100
1030
0001
,
0000
0000
0000
0001
2000
0000
3000
0000
2000
0000
3000
0001
0010
0000
0000
0000
,
0100
0000
0200
0000
1300
0200
0000
0000
,
0000
0000
0300
0010
0200
0000
0300
0000
0200
0000
0300
0000
4004
0000
0000
0000
,
3003
0000
1001
0000
0001
0010
0100
1000
,
0000
0000
0000
0002
0000
0000
0000
0000
0000
0000
0000
0000
1003
0000
0000
0000
0200
0000
0000
0000
0000
0000
0000
0000
0300
0000
0000
0000
0000
0000
0000
0000
1000
0000
0000
0000
0000
0000
0000
0000
0000
0000
0000
0000
1000
0000
0000
0000
0010
0000
0000
0000
0000
0000
0000
0000
0000
0000
0000
0000
0000
0000
0000
0000
,
0100
0001
0020
0000
0031
0100
2000
0000
,
3100
0001
0020
0000
0130
0000
1000
0000
,
0001
0000
0000
0000
1000
1000
0010
1000
,
0000
0000
0000
0200
0000
0000
0000
0000
0000
0000
0000
0000
1300
0000
0000
0000
0002
0000
0000
0000
0000
0000
0000
0000
0003
0000
0000
0000
0000
0000
0000
0000
0100
0000
0000
0000
0000
0000
0000
0000
0000
0000
0000
0000
0100
0000
0000
0000
0010
0000
0000
0000
0000
0000
0000
0000
0000
0000
0000
0000
0000
0000
0000
0000
,
1000
0001
0200
0000
0301
0010
2000
0000
,
3010
0001
0200
0000
0310
0000
1000
0000
,
0000
0000
0002
0000
0003
0010
0100
0010
,
0000
0000
0000
0002
0000
0000
0000
0000
0000
0000
0000
0000
1003
0000
0000
0000
0020
0000
0000
0000
0000
0000
0000
0000
0030
0000
0000
0000
0000
0000
0000
0000
0100
0000
0000
0000
0000
0000
0000
0000
0000
0000
0000
0000
0100
0000
0000
0000
0001
0000
0000
0000
0000
0000
0000
0000
0000
0000
0000
0000
0000
0000
0000
0000
,
0001
1000
0200
0000
1300
0010
0002
0000
,
0013
1000
0200
0000
0320
0000
0031
0000
,
0000
0000
1000
0000
0000
0010
0100
0010
,
0000
0000
0000
2000
0000
0000
0000
0000
0000
0000
0000
0000
3001
0000
0000
0000
0020
0000
0000
0000
0000
0000
0000
0000
0030
0000
0000
0000
0000
0000
0000
0000
0100
0000
0000
0000
0000
0000
0000
0000
0000
0000
0000
0000
0100
0000
0000
0000
0010
0000
0000
0000
0000
0000
0000
0000
0000
0000
0000
0000
0000
0000
0000
0000
,
0001
1000
0020
0000
1030
0100
0002
0000
,
0103
0000
1000
0000
0020
0000
0000
0000
0130
0000
0000
0100
0002
0000
0000
1003
;

//---------------dance-single - ----------------
#NOTEDATA:;
#CHARTNAME:;
#STEPSTYPE:dance-single;
#DESCRIPTION:;
#CHARTSTYLE:;
#DIFFICULTY:Challenge;
#METER:12;
#RADARVALUES:0.382779,0.695381,0.009114,0.856695,0.451132,294.000000,293.000000,1.000000,94.000000,18.000000,0.000000,2.000000,0.000000,86.000000,0.382779,0.695381,0.009114,0.856695,0.451132,294.000000,293.000000,1.000000,94.000000,18.000000,0.000000,2.000000,0.000000,86.000000;
#CREDIT:DJEmbraaaAAAINS;
#ATTACKS:TIME=14.748734:LEN=0.210000:MODS=*1 50% stealth:TIME=14.748734:LEN=2.100000:MODS=*1.5 -75% mini:TIME=16.848734:LEN=2.100000:MODS=*0.5 0% mini:TIME=21.882021:LEN=0.210000:MODS=*1 50% stealth:TIME=27.546356:LEN=0.420000:MODS=*2 65% stealth:TIME=27.966356:LEN=0.840000:MODS=*0.5 0% stealth:TIME=29.846001:LEN=0.840000:MODS=*1 60% stealthred,*1 60% stealthblue,*1 60% stealthgreen:TIME=36.505001:LEN=0.840000:MODS=*1 60% stealthred,*1 60% stealthblue,*1 60% stealthgreen:TIME=43.219002:LEN=0.840000:MODS=*1 60% stealthred,*1 60% stealthblue,*1 60% stealthgreen:TIME=49.932999:LEN=0.840000:MODS=*1 60% stealthred,*1 60% stealthblue,*1 60% stealthgreen:TIME=48.637268:LEN=0.420000:MODS=*3 -50 movey1,*3 -50 movey2,*3 -50 movey3,*3 -50 movey4,*3 -20 movex1,*3 -20 movex2,*3 -20 movex3,*3 -20 movex4:TIME=49.157269:LEN=20.000000:MODS=*5 0 movey1,*5 0 movey2,*5 0 movey3,*5 0 movey4,*3 0 movex1,*3 0 movex2,*3 0 movex3,*3 0 movex4:TIME=54.825970:LEN=0.210000:MODS=*50 6% stealthred,*50 5% stealthblue,*50 -25% mini,*50 5% stealth,*50 30 distant:TIME=55.035969:LEN=0.105000:MODS=*50 12% stealthred,*50 10% stealthblue,*50 -50% mini,*50 10% stealth,*50 60 distant:TIME=55.140968:LEN=0.315000:MODS=*50 18% stealthred,*50 15% stealthblue,*50 -75% mini,*50 15* stealth,*50 90 distant:TIME=55.455963:LEN=0.105000:MODS=*50 24% stealthred,*50 20% stealthblue,*50 -100% mini,*50 20% stealth,*50 120 distant:TIME=55.560966:LEN=0.210000:MODS=*50 30% stealthred,*50 25% stealthblue,*50 -125% mini,*50 25% stealth,*50 150 distant:TIME=55.770966:LEN=26.000000:MODS=*50 36% stealthred,*50 30% stealthblue,*50 -150% mini,*50 30% attenuatex,*50 180 distant:TIME=55.770966:LEN=25.961540:MODS=*500 -150% mini:TIME=81.832504:LEN=0.840000:MODS=*10000 100% stealth,*50 100% blind, *10000 100% hidenoteflash2, *10000 100% dark, *50 0% mini, *10000 -500 movey1,*10000 -500 movey2,*10000 -500 movey3,*10000 -500 movey4:TIME=82.724106:LEN=12.587420:MODS=*100 0 movey1,*100 0 movey2,*100 0 movey3,*100 0 movey4:TIME=82.661003:LEN=12.070000:MODS=*1 100% beat,*2 -50% beatmult:TIME=95.311523:LEN=0.838000:MODS=*100 100% mini,*100 200% movex4,*100 200% movex3,*100 200% movex2,*100 200% movex1,*100 -1200% movez1,*100 -1200% movez2,*100 -1200% movez3,*100 -1200% movez4,*100 200% movey4,*100 200% movey3,*100 200% movey2,*100 200% movey1,*100 100% sudden,*1 0% beat:TIME=96.150681:LEN=5.000000:MODS=*100 0% mini,*10000 0% movez1,*10000 0% movez2,*10000 0% movez3,*10000 0% movez4,*10000 0% movex1,*10000 0% movex2,*10000 0% movex3,*10000 0% movex4,*100 0% movey4,*100 0% movey3,*100 0% movey2,*100 0% movey1,*100 0% sudden:TIME=96.151001:LEN=12.490000:MODS=*1 100% beat,*2 -50% beatmult:TIME=108.600998:LEN=11.650000:MODS=*1 0% beat:TIME=110.000000:LEN=999.000000:MODS=*2 80% stealth;
#NOTES:
// measure 0
0000
0000
0000
0000
,  // measure 1
0000
0000
0000
0000
,  // measure 2
0000
0000
0000
0000
,  // measure 3
0000
0000
0000
0000
,  // measure 4
0000
0000
0000
M000
,  // measure 5
0000
0001
0000
0000
0000
0000
0000
0000
0000
0001
0000
0000
0000
0000
0000
0000
0000
1000
0000
0000
0000
0000
0000
0000
0000
0000
0000
0000
0000
0000
0000
0000
0000
0000
0000
0001
0000
0000
0000
0000
0000
0000
0000
0000
0000
0000
0000
0000
0000
0000
0000
0000
0000
0000
0000
0000
0000
0000
0000
0000
0000
0000
0000
0000
,  // measure 6
1000
0000
0000
0000
0000
0000
0000
0000
1000
0000
0000
0000
0000
0000
0000
0001
0000
0000
0000
0000
0000
0000
0000
0000
0000
0000
0000
0000
0000
0000
0000
0000
0000
1000
0000
0000
0000
0000
0000
0000
0000
0000
0000
0000
0000
0000
0000
0000
0000
0000
0000
0000
0000
0000
0000
0000
0000
0000
0000
0000
0000
0000
0000
0000
,  // measure 7
0001
0000
0000
0000
0000
0000
0000
0001
0000
0000
0000
0000
0000
0000
0000
0000
1000
0000
0000
0000
0000
0000
0000
0000
0000
0000
0000
0000
0000
0000
0000
0000
0000
0000
0001
0000
0000
0000
0000
0000
0000
0000
0000
0000
0100
0000
0000
0000
0002
0000
0000
0000
0000
0000
0000
0000
0003
0000
0000
0000
0000
0000
0000
0000
,  // measure 8
0002
0000
0000
0003
0000
0000
1000
0000
0000
0000
0000
0000
0200
0000
0000
0000
0300
0000
0020
0000
0000
0000
0000
0000
,  // measure 9
0030
0000
0001
0000
0100
0000
0001
0000
0000
0000
0000
1000
0200
0000
0300
0000
,  // measure 10
0200
0000
0300
1000
0010
0000
0000
0000
0100
0000
0000
0000
0002
0000
0000
0000
,  // measure 11
0003
0000
2000
0000
0001
0000
0000
0000
3000
0000
0000
0001
0020
0000
0030
0000
,  // measure 12
0020
0030
0100
0000
200M
0000
0000
3001
,  // measure 13
1000
0000
0010
0000
0000
0000
0000
0100
0002
0000
0003
0000
0002
0000
0003
1000
,  // measure 14
0100
0000
0010
0000
0020
0000
0000
0031
,  // measure 15
0010
0000
0200
0000
0000
0000
0300
1000
0002
0000
2003
0000
3002
0000
2003
0000
,  // measure 16
3100
0010
0000
0000
0001
0000
0000
0100
0020
0000
0000
0000
1030
0000
0100
0000
,  // measure 17
0010
0000
0000
0000
0000
0000
0000
0000
0100
0000
0000
0000
0000
0000
0000
0000
0000
0000
0000
2000
0000
0000
0000
0000
0000
0000
0000
0000
3001
0000
0000
0000
0200
0000
0000
0000
0000
0000
0000
0000
0300
0000
0000
0000
0000
0000
0000
0000
0010
0000
0000
0000
0000
0000
0000
0000
0000
0000
0000
0000
0010
0000
0000
0000
,  // measure 18
1000
0000
0000
0000
0010
0000
0100
0000
0002
0000
0000
0003
0010
0000
0100
0000
,  // measure 19
2000
0000
0000
3000
0010
0000
0100
0000
0002
0000
0000
0003
1000
0000
0000
0000
,  // measure 20
0010
0000
0000
0000
0000
0000
0000
0000
0000
0000
0000
0000
0000
0000
0000
0000
0000
0000
0000
0000
0000
0000
0000
0000
0000
0000
0000
0000
0000
0000
0000
0000
0000
0000
0000
0000
0000
0000
0000
0000
0000
0000
0000
0000
0000
0000
0000
0000
0M0M
1000
0000
0000
0000
0000
0000
0000
0000
0000
0000
0000
0000
0000
0000
0000
0000
0000
0000
0000
0000
0000
0000
0000
0000
0000
0000
0000
0000
0000
0000
0000
0000
0000
0000
0000
0000
0000
0000
0000
0000
0000
0000
0000
0000
0000
0000
0000
0000
0000
0000
0000
0000
0000
0000
0000
0000
0000
0000
0000
0000
0000
0000
0000
0000
0000
0000
0000
0000
0000
0000
0000
0000
0000
0000
0000
0000
0000
0000
0000
0000
0000
0000
0000
0000
0000
0000
0000
0000
0000
0000
0000
0000
0000
0000
0000
0000
0000
0000
0000
0000
0000
0000
0000
0000
0000
0000
0000
0000
0000
0000
0000
0000
0000
0000
0000
0000
0000
0000
0000
0000
0000
0000
0000
0000
0000
0000
0000
0000
0000
0000
0000
0000
0000
0000
0000
0000
0000
0000
0000
0000
0000
0000
0000
,  // measure 21
0000
0000
0000
0000
,  // measure 22
0000
0000
0000
0000
0000
0000
0000
0000
0000
0000
0000
0000
0000
0000
0000
0000
0000
0000
0000
0000
0000
0000
0000
0000
0000
0000
0000
0000
0000
0000
0000
0000
0000
0000
0000
0000
0000
0000
0000
0000
0000
0000
0000
0000
0000
0000
0000
0000
0M0M
1000
0000
0000
0000
0000
0000
0000
0000
0000
0000
0000
0000
0000
0000
0000
0000
0000
0000
0000
0000
0000
0000
0000
1000
0000
0000
0000
0000
0000
0000
0000
0000
0000
0000
0000
0000
0000
0000
0000
0000
0000
0000
0000
0000
0000
0000
0000
0000
0000
0000
0000
0000
0000
0000
0000
0000
0000
0000
0000
0000
0000
0000
0000
0000
0000
0000
0000
0000
0000
0000
0000
0000
0000
0000
0000
0000
0000
0000
0000
0000
0000
0000
0000
0000
0000
0000
0000
0000
0000
0000
0000
0000
0000
0000
0000
0000
0000
0000
0000
0000
0000
0000
0000
0000
0000
0000
0000
0000
0000
0000
0000
0000
0000
0000
0000
0000
0000
0000
0000
0000
0000
0000
0000
0000
0000
0000
0000
0000
0000
0000
0000
0000
0000
0000
0000
0000
0000
0000
0000
0000
0000
0000
0000
,  // measure 23
0000
0000
0000
0000
,  // measure 24
0000
0000
0000
0000
0000
0000
0000
0000
0000
0000
0000
0000
0000
0000
0000
0000
0000
0000
0000
0000
0000
0000
0000
0000
0000
0000
0000
0000
0000
0000
0000
0000
0000
0000
0000
0000
0000
0000
0000
0000
0000
0000
0000
0000
0000
0000
0000
0000
0M0M
1000
0000
0000
0000
0000
0000
0000
0000
0000
0000
0000
0000
0000
0000
0000
0000
0000
0000
0000
0000
0000
0000
0000
1000
0000
0000
0000
0000
0000
0000
0000
0000
0000
0000
0000
0000
0000
0000
0000
0000
0000
0000
0000
0000
0000
0000
0000
0010
0000
0000
0000
0000
0000
0000
0000
0000
0000
0000
0000
0000
0000
0000
0000
0000
0000
0000
0000
0000
0000
0000
0000
0000
0000
0000
0000
0000
0000
0000
0000
0000
0000
0000
0000
0000
0000
0000
0000
0000
0000
0000
0000
0000
0000
0000
0000
0000
0000
0000
0000
0000
0000
0000
0000
0000
0000
0000
0000
0000
0000
0000
0000
0000
0000
0000
0000
0000
0000
0000
0000
0000
0000
0000
0000
0000
0000
0000
0000
0000
0000
0000
0000
0000
0000
0000
0000
0000
0000
0000
0000
0000
0000
0000
0000
,  // measure 25
0000
0000
0000
0000
,  // measure 26
0000
0000
0000
0000
0000
0000
0000
0000
0000
0000
0000
0000
0000
0000
0000
0000
0000
0000
0000
0000
0000
0000
0000
0000
0000
0000
0000
0000
0000
0000
0000
0000
0000
0000
0000
0000
0000
0000
0000
0000
0000
0000
0000
0000
0000
0000
0000
0000
000M
1000
0000
0000
0000
0000
0000
0000
0000
0000
0000
0000
0000
0000
0000
0000
0000
0000
0000
0000
0000
0000
0000
0000
1000
0000
0000
0000
0000
0000
0000
0000
0000
0000
0000
0000
0000
0000
0000
0000
0000
0000
0000
0000
0000
0000
0000
0000
0010
0000
0000
0000
0000
0000
0000
0000
0000
0000
0000
0000
0000
0000
0000
0000
0000
0000
0000
0000
0000
0000
0000
0000
0000
0000
0000
0000
0000
0000
0000
0000
0000
0000
0000
0000
0000
0000
0000
0000
0000
0000
0000
0000
0000
0000
0000
0000
0000
0000
0000
0000
0000
0000
0000
0000
0000
0000
0000
0000
0000
0000
0000
0000
0000
0000
0000
0000
0000
0000
0000
0000
0000
0000
0000
0000
0000
0000
0000
0000
0000
0000
0000
0000
0000
0000
0000
0000
0000
0000
0000
0000
0000
0000
0000
0000
,  // measure 27
0000
0000
0000
0000
,  // measure 28
0000
0000
0000
0000
0000
0000
0000
0000
0000
0000
0000
0000
0000
0000
0000
0000
100M
0000
0000
0000
0000
0000
0000
0000
1000
0000
0000
0000
0000
0000
0000
0000
0010
0000
0000
0000
0000
0000
0000
0000
1000
0000
0000
0000
0000
0000
0000
0000
0000
0000
0000
0002
0000
0000
0000
0000
0000
0000
0000
0000
0013
0000
0000
0000
,  // measure 29
0200
0000
0300
0000
1000
0000
0000
1000
0010
0000
0000
0000
1000
0000
0100
0000
,  // measure 30
0020
0000
0031
0100
0020
0000
1030
0100
,  // measure 31
0020
0000
0000
0000
0000
0000
0000
0000
0000
0000
0000
0000
0000
0000
0000
0000
0000
0000
0000
0000
0000
0000
0000
0000
0000
0000
0000
0000
0000
0000
0000
0000
0000
0000
0000
0000
0000
0000
0000
0000
0000
0000
0000
0000
0000
0000
0000
0000
0031
0000
0000
0000
0000
0000
0000
0000
0000
0000
0000
0000
0000
0000
0000
0000
0000
0000
0000
0000
0000
0000
0000
0000
0000
0000
0000
0000
0000
0000
0000
0000
0000
0000
0000
0000
0000
0000
0000
0000
0000
0000
0000
0000
0000
0000
0000
0000
0100
0000
0000
0000
0000
0000
0000
0000
0000
0000
0000
0000
0000
0000
0000
0000
0000
0000
0000
0000
0000
0000
0000
0000
0000
0000
0000
0000
0000
0000
0000
0000
0000
0000
0000
0000
0000
0000
0000
0000
0000
0000
0000
0000
0000
0000
0000
0000
M000
0002
0000
0000
0000
0000
0000
0000
0000
0000
0000
0000
0000
0000
0000
0000
0000
0000
0000
0000
0000
0000
0000
0000
0000
0000
0000
0000
0000
0000
0000
0000
0000
0000
0000
0000
0000
0000
0000
0000
0000
0000
0000
0000
0000
0000
0000
0000
,  // measure 32
0003
0000
0000
0000
,  // measure 33
0000
0000
0000
0000
0000
0000
0000
0000
0000
0000
0000
0000
0000
0000
0000
0000
0000
0000
0000
0000
0000
0000
0000
0000
0000
0000
0000
0000
0000
0000
0000
0000
0000
0000
0000
0000
0000
0000
0000
0000
0000
0000
0000
0000
0000
0000
0000
0000
0000
0000
0000
0000
0000
0000
0000
0000
0000
0000
0000
0000
0000
0000
0000
0000
0000
0000
0000
0000
0000
0000
0000
0000
0000
0000
0000
0000
0000
0000
0000
0000
0000
0000
0000
0000
0000
0000
0000
0000
0000
0000
0000
0000
0000
0000
0000
0000
0000
0000
0000
0000
0000
0000
0000
0000
0000
0000
0000
0000
0000
0000
0000
0000
0000
0000
0000
0000
0000
0000
0000
0000
0000
0000
0000
0000
0000
0000
0000
0000
0000
0000
0000
0000
0000
0000
0000
0000
0000
0000
0000
0000
0000
0000
0000
0000
M000
0002
0000
0000
0000
0000
0000
0000
0000
0000
0000
0000
0000
0000
0000
0000
0000
0000
0000
0000
0000
0000
0000
0000
0000
0000
0000
0000
0000
0000
0000
0000
0000
0000
0000
0000
0000
0000
0000
0000
0000
0000
0000
0000
0000
0000
0000
0000
,  // measure 34
0003
0100
0000
0000
0000
0000
0000
0000
,  // measure 35
0000
0000
0000
0000
0000
0000
0000
0000
0000
0000
0000
0000
0000
0000
0000
0000
0000
0000
0000
0000
0000
0000
0000
0000
0000
0000
0000
0000
0000
0000
0000
0000
0000
0000
0000
0000
0000
0000
0000
0000
0000
0000
0000
0000
0000
0000
0000
0000
0000
0000
0000
0000
0000
0000
0000
0000
0000
0000
0000
0000
0000
0000
0000
0000
0000
0000
0000
0000
0000
0000
0000
0000
0000
0000
0000
0000
0000
0000
0000
0000
0000
0000
0000
0000
0000
0000
0000
0000
0000
0000
0000
0000
0000
0000
0000
0000
0000
0000
0000
0000
0000
0000
0000
0000
0000
0000
0000
0000
0000
0000
0000
0000
0000
0000
0000
0000
0000
0000
0000
0000
0000
0000
0000
0000
0000
0000
0000
0000
0000
0000
0000
0000
0000
0000
0000
0000
0000
0000
0000
0000
0000
0000
0000
0000
M000
0002
0000
0000
0000
0000
0000
0000
0000
0000
0000
0000
0000
0000
0000
0000
0000
0000
0000
0000
0000
0000
0000
0000
0000
0000
0000
0000
0000
0000
0000
0000
0000
0000
0000
0000
0000
0000
0000
0000
0000
0000
0000
0000
0000
0000
0000
0000
,  // measure 36
0003
0100
0010
0000
0000
0000
0000
0000
,  // measure 37
0000
0000
0000
0002
,  // measure 38
0003
0000
0000
0000
0000
0000
0000
0000
0100
0000
0000
0000
0000
0000
0000
0000
0010
0000
0000
0000
0000
0000
0000
0000
0100
0000
0000
0000
0000
0000
0000
0000
0000
0000
0000
0002
0000
0000
0000
0000
0000
0000
0000
0000
0013
0000
0000
0000
0200
0000
0000
0000
0000
0000
0000
0000
0300
0000
0000
0000
0000
0000
0000
0000
,  // measure 39
1000
0000
0000
0001
0010
0000
0000
0000
0100
0000
1000
0000
0020
0000
0000
0000
,  // measure 40
0130
0001
0020
0000
0130
1000
0020
0000
,  // measure 41
0230
0000
0000
0000
0000
0000
0000
0000
0000
0000
0000
0000
0000
0000
0000
0000
0000
0000
0000
0000
0000
0000
0000
0000
0000
0000
0000
0000
0000
0000
0000
0000
0000
0000
0000
0000
0000
0000
0000
0000
0000
0000
0000
0000
0000
0000
0000
0000
000M
0020
0000
0000
0000
0000
0000
0000
0000
0000
0000
0000
0000
0000
0000
0000
0000
0000
0000
0000
0000
0000
0000
0000
0000
0000
0000
0000
0000
0000
0000
0000
0000
0000
0000
0000
0000
0000
0000
0000
0000
0000
0000
0000
0000
0000
0000
0030
0000
0000
0000
0000
0000
0000
0000
0000
0000
0000
0000
0000
0000
0000
0000
0000
0000
0000
0000
0000
0000
0000
0000
0000
0001
0000
0000
0000
0000
0000
0000
0000
0000
0000
0000
0000
0000
0000
0000
0000
0000
0000
0000
0000
0000
0000
0000
0000
0000
0000
0000
0000
0000
0000
0000
0000
0000
0000
0000
0000
0000
0000
0000
0000
0000
0000
0000
0000
0000
0000
0000
0000
0010
0000
0000
0000
0000
0000
0000
0000
0000
0000
0000
0000
0000
0000
0000
0000
0000
0000
0000
0000
0000
0000
0000
0000
,  // measure 42
0000
0000
0000
0002
0000
0000
0000
0000
0000
0000
0000
0000
0003
0000
0000
0000
0000
0000
0000
0000
0000
0000
0000
0000
0000
0000
0000
0000
0000
0000
0000
0000
0000
0000
0000
0000
0000
0000
0000
0000
0000
0000
0000
0000
0000
0000
0000
0000
0000
0000
0000
0000
0000
0000
0000
0000
0000
0000
0000
0000
0000
0000
0000
0000
,  // measure 43
0000
0000
0020
0000
0000
0000
0030
0001
,  // measure 44
0000
0000
0000
0000
0000
0000
0000
0000
0010
0000
0000
0000
0000
0000
0000
0000
0000
0000
0000
0302
0000
0000
0000
0000
0000
0000
0000
0000
0013
0000
0000
0000
0200
0000
0000
0000
0000
0000
0000
0000
0000
0000
0000
0000
0000
0000
0000
0000
1300
0000
0000
0000
0000
0000
0000
0000
0000
0000
0000
0000
1000
0000
0000
0000
,  // measure 45
0001
0000
0100
0001
0020
0000
0130
1000
,  // measure 46
0020
0000
0000
0000
0130
0000
0010
0000
2000
0000
0000
0000
3001
0000
0000
0001
,  // measure 47
0010
0000
0000
0002
0000
0000
0000
0010
,  // measure 48
0000
0000
0000
2003
0000
3001
0000
0000
,  // measure 49
0000
0000
0000
0000
0000
0000
0000
0000
0000
0002
0000
0000
0000
0000
0000
0000
0000
0000
0000
0000
0000
0000
0000
0000
0000
0010
0000
0000
0000
0000
0000
0000
,  // measure 50
0000
0000
0000
0000
0000
0000
0000
0000
0000
2003
0000
0000
0000
0000
0000
0000
0000
3001
0000
0000
0000
0000
0000
0000
0000
0000
0000
0000
0000
0000
0000
0000
,  // measure 51
0000
0000
0000
0000
0000
0000
0000
0002
0000
0000
0000
0000
0000
0000
0000
0000
0000
0000
0000
0000
0000
0000
0000
0010
0000
0000
0000
0000
0000
0000
0000
0000
,  // measure 52
0000
0000
0000
0000
0000
0000
0000
2003
0000
0000
0000
0000
0000
0000
0000
3001
0000
0000
0000
0000
0000
0000
0000
0000
0000
0000
0000
0000
0000
0000
0000
0000
,  // measure 53
0000
0000
0000
0002
0000
0000
0000
0000
0000
0000
0000
0010
0000
0000
0000
0000
,  // measure 54
0000
0000
0000
2003
0000
0000
0000
3001
0000
0000
0000
0000
0000
0000
0000
0000
,  // measure 55
0000
0000
0000
0002
0000
0000
0000
0000
0000
0000
0000
0000
0000
0000
0000
0000
0000
0000
0000
0010
0000
0000
0000
0000
0000
0000
0000
0000
0000
0000
0000
0000
,  // measure 56
0000
0000
0000
2003
0000
0000
0000
0000
0000
0000
0000
3001
0000
0000
0000
0000
0000
0000
0000
0000
0000
0000
0000
0000
0000
0000
0000
0000
0000
0000
0000
0000
,  // measure 57
0000
0002
0000
0000
0000
0000
0000
0000
0000
0010
0000
0000
0000
0000
0000
0000
,  // measure 58
0000
2003
0000
0000
0000
3001
0000
0000
0000
0000
0000
0000
0000
0000
0000
0000
,  // measure 59
0002
0000
0010
0000
,  // measure 60
2003
0001
0010
0000
,  // measure 61
3002
0000
1000
0023
,  // measure 62
0230
1000
1000
0000
0310
0000
0002
1000
,  // measure 63
0000
0203
0000
0000
0000
0000
0010
0000
0301
0000
1000
0000
0000
0000
0000
1000
,  // measure 64
0002
0000
0003
0000
0002
0000
0003
1000
0010
0000
0000
0000
1000
0000
0000
0000
,  // measure 65
0200
0000
0000
0000
0000
0000
0310
0000
0001
1000
0200
0000
0000
0300
0000
0100
,  // measure 66
2000
3000
2000
3000
0010
0000
0200
0300
,  // measure 67
0002
0000
0000
0000
0003
0000
1000
0000
0100
0000
1000
0000
0000
0000
0000
0001
,  // measure 68
0020
0000
0030
0000
0020
0000
0030
0001
1000
0000
0000
0000
0001
0000
0000
0000
,  // measure 69
0002
0000
0000
0000
0000
0000
0100
0000
2003
0000
0000
0000
3000
0000
0000
0100
,  // measure 70
0020
0030
0020
0030
0100
0000
1000
0000
,  // measure 71
0020
0000
0000
0000
0000
0000
0100
0000
1030
0000
0001
0000
0000
0000
0000
0001
,  // measure 72
2000
0000
3000
0000
2000
0000
3000
0001
0010
0000
0000
0000
0100
0000
0000
0000
,  // measure 73
0200
0000
0000
0000
1300
0000
0200
0000
0000
0000
0000
0000
0000
0000
0300
0010
,  // measure 74
0200
0300
0200
0300
4004
0000
3003
0000
,  // measure 75
1001
0000
0000
0000
0000
0000
0000
0000
0000
0000
0000
0000
0000
0000
0000
0000
0001
0000
0000
0000
0000
0000
0000
0000
0000
0000
0000
0000
0010
0000
0000
0000
0100
0000
0000
0000
0000
0000
0000
0000
1000
0000
0000
0000
0000
0000
0000
0000
0000
0000
0000
0040
0000
0000
0000
0000
0000
0000
0000
0000
1030
0000
0000
0000
,  // measure 76
0200
0000
0300
0000
0010
0000
0000
0010
0001
0000
0000
0000
0000
0000
0000
0000
,  // measure 77
4004
3003
0000
0000
,  // measure 78
0000
0000
0000
0000
0000
0000
0000
0000
0000
0000
0000
0000
0000
0000
0000
0000
0000
0000
0000
0002
0000
0000
0000
0000
0000
0000
0000
0000
1003
0000
0000
0000
0200
0000
0000
0000
0000
0000
0000
0000
0300
0000
0000
0000
0000
0000
0000
0000
1000
0000
0000
0000
0000
0000
0000
0000
0000
0000
0000
0000
1000
0000
0000
0000
,  // measure 79
0010
0000
0100
0001
0020
0000
0031
0100
,  // measure 80
2000
0000
3100
0001
0020
0000
0130
0000
,  // measure 81
1000
0000
0001
0000
0000
0000
1000
1000
,  // measure 82
0010
0000
0000
0000
0000
0000
0000
0000
1000
0000
0000
0000
0000
0000
0000
0000
0000
0000
0000
0200
0000
0000
0000
0000
0000
0000
0000
0000
1300
0000
0000
0000
0002
0000
0000
0000
0000
0000
0000
0000
0003
0000
0000
0000
0000
0000
0000
0000
0100
0000
0000
0000
0000
0000
0000
0000
0000
0000
0000
0000
0100
0000
0000
0000
,  // measure 83
0010
0000
1000
0001
0200
0000
0301
0010
,  // measure 84
2000
0000
3010
0001
0200
0000
0310
0000
,  // measure 85
1000
0000
0000
0000
0002
0000
0003
0010
,  // measure 86
0100
0000
0000
0000
0000
0000
0000
0000
0010
0000
0000
0000
0000
0000
0000
0000
0000
0000
0000
0002
0000
0000
0000
0000
0000
0000
0000
0000
1003
0000
0000
0000
0020
0000
0000
0000
0000
0000
0000
0000
0030
0000
0000
0000
0000
0000
0000
0000
0100
0000
0000
0000
0000
0000
0000
0000
0000
0000
0000
0000
0100
0000
0000
0000
,  // measure 87
0001
0000
0001
1000
0200
0000
1300
0010
,  // measure 88
0002
0000
0013
1000
0200
0000
0320
0000
,  // measure 89
0031
0000
0000
0000
1000
0000
0000
0010
,  // measure 90
0100
0000
0000
0000
0000
0000
0000
0000
0010
0000
0000
0000
0000
0000
0000
0000
0000
0000
0000
2000
0000
0000
0000
0000
0000
0000
0000
0000
3001
0000
0000
0000
0020
0000
0000
0000
0000
0000
0000
0000
0030
0000
0000
0000
0000
0000
0000
0000
0100
0000
0000
0000
0000
0000
0000
0000
0000
0000
0000
0000
0100
0000
0000
0000
,  // measure 91
0010
0000
0001
1000
0020
0000
1030
0100
,  // measure 92
0002
0000
0000
0000
0103
0000
1000
0000
0020
0000
0000
0000
0130
0000
0000
0100
,  // measure 93
0002
M000
00M0
1M03
00M0
0M0M
M0M0
0000
0000
0000
0000
0000
0000
0000
0000
0000
,  // measure 94
0000
0000
0000
0000
,  // measure 95
0000
0000
0000
0M00
0000
000M
M0M0
0000
0000
0000
0000
0000
0000
0000
0000
0000
;
