#VERSION:0.83;
#TITLE:SLASH [MODS-];
#SUBTITLE:;
#ARTIST:Tokyo Machine;
#TITLETRANSLIT:;
#SUBTITLETRANSLIT:;
#ARTISTTRANSLIT:;
#GENRE:;
#CREDIT:;
#MUSIC:SLASH.ogg;
#BANNER:SLASH - BN.png;
#BACKGROUND:SLASH - BG.png;
#CDTITLE:;
#SAMPLESTART:0.000;
#SAMPLELENGTH:0.000;
#SELECTABLE:YES;
#OFFSET:-0.000;
#BPMS:0.000=128.000;
#STOPS:;
#SCROLLS:0.000=1.000,
68.000=0.500,
72.000=1.000
;
#ATTACKS:TIME=3.750:LEN=0.050:MODS=*15 100% Beat :TIME=3.984:LEN=0.050:MODS=*15 -100% Beat :TIME=4.688:LEN=0.050:MODS=*15 100% Beat :TIME=4.922:LEN=0.050:MODS=*15 -100% Beat :TIME=5.625:LEN=0.050:MODS=*15 100% Beat :TIME=5.859:LEN=0.050:MODS=*15 -100% Beat :TIME=6.563:LEN=0.050:MODS=*15 100% Beat :TIME=6.797:LEN=0.050:MODS=*15 -100% Beat :TIME=7.500:LEN=0.050:MODS=*15 100% Beat :TIME=7.734:LEN=0.050:MODS=*15 -100% Beat :TIME=8.438:LEN=0.050:MODS=*15 100% Beat :TIME=8.672:LEN=0.050:MODS=*15 -100% Beat :TIME=9.375:LEN=0.050:MODS=*15 100% Beat :TIME=9.609:LEN=0.050:MODS=*15 -100% Beat :TIME=10.312:LEN=0.050:MODS=*15 100% Beat :TIME=10.547:LEN=0.050:MODS=*15 -100% Beat :TIME=11.250:LEN=0.050:MODS=*15 100% Beat :TIME=11.484:LEN=0.050:MODS=*15 -100% Beat :TIME=12.187:LEN=0.050:MODS=*15 100% Beat :TIME=12.422:LEN=0.050:MODS=*15 -100% Beat :TIME=13.125:LEN=0.050:MODS=*15 100% Beat :TIME=13.359:LEN=0.050:MODS=*15 -100% Beat
;
#JACKET:SLASH - Jacket.png;
#BGCHANGES:;
#FGCHANGES:;

//--------------- dance-single - LuckJury JA ----------------
#NOTEDATA:;
#STEPSTYPE:dance-single;
#DESCRIPTION:LuckJury JA;
#DIFFICULTY:Medium;
#METER:10;
#RADARVALUES:0,0,0,0,0;
#NOTES:
0000
0000
0000
0000
,
0000
0000
0000
0000
,
1001
0000
0000
0000
0002
0000
0000
0003
0020
0000
0000
0030
0200
0000
0000
0300
,
2000
0000
0000
3000
0020
0000
0000
0030
0200
0000
0000
0300
0002
0000
0000
0003
,
2000
0000
0000
3000
0200
0000
0000
0300
0020
0000
0000
0030
0001
0000
1000
0000
,
0010
0000
0000
0000
0200
0000
0000
0300
0002
0000
0000
0003
2000
0000
0000
3000
,
0200
0000
0000
0300
0020
0000
0000
0030
0002
0000
0000
0003
2000
0000
0000
3000
,
0200
0000
0000
0300
0020
0000
0000
0030
0002
0000
0000
0000
2003
0000
0000
0000
,
3002
0000
0000
0003
0020
0000
0000
0030
0200
0000
0000
0300
2000
0000
0000
3000
,
0001
0100
0010
1000
,
1001
0000
0001
0100
0001
0000
1000
0000
,
0100
0100
0010
0010
,
0011
0000
0001
0010
0001
0000
0001
0000
,
2000
3000
0000
0000
,
1100
0010
0001
0000
,
0101
0010
1000
0000
,
1010
1000
0001
0000
,
0220
0000
0330
0000
,
1001
0100
0010
0100
,
0110
1000
0001
1000
,
1001
0001
0100
0010
,
1010
1000
0100
0010
,
0001
0010
0001
0000
0100
0010
0100
0000
,
0010
1000
0010
0000
1000
0001
1000
0001
,
0100
0010
0100
0010
1000
0100
0010
0001
,
1000
0001
0000
0000
,
0110
0000
1000
0001
0100
0010
1000
0100
,
0010
0100
1000
0010
0100
0001
1000
0010
,
1000
0000
0100
0010
0001
1000
0010
0100
,
0010
1000
0100
0010
0002
0000
2003
3000
,
1001
0000
0001
0100
0010
0100
0001
0010
,
0100
1000
0100
0010
0001
0100
0010
1000
,
0100
0000
0010
0001
1000
0001
0010
0100
,
1000
0010
0200
0000
0300
0000
0000
0000
,
0001
0000
1000
0000
0001
0000
1000
0001
,
1000
0001
1000
0001
0100
0010
0100
0010
,
1000
0100
0010
0001
0010
0100
1000
0001
,
1000
0000
0000
0000
,
1001
0000
1000
0100
0010
0001
0010
0001
,
0100
0010
0100
0001
1000
0001
0100
0010
,
1000
0000
0001
0100
0010
1000
0010
1000
,
0100
0010
0100
1000
0001
1000
0100
0010
,
0001
0000
0010
0100
1000
0010
0100
0001
,
1000
0001
0100
0010
1000
0001
0100
0010
,
1000
0000
0100
0010
0100
1000
0010
0100
,
0001
1000
0100
0010
0001
0000
0000
0000
,
0110
0000
1000
1000
0100
0100
0010
0010
,
0001
0001
1000
1000
0010
0010
1000
0001
,
1000
0000
0001
0001
0010
0010
0100
0100
,
1000
1000
0001
0001
0020
0000
0230
0000
,
1300
0000
0001
0001
1000
1000
0010
0010
,
1000
1000
0100
0100
0010
0010
0001
0010
,
0001
0000
1000
1000
0010
0010
1000
1000
,
0001
0001
0100
0010
1000
0001
1000
0100
,
0020
0000
0000
0030
;

//--------------- dance-single - omgukk XO ----------------
#NOTEDATA:;
#STEPSTYPE:dance-single;
#DESCRIPTION:omgukk XO;
#DIFFICULTY:Hard;
#METER:12;
#RADARVALUES:0,0,0,0,0;
#NOTES:
0000
0000
0000
0000
,
0000
0000
0000
0000
,
1001
0000
0000
0000
0002
0000
0000
0003
0020
0000
0000
0030
0200
0000
0000
0300
,
2000
0000
0000
3000
0020
0000
0000
0030
0200
0000
0000
0300
0002
0000
0000
0003
,
2000
0000
0000
3000
0200
0000
0000
0300
0020
0000
0000
0030
0001
0000
1000
0000
,
0010
0000
0000
0000
0200
0000
0000
0300
0002
0000
0000
0003
2000
0000
0000
3000
,
0200
0000
0000
0300
0020
0000
0000
0030
0002
0000
0000
0003
2000
0000
0000
3000
,
0200
0000
0000
0300
0020
0000
0000
0030
0001
0000
0100
0000
0010
0000
0100
0000
,
0002
0000
0000
0003
0020
0000
0000
0030
0200
0000
0000
0300
2000
0000
0000
3000
,
0001
0100
0010
1000
,
1001
0000
0001
0100
0010
0000
0100
0010
,
1000
0000
0001
0100
0001
0001
1000
1000
,
1001
0000
0001
0010
0100
0000
0010
0100
,
2000
3000
0000
0000
0000
0000
0000
0000
,
0002
0000
0013
0001
MMMM
0000
0001
0100
,
0020
0000
1030
0100
MMMM
0000
0100
1000
,
0200
0000
0310
0001
MMMM
0000
0001
1000
,
0020
0000
0030
0000
0100
0001
0100
0000
,
0020
0000
0000
1030
0001
0000
0001
0000
1000
0000
0100
0000
0020
0000
0031
0000
,
0200
0000
0000
0301
1000
0000
1000
0000
0001
0000
0010
0000
0200
0000
1300
0000
,
0020
0000
0000
1030
0100
0000
0100
0000
1000
0000
0010
0000
0200
0000
0301
0000
,
0020
0000
0000
0031
0010
0000
0010
0000
0001
0000
0100
0000
0010
0000
1000
0000
,
0100
0010
0001
1000
0010
0100
0001
0010
,
0100
1000
0001
0100
0010
1000
0100
0010
,
0001
0000
1000
0000
0010
0000
0100
0000
0001
0000
0100
0000
0001
0000
1000
0000
0400
0000
0040
0000
0000
0000
0000
0000
0000
0000
0000
0000
0000
0300
0000
0000
,
0032
0023
0034
4003
,
3200
0000
0000
0000
1300
0001
0000
1000
0001
0000
0100
0010
0000
0100
0010
0000
,
1000
0100
0000
0010
0001
0000
1000
0010
0000
0100
0001
0000
0020
0000
0130
0000
,
2002
0000
3003
0000
0001
1000
0000
0001
1000
0000
0100
0010
0000
0100
0010
0000
,
0001
0100
0000
0010
1000
0000
0010
1000
0002
0000
0000
0000
0023
0000
0000
0000
,
0230
0000
0000
0000
1300
0001
0000
1000
0001
0000
0100
0010
0000
0100
0010
0000
,
1000
0100
0000
0010
0001
0000
1000
0010
0000
0100
0001
0000
0020
0000
0130
0000
,
2002
0000
3003
0000
0001
1000
0000
0001
1000
0000
0010
0100
0000
0010
0100
0000
,
0001
0010
0000
0100
2000
0000
0000
0000
3001
0000
0100
0020
0000
0000
2030
0000
,
3001
1000
0100
0010
0001
0100
0010
1000
,
0001
0010
0100
1000
0010
0100
0001
0010
,
0100
0000
1000
0000
0001
1000
0100
0010
0001
4000
0040
0000
0000
0000
0000
0030
,
3002
0003
0000
0000
,
2002
0000
0000
0000
0000
0000
3003
0000
0000
0000
0000
0000
0001
0000
0000
0000
0000
0000
1000
0000
0000
0000
0000
0000
0001
0000
0000
0000
0010
0000
0000
0000
0100
0000
0000
0000
1000
0000
0000
0010
0000
0000
4000
0000
0000
0000
0000
0000
,
0000
0000
0000
0000
3001
0020
0100
0031
,
1001
0000
0000
0000
0000
0000
0000
0000
0000
0000
0000
0000
1000
0000
0000
0000
0000
0000
0001
0000
0000
0000
0000
0000
1000
0000
0000
0000
0100
0000
0000
0000
0010
0000
0000
0000
0001
0000
0000
0100
0000
0000
0004
0000
0000
0000
0000
0000
,
0000
0000
0000
0000
1003
0200
0010
1300
,
1001
0000
0000
0000
0000
0000
0000
0000
0000
0000
0000
0000
0001
0000
0000
0000
0000
0000
1000
0000
0000
0000
0000
0000
0001
0000
0000
0000
0100
0000
0000
0000
0010
0000
0000
0000
1000
0000
0000
0001
0000
0000
0400
0000
0000
0000
0000
0000
,
0000
0000
0000
0000
0310
2000
0100
3001
,
1001
0000
0000
0000
0000
0000
0000
0000
0000
0000
0000
0000
1000
0000
0000
0000
0000
0000
0001
0000
0000
0000
0000
0000
1000
0000
0000
0000
0010
0000
0000
0000
0100
0000
0000
0000
0001
0000
0000
1000
0000
0000
0400
0000
0000
0000
0000
0000
,
0000
0000
0000
0000
0000
0000
0000
0000
0310
0000
0100
1000
0000
0000
0010
0000
,
0220
0330
0001
0010
1000
0010
0001
0100
,
0010
1000
0001
0010
0100
2000
0100
3001
,
1001
1000
0010
0001
0010
1000
0100
0010
,
0001
0000
1000
0000
0010
0000
0100
0000
0002
0000
0000
0003
2000
0000
0000
3000
,
2002
3003
0001
0100
1000
0100
0001
0010
,
0100
1000
0001
0100
0010
2000
0100
3001
,
1001
0000
1000
0100
0001
0100
1000
0010
,
0100
0001
1000
0100
0010
0002
0010
1003
,
0020
0030
0000
0000
;

//--------------- dance-single - FS JA SJ XO ----------------
#NOTEDATA:;
#STEPSTYPE:dance-single;
#DESCRIPTION:FS JA SJ XO;
#DIFFICULTY:Challenge;
#METER:14;
#RADARVALUES:0,0,0,0,0;
#CREDIT:Luckjury & omgukk;
#NOTES:
0000
0000
0000
0000
,
0000
0000
0000
0000
,
1001
0000
0000
0000
0002
0000
0000
0003
0200
0000
0000
0300
0020
0000
0000
0030
,
2000
0000
0000
3000
0200
0000
0000
0300
0020
0000
0000
0030
0002
0000
0000
0003
,
2000
0000
0000
3000
0020
0000
0000
0030
0200
0000
0000
0300
0001
0000
0010
0000
,
0100
0000
0000
0000
2000
0000
0000
3000
0200
0000
0000
0300
2000
0000
0000
3000
,
0001
0000
0000
0000
0200
0000
0000
0300
0020
0000
0000
0030
2000
0000
0000
3000
,
0200
0000
0000
0300
0020
0000
0000
0030
0001
0000
0100
0000
1000
0000
0100
0000
,
0002
0000
0000
0003
0200
0000
0000
0300
0020
0000
0000
0030
2000
0000
0000
3000
,
0101
1010
0011
1100
,
1001
0001
0010
0001
1000
0001
0100
0010
,
1000
0001
0010
0100
1000
0001
1000
0001
,
1001
0000
1000
0000
0001
0000
0100
0000
0001
0000
1000
0000
0100
0000
0010
0001
,
0020
0000
0000
0030
0000
0000
0000
0000
0000
0000
0000
0000
0000
0000
0000
0000
,
0012
0000
0000
0013
0001
0000
1000
0000
MMMM
0000
0000
1000
0010
0000
0100
0000
,
0201
0000
0000
0301
0010
0000
0100
0000
MMMM
0000
0000
0100
1000
0000
0100
0000
,
0120
0000
0000
0130
1000
0000
0001
0000
MMMM
0000
0000
0001
0100
0000
0010
0000
,
0220
0000
0330
0000
0100
0010
0100
0000
,
1001
0000
0000
1000
0100
00M0
0100
0000
0001
0100
1000
0100
0020
0000
1030
0000
,
1010
0000
0000
0001
0100
00M0
0100
0000
1000
0100
0001
0100
0010
0000
0001
0000
,
0101
0000
0000
0001
0100
00M0
0100
0000
1000
0010
0001
0010
0100
0000
0001
0000
,
0011
0000
0000
1000
0100
00M0
0100
0000
0001
0010
1000
0010
0100
0000
1000
0000
,
0001
0100
1000
0100
0001
0000
0001
0000
1000
0100
0001
0100
1000
0000
1000
0000
,
0001
0010
1000
0010
0001
0000
0001
0000
1000
0010
0100
0001
0100
0001
1000
0100
,
0010
0001
0100
0010
1000
0100
0010
0001
0100
0010
0100
0001
0010
0100
1000
0001
,
0200
0320
4030
3004
,
0023
0000
0000
0000
0031
0010
0000
0010
0100
0000
0100
1000
0000
1000
0010
0000
,
0010
1000
0000
1000
0001
0000
0001
0010
0000
0010
0100
1000
0200
0000
1300
0000
,
2002
0000
3003
0000
1000
0010
0000
0010
1000
0000
1000
0100
0000
0100
0010
0000
,
0010
0001
0000
0001
0100
0000
0100
0010
2000
0000
0000
0000
3002
0000
0000
0003
,
0021
0000
0000
0000
0031
0100
0000
0100
0010
0000
0010
1000
0000
1000
0001
0000
,
0001
0010
0000
0010
0100
0000
0100
0010
0000
0010
0001
0100
0010
0000
1000
0000
,
2002
0000
3003
0000
0001
0100
0000
0100
0010
0000
0010
1000
0000
1000
0001
0000
,
0001
0100
0000
0100
0002
0000
0000
0000
2003
0000
3200
0320
0000
0000
0031
0000
,
0001
0100
1000
0100
0001
0000
0001
0000
1000
0100
0001
0100
1000
0000
1000
0000
,
0001
0010
1000
0010
0001
0000
0001
0000
1000
0010
0001
0010
1000
0000
1000
0000
,
0001
0100
0010
0100
0001
0010
0100
1000
0001
0100
0010
1000
0100
0010
0001
1000
,
0020
0000
1030
0001
0010
0100
0110
0000
,
2002
0000
0000
0000
0000
0000
3003
0000
0000
0000
0000
0000
0001
0000
0000
0000
0000
0000
1000
0000
0000
0000
0000
0000
0001
0000
0000
0000
0010
0000
0000
0000
0100
0000
0000
0000
1000
0000
0000
0010
0000
0000
1000
0000
0000
0010
0000
0000
,
0100
0000
0000
0001
0000
0000
0010
0000
0000
0100
0000
0000
1000
0000
0000
0100
0000
0000
1000
0000
0010
0000
0100
0000
0010
0000
0000
0000
0000
0000
1000
0000
0000
0100
0000
0000
0020
0000
0000
0000
0000
0000
0031
0000
0000
0000
0000
0000
,
1001
0000
0000
0000
0000
0000
0000
0000
0000
0000
0000
0000
1000
0000
0000
0000
0000
0000
0001
0000
0000
0000
0000
0000
1000
0000
0000
0000
0010
0000
0000
0000
0100
0000
0000
0000
0001
0000
0000
0010
0000
0000
0100
0000
0000
1000
0000
0000
,
0010
0000
0000
0100
0000
0000
0001
0000
0000
0010
0000
0000
0100
0000
0000
1000
0000
0000
0010
0000
0100
0000
0010
0000
0100
0000
0000
0000
0000
0000
0001
0000
0000
0010
0000
0000
0200
0000
0000
0000
0000
0000
1300
0000
0000
0000
0000
0000
,
1001
0000
0000
0000
0000
0000
0000
0000
0000
0000
0000
0000
0001
0000
0000
0000
0000
0000
1000
0000
0000
0000
0000
0000
0001
0000
0000
0000
0100
0000
0000
0000
0010
0000
0000
0000
1000
0000
0000
0100
0000
0000
1000
0000
0000
0100
0000
0000
,
0010
0000
0000
0001
0000
0000
0100
0000
0000
0010
0000
0000
1000
0000
0000
0010
0000
0000
1000
0000
0100
0000
0010
0000
0001
0000
0000
0000
0000
0000
1000
0000
0000
0010
0000
0000
0200
0000
0000
0000
0000
0000
0301
0000
0000
0000
0000
0000
,
1001
0000
0000
0000
0000
0000
0000
0000
0000
0000
0000
0000
1000
0000
0000
0000
0000
0000
0001
0000
0000
0000
0000
0000
1000
0000
0000
0000
0100
0000
0000
0000
0010
0000
0000
0000
0001
0000
0000
0100
0000
0000
0010
0000
0000
1000
0000
0000
,
0100
0000
0000
0000
0000
0000
0000
0000
0000
0000
0000
0000
0010
0000
0000
0000
0000
0000
0000
0000
0000
0000
0000
0000
0001
0000
0000
0000
0000
0000
0000
0000
0000
0000
0000
0000
0100
0000
0000
0000
0000
0000
0000
0000
0000
0000
0000
0000
0001
0000
0000
0000
0000
0000
0000
0000
1000
0000
0000
0000
0000
0000
0000
0000
0000
0000
0000
0000
0000
0010
0000
0000
0000
0000
0000
0000
0000
0000
0000
0000
0000
0000
0000
0000
0100
0000
0000
0000
0000
0000
0000
0000
0000
0000
0000
0000
0001
0000
0000
0000
0000
0000
0000
0000
0000
0000
0000
0000
0000
0000
0000
0000
0000
0000
0000
0000
0000
0000
0000
0000
0010
0000
0000
0000
0000
0000
0000
0000
0000
0000
0000
0000
0100
0000
0000
0000
0000
0000
0000
0000
0000
0000
0000
0000
0000
0000
0000
0000
0000
0000
0000
0000
0000
0000
0000
0000
0100
0000
0000
0000
0000
0000
0000
0000
0000
0000
0000
0000
0010
0000
0000
0000
0000
0000
0000
0000
0000
0000
0000
0000
0000
0000
0000
0000
0000
0000
0000
0000
0000
0000
0000
0000
,
1001
0000
0000
0000
0001
0100
0010
0000
1000
0100
0000
0001
0100
0000
1000
0010
,
0000
0010
0100
0000
0100
1000
0000
0100
0001
0010
0200
0000
1000
0000
0310
0000
,
1001
0000
1000
0000
0100
0010
0001
0000
1000
0010
0000
0001
0010
0000
1000
0100
,
0000
0000
0100
0000
0010
0000
0000
0000
0010
0000
1000
0000
0000
0000
0010
0000
0002
0000
0000
0000
0000
0000
0000
0003
0200
0000
0000
0000
0000
0000
0300
0000
,
2002
0000
0000
3003
1000
0010
0100
0000
0001
0010
0000
1000
0010
0000
0001
0100
,
0000
0100
0010
0000
0010
0001
0000
0010
1000
0100
0020
0000
0001
0000
0130
0000
,
1001
0000
0001
0000
0010
0100
1000
0000
0001
0100
0000
1000
0100
0000
0001
0010
,
0000
0010
0100
0000
0100
0001
0000
0100
1000
0000
0001
0200
0000
0310
1000
0000
,
0002
0003
0000
0000
;
