#VERSION:0.83;
#TITLE:Running with the Wolves;
#SUBTITLE:Wolfwalkers Version;
#ARTIST:Aurora;
#TITLETRANSLIT:;
#SUBTITLETRANSLIT:;
#ARTISTTRANSLIT:;
#GENRE:;
#CREDIT:Braeden;
#MUSIC:Running With the Wolves.ogg;
#BANNER:Running With the Wolves-ban.png;
#BACKGROUND:Running With the Wolves-bg.png;
#CDTITLE:;
#SAMPLESTART:0.000;
#SAMPLELENGTH:0.000;
#SELECTABLE:YES;
#OFFSET:-0.366;
#BPMS:0.000=82.000;
#STOPS:;
#JACKET:Running With the Wolves-jacket.png;
#BGCHANGES:;
#FGCHANGES:;

//--------------- dance-single - ----------------
#NOTEDATA:;
#STEPSTYPE:dance-single;
#DESCRIPTION:;
#CREDIT:Braeden;
#DIFFICULTY:Beginner;
#METER:1;
#RADARVALUES:0,0,0,0,0;
#NOTES:
0000
0000
0000
0000
,
0000
0000
0000
0000
,
0000
0000
0000
2000
0000
0000
0000
0000
,
0000
3000
0000
0000
,
0001
0000
0000
0000
,
1000
0000
0000
0000
,
0010
0000
0000
0000
,
0100
0000
0000
0000
,
0001
0000
0000
0000
,
1000
0000
0000
0000
,
0001
0000
0000
0000
,
0010
0000
0000
0000
,
0100
0000
1000
0000
,
0001
0000
0000
0000
,
1000
0000
0000
0000
,
0001
0000
0000
0000
,
0100
0000
0010
0000
,
1000
0000
0001
0000
,
1000
0000
1000
0000
,
0001
0000
0001
0000
,
0100
0000
0010
0000
,
2000
0000
3000
0000
,
0001
0000
0100
0000
,
0002
0000
0003
0000
,
1000
0000
0001
0000
,
0100
0000
0010
0000
,
1000
0000
0001
0000
,
0010
0000
0100
0000
,
1000
0000
0001
0000
,
1000
0000
0000
0000
,
0001
0000
0000
0000
,
0100
0000
0000
0000
,
0010
0000
1000
0000
,
0001
0000
0010
0000
,
0100
0000
1000
0000
,
0001
0000
0100
0000
,
1001
0000
0001
0000
,
2000
0000
3000
0000
,
0010
0000
0100
0000
,
0002
0000
0003
0000
,
1001
0000
1000
0000
,
0001
0000
0100
0000
,
0020
0000
0030
0000
,
2000
0000
3000
0000
,
2002
0000
3003
0000
;

//--------------- dance-single - ----------------
#NOTEDATA:;
#STEPSTYPE:dance-single;
#CREDIT:Braeden;
#DESCRIPTION:;
#DIFFICULTY:Easy;
#METER:5;
#RADARVALUES:0,0,0,0,0;
#NOTES:
0000
0000
0000
0000
,
0000
0000
0000
0000
,
0000
0000
0000
2000
0000
0000
0000
0000
,
0000
3000
0000
0000
,
0001
1000
0000
0000
1000
0000
0001
0000
,
0100
0010
0000
0000
1000
0000
0002
0000
,
1003
0010
0000
0000
0100
0000
0001
0000
,
1000
0010
0000
0000
1000
0000
0002
0000
,
1003
0001
0000
0000
1000
0000
0010
0000
,
0100
0001
0000
0000
1000
0000
0002
0000
,
1003
0010
0000
0000
1000
0000
0010
0000
,
0100
0001
0000
0000
0100
0000
0020
0000
,
1030
0001
0000
0000
1000
0000
0100
0000
,
0010
0001
1000
0000
0001
0000
2000
0000
,
3001
0100
0001
0000
1000
0000
0020
0000
,
0130
0001
0010
0100
,
2000
3001
0200
0300
,
0002
0000
1003
0010
2000
0000
3000
0000
,
0001
0100
0010
1000
,
0100
0000
0010
0000
0001
0000
1000
0010
,
2000
0000
3000
0001
0100
0000
0010
1000
,
0020
0000
0000
0000
1030
0000
0001
0100
,
0020
0000
0030
1000
0100
0000
1000
0001
,
0200
0000
0000
0000
0300
0000
0010
1000
,
0001
0100
0000
0000
0010
0000
1000
0000
,
0001
0100
0000
0000
0010
0000
2000
0000
,
3001
0010
0000
0000
0100
0000
1000
0000
,
0001
0100
0000
0000
0010
1000
0002
0000
,
1003
0010
0000
0000
1000
0000
0001
0000
,
0100
0000
0000
0020
0000
0000
2030
0000
,
3001
0100
0000
0000
0010
0000
0200
0000
,
0301
0200
0000
0300
,
0010
1000
0001
0100
,
0020
0000
1030
0001
0200
0000
0300
0000
,
0001
1000
0100
1000
,
0001
0000
0010
0000
0100
0000
1000
0001
,
0200
0000
0300
0010
1000
0000
0001
0010
,
0200
0000
0000
0000
0310
0000
0001
1000
,
0020
0000
0030
0100
0002
0000
0000
0000
,
2003
0000
3010
0100
,
0001
0010
0100
1000
,
0001
0100
0010
1000
,
0001
0100
0020
0030
,
1000
0001
1000
0010
,
0200
0000
0300
0000
;

//--------------- dance-single - ----------------
#NOTEDATA:;
#STEPSTYPE:dance-single;
#CREDIT:Braeden;
#DESCRIPTION:;
#DIFFICULTY:Medium;
#METER:9;
#RADARVALUES:0,0,0,0,0;
#NOTES:
0000
0000
0000
0000
,
0000
0000
0000
0000
,
0000
0000
0000
2000
0000
0000
0000
0000
,
0000
3000
0000
0000
,
0001
0010
1000
0010
0001
0010
0100
0000
,
1000
0100
0001
0100
0010
0100
2000
0000
,
3001
0010
0100
0001
0100
0010
0001
0000
,
1000
0010
0100
0001
0010
0100
2000
0000
,
3001
0100
1000
0100
0010
1000
0001
0000
,
1000
0100
0001
0100
1000
0010
0200
0000
,
0301
0010
1000
0010
0100
0010
0001
0000
,
1000
0010
0100
0001
0010
0100
2000
0000
,
3001
0000
0100
0000
0010
0000
1000
0000
0001
0100
0001
0100
0001
0000
0000
0000
,
1000
0010
0100
0000
0001
0000
2000
0000
,
3001
0000
0010
0000
0100
0000
1000
0000
0001
0100
0001
0100
0010
0000
0000
0000
,
1000
0001
1000
0000
0010
0000
0100
0001
,
2000
0000
0000
0000
3001
0000
0010
0000
0002
0000
0000
0000
0013
0000
0100
1000
,
0200
0000
0000
0000
0310
0000
0001
0000
2000
0000
0000
0000
3000
0000
0000
0001
,
0100
0000
0000
0100
0010
0000
0000
0010
1000
0000
0000
1000
0100
0000
0000
0100
,
0010
0000
0000
0010
0001
0000
0000
0001
1000
0000
0010
0000
1000
0001
1000
0001
,
1000
0000
0100
0000
0010
0000
0001
0000
1000
0000
0000
0000
0001
0100
0001
0100
,
0001
0000
2000
0000
0000
0000
3001
0000
0100
0000
0000
0000
0010
1000
0010
1000
,
0010
0100
0001
0010
0100
0000
0010
0001
,
1000
0020
0000
0130
0001
0000
1000
0001
,
1000
0100
0010
0001
0100
0010
2000
0000
,
3001
0010
0100
1000
0010
0100
0002
0000
,
1003
0100
0010
0100
1000
0001
0100
0000
,
0001
0010
0001
0100
0010
1000
0002
0000
,
1003
0000
0100
0000
0010
0000
0001
0000
1000
0010
1000
0010
1000
0000
0000
0000
,
0001
0100
0020
0000
0000
0000
2030
0000
,
3001
0000
0100
0000
0010
0000
1000
0000
0001
0010
0100
1000
0200
0000
0000
0000
,
1300
0001
0200
0000
0010
0000
0310
1000
,
1002
0000
0000
0000
1003
0000
0001
0000
0200
0000
0000
0000
0310
0000
1000
0100
,
2000
0000
0000
0000
3001
0000
0100
0000
0020
0000
0000
0000
0030
0000
0000
1000
,
0001
0000
0000
1000
0100
0000
0000
0010
0001
0000
0000
0010
0100
0000
0000
1000
,
0001
0000
0000
0010
0100
0000
0000
1000
0001
0000
0100
0000
0001
0010
0001
0010
,
0001
0000
0100
0000
0010
0000
1000
0000
0001
0000
0010
0000
0100
1000
0100
1000
,
0001
0000
0200
0000
0000
0000
0310
0000
1000
0000
0000
0000
0001
0010
0100
1000
,
0001
0000
0100
0000
0010
0000
1000
0000
0002
0000
0000
0000
1003
0100
1000
0001
,
0100
0000
0020
0000
0000
0000
0130
0000
0001
0000
0000
0000
1000
0001
1000
0010
,
0100
0000
0000
0100
0001
0000
0000
0001
0100
0000
0000
0100
0010
0000
0000
0010
,
1000
0000
0000
1000
0100
0000
0000
0100
0010
0000
0000
0001
0100
0000
0010
0000
,
1000
0001
0010
0100
1000
0000
0001
0000
,
1000
0000
0010
0000
0100
0000
0001
0000
0200
0000
0000
0000
0310
1000
0010
1000
,
0200
0000
0300
0000
;

//--------------- dance-single - ----------------
#NOTEDATA:;
#STEPSTYPE:dance-single;
#DESCRIPTION:;
#CREDIT:Braeden;
#DIFFICULTY:Hard;
#METER:11;
#RADARVALUES:0,0,0,0,0;
#NOTES:
0000
0000
0000
0000
,
0000
0000
0000
0000
,
0000
0000
0000
00M0
00M0
00M0
00M0
00M0
,
00M0
00M0
00M0
0000
0000
0000
0000
0000
,
0001
1000
0001
1000
0100
0000
0010
0000
0001
0000
0100
0000
0010
0000
0000
0000
,
1000
0010
0100
0001
1000
0000
0100
0000
0010
0000
0001
0000
2000
0000
0000
0000
,
3001
0100
0010
1000
0001
0000
1000
0000
0100
0000
0010
0000
0100
0000
0000
0000
,
1000
0010
0100
0001
1000
0000
0001
0000
0010
0000
0100
0000
2000
0000
0000
0000
,
3001
0100
0001
0100
0001
0000
1000
0000
0100
0000
0001
0000
0100
0000
0000
0000
,
1000
0010
0100
0001
1000
0100
1000
0000
0001
0000
0100
0000
0020
0000
0000
0000
,
1030
0001
0010
0001
1000
0000
0010
0000
0001
0000
0010
0000
1000
0000
0000
0000
,
0001
0100
0010
1000
0001
0010
0001
0000
1000
0000
0010
0000
0200
0000
0000
0000
,
0301
0010
0001
1000
0100
0000
1000
0010
1000
0010
0100
0001
1000
0000
0000
0000
,
1000
0001
0100
0001
1000
0000
0000
0000
0100
0000
0000
0000
0020
0000
0000
0000
,
0031
0100
0010
1000
0001
0000
1000
0100
1000
0010
1000
0001
2000
0000
0000
0000
,
3100
0010
0100
0010
0001
0000
0000
0000
1000
0000
0000
0000
0100
0000
1000
0000
,
0002
0000
0000
0000
1003
0000
0010
0100
0020
0000
0000
0000
1030
0000
0001
0010
,
0002
0000
0000
0000
1003
0000
0100
0000
2000
0000
0001
0000
3001
0000
1000
0100
,
0010
0000
0001
0100
1000
0000
0100
0001
1000
0000
0010
0100
0001
0000
1000
0010
,
0001
0000
0010
1000
0100
0000
0010
0001
0100
0000
0010
1000
0100
0010
0001
1000
,
0001
0000
0000
0000
1000
0000
0100
0000
1000
0000
0000
0000
0001
0000
0001
0000
1000
0000
0000
0000
0000
0000
0001
0000
0100
0000
0010
0000
1000
0000
0001
0100
,
0001
0000
2000
0000
0000
3020
0230
0302
1003
0010
0000
1000
0001
0100
0001
0100
,
0002
0000
1003
0100
0010
0000
0001
0001
1000
0000
0000
0010
1000
0100
1000
0001
,
0020
0000
0230
0000
0000
2300
3002
2003
3010
0000
0100
0001
0010
0100
1000
0001
,
1000
0100
0010
0001
0000
0000
1000
0000
0001
0000
0100
0000
0010
0000
1000
0000
,
0001
0010
0001
0100
0010
0000
1000
0000
0001
0000
0010
0000
0200
0000
0000
0000
,
1300
0010
0100
0001
1000
0000
0001
0000
0010
0000
1000
0000
0010
0000
0000
0000
,
0001
0100
0010
0100
0001
0000
1000
0000
0100
0000
0010
0000
0002
0000
0000
0000
,
1003
0100
0010
0001
1000
0000
0001
0100
0001
0010
0001
0100
0010
0000
0000
0000
,
1000
0100
1000
0001
0100
0000
00M1
0000
10M0
0000
01M0
0000
20M0
0000
00M0
0000
,
30M1
0100
0001
0100
0001
0000
0010
0100
1000
0100
0010
0001
0020
0000
0030
0000
,
0001
0000
0100
0000
0010
0000
1000
0000
0M01
0000
0000
0000
0M10
0000
0000
0000
0M01
0000
0000
0000
1M00
0000
0001
0010
0001
0000
1000
0000
0010
0000
0100
0000
,
0002
0000
0000
0000
1003
0100
0010
0001
2000
0000
3010
0100
0001
0000
0010
0100
,
2000
0000
0000
0000
3001
0000
0100
0000
0010
0000
1000
0000
0001
0000
0100
0010
,
1000
0000
0001
0100
1000
0000
0100
0001
1000
0000
0010
0100
0001
0000
1000
0100
,
0020
0000
0031
0100
0010
0000
1000
0100
2000
0000
3001
0100
0010
1000
0001
1000
,
1020
0000
0000
1030
0000
0000
0001
0100
0010
0000
0000
1000
0100
0010
0001
1000
,
0002
0000
0203
0000
0000
0320
2030
3002
1003
0010
0000
1000
0100
1000
0001
0100
,
0002
1000
0000
1003
0010
0000
0100
0001
10M0
0000
00M1
1000
01M0
1000
01M0
1000
,
00M2
0000
0203
0000
0000
0320
2030
3002
1003
0100
0000
0010
0001
0010
0100
1000
,
0001
0000
0000
0100
0100
0000
0000
0010
0010
0000
0000
1000
1000
0000
0000
0001
,
0001
0000
0000
1000
1000
0000
0000
0100
0100
0000
0000
0010
0010
0001
0010
0001
,
2000
0000
3020
0000
0230
0000
0302
0000
1003
0100
0010
0001
1000
0010
0100
0001
,
2000
0000
3002
0000
0203
0000
0320
0000
1030
0000
0100
0010
0100
0010
0001
1000
,
0200
0000
0300
0000
;

//--------------- dance-double - ----------------
#NOTEDATA:;
#STEPSTYPE:dance-double;
#DESCRIPTION:;
#CREDIT:Braeden;
#DIFFICULTY:Hard;
#METER:11;
#RADARVALUES:0,0,0,0,0;
#NOTES:
00000000
00000000
00000000
00000000
,
00000000
00000000
00000000
00000000
,
00000000
00000000
00000000
00M00000
00M00000
00M00000
00M00000
00M00000
,
00M00000
00M00000
00000000
00000000
00000000
00000000
00000000
00000000
,
00001000
00010000
00001000
00010000
00000000
00000000
00001000
00000000
01000000
00000000
00100000
00000000
10000000
00000000
00000000
00000000
,
00010000
01000000
00100000
10000000
00000000
00000000
00010000
00000000
10000000
00000000
01000000
00000000
00200000
00000000
00000000
00000000
,
00301000
00100000
00001000
00100000
00000000
00000000
00001000
00000000
00010000
00000000
00000100
00000000
00001000
00000000
00000000
00000000
,
00000010
00000100
00000010
00000100
00000010
00000000
00000100
00000000
00000001
00000000
00000100
00000000
00000002
00000000
00000000
00000000
,
00001003
00000010
00001000
00000100
00001000
00000000
00000100
00000000
00010000
00000000
00001000
00000000
01000000
00000000
00000000
00000000
,
00010000
00100000
01000000
00100000
00010000
00000000
01000000
00000000
00010000
00000000
00100000
00000000
00002000
00000000
00000000
00000000
,
01003000
00100000
01000000
00010000
01000000
00000000
00100000
00000000
10000000
00000000
00010000
00000000
01000000
00000000
00000000
00000000
,
00001000
00010000
00001000
00010000
00001000
00000000
00010000
00000000
00000100
00000000
00001000
00000000
00000020
00000000
00000000
00000000
,
00000130
00000001
00000100
00000001
00000100
00000000
00000001
00001000
00000100
00001000
00000010
00010000
00001000
00000000
00000000
00000000
,
00100000
00010000
00100000
00010000
01000000
00000000
00000000
00000000
00100000
00000000
00000000
00000000
20000000
00000000
00000000
00000000
,
30010000
00100000
00010000
00100000
00001000
00000000
00010000
00001000
00100000
00010000
00100000
00001000
00020000
00000000
00000000
00000000
,
00030100
00001000
00000100
00001000
00000010
00000000
00000000
00000000
00000100
00000000
00000000
00000000
00000001
00000000
00001000
00000000
,
00000020
00000000
00000000
00000000
00000130
00000000
00000010
00010000
00000020
00000000
00001000
00000030
00001000
00000000
00000100
00010000
,
00000100
00000000
00001000
00000000
00000100
00000000
00010000
00000000
00002000
00000000
00100000
00000000
00013000
00000000
00001000
01000000
,
00100000
00000000
10000000
00100000
01000000
00000000
00010000
00100000
00010000
00000000
01000000
00001000
01000000
00000000
00001000
00010000
,
00000100
00000000
00001000
00000010
00001000
00000000
00000001
00000010
00000100
00000000
00001000
00000100
00000010
00000001
00001000
00000001
,
00002000
00000000
00003000
00000100
00001000
00000000
00000010
00001000
00000100
00010000
00000000
00001000
00100000
00010000
01000000
00100000
,
20000000
00000000
30010000
00100000
00010000
01000000
00100000
10000000
00010000
10000000
00000000
01000000
00100000
00010000
00100000
00001000
,
00020000
00000000
00030000
00000010
00001000
00000000
00000001
00001000
00000010
00001000
00000000
00000001
00000010
00000100
00001000
00000100
,
00020000
00000000
00031000
00000000
00000000
00010000
00000100
00010000
00001000
00010000
00000000
00000100
00010000
00001000
00010000
00000100
,
00001000
00000001
00001000
00000001
00000010
00000000
00000100
00000000
00001000
00000000
00010000
00000000
00100000
00000000
01000000
00000000
,
10000000
00010000
10000000
00100000
01000000
00000000
00001000
00000000
00010000
00000000
00001000
00000000
02000000
00000000
00000000
00000000
,
03100000
10000000
00100000
10000000
00010000
00000000
01000000
00000000
00001000
00000000
00010000
00000000
00000010
00000000
00000000
00000000
,
00000100
00000001
00000100
00000010
00001000
00000000
00000001
00000000
00001000
00000000
00000010
00000000
00020000
00000000
00000000
00000000
,
00031000
00010000
00001000
00010000
00001000
00000000
00100000
00010000
00100000
00010000
01000000
00100000
10000000
00000000
00000000
00000000
,
00010000
10000000
00100000
10000000
00010000
00000000
010000M0
00000000
001000M0
10000000
000000M0
00000000
000200M0
00000000
000000M0
00000000
,
01030000
00001000
00010000
00000100
00010000
00000000
00000010
00000100
00001000
00000100
00000010
00010000
00001000
00000000
00000000
00000000
,
00010000
00000100
00010000
00000100
0000100M
00000000
0000001M
00000000
0000100M
00000000
0000010M
00010000
0000100M
00000000
00010000
00000000
,
00022000
00000000
00033000
00000000
00001000
00000000
00100000
00010000
01000000
00000000
00100000
00000000
10000000
00000000
00010000
01000000
,
00002000
00000000
00000000
00000000
00013000
00000000
00001000
00000000
00010000
00000000
00000010
00000000
00000100
00000000
00000001
00000100
,
00000010
00000000
00000100
00000001
00000100
00000000
00000010
00001000
00000100
00000000
00010000
00001000
00100000
00000000
00010000
10000000
,
02000000
00000000
03100000
00010000
10000000
00000000
00100000
01000000
00010000
00000000
10000000
00100000
01000000
10000000
01000000
00100000
,
20000000
00000000
30000000
00010000
01000000
00000000
00001000
00010000
00000100
00001000
00000000
00000100
00000010
00000001
00000010
00000100
,
00002000
00000000
00003100
00010000
00001000
01000000
00100000
01000000
00100000
10000000
00000000
00010000
01000000
00100000
00010000
00100000
,
01000000
00010000
00000000
00100000
00001000
00000000
00010000
00000100
M001000M
00000010
M000000M
00001000
M000010M
00010000
M000100M
01000000
,
M020000M
00000000
01300000
00100000
10000000
00100000
01000000
00010000
10000000
01000000
00000000
00100000
00010000
00001000
00000100
00000010
,
00000001
00000000
00000000
00001000
00000010
00000000
00000000
00001000
00000100
00000000
00000000
00010000
00001000
00000000
00000000
00100000
,
00010000
00000000
00000000
10000000
00100000
00000000
00000000
10000000
01000000
00000000
00000000
10000000
00010000
01000000
00010000
01000000
,
00002000
00010000
01000000
00010000
00103000
00001000
00010000
00000010
,
00002000
00000000
00000001
00000000
00000100
00000000
00000001
00000000
00003100
00000000
00000000
00001000
00000100
00010000
00001000
00010000
,
00000002
00000000
00000003
00000000
;
