#TITLE:Pumpkin Head Man;
#SUBTITLE:;
#ARTIST:Keiichi Sugiyama;
#TITLETRANSLIT:;
#SUBTITLETRANSLIT:;
#ARTISTTRANSLIT:;
#GENRE:HALLOWEEN GABBA;
#CREDIT:;
#BANNER:pumpkinheadman.png;
#BACKGROUND:pumpkinheadman-bg.png;
#LYRICSPATH:;
#CDTITLE:;
#MUSIC:pumpkinheadman.ogg;
#OFFSET:-0.381405;
#SAMPLESTART:32.374645;
#SAMPLELENGTH:10.667000;
#SELECTABLE:YES;
#BPMS:0.000000=180.000000
;
#STOPS:
;
#BGCHANGES:;
#KEYSOUNDS:;
#ATTACKS:;

//---------------dance-single - ----------------
#NOTES:
     dance-single:
     :
     Hard:
     16:
     0.855807,1.184175,0.159485,0.139549,0.558197,601.000000,585.000000,16.000000,14.000000,8.000000,0.000000,0.855807,1.184175,0.159485,0.139549,0.558197,601.000000,585.000000,16.000000,14.000000,8.000000,0.000000:
// measure 0
0000
0000
0000
0000
,  // measure 1
0000
0000
0000
0000
,  // measure 2
0000
0000
0000
0000
,  // measure 3
0000
0000
0000
0000
,  // measure 4
1010
0000
0000
0110
0000
0000
0101
0000
,  // measure 5
1001
0000
0000
0011
0000
0000
0100
1000
,  // measure 6
1001
0000
0000
0101
0000
0000
0110
0000
,  // measure 7
1010
0000
0000
1001
0000
0000
1000
0001
,  // measure 8
0020
0000
0100
0230
0000
1000
2300
0000
,  // measure 9
0000
3001
0100
0010
,  // measure 10
1000
0001
0000
2000
0000
0000
0000
3000
,  // measure 11
0000
0100
0001
0100
1000
0100
0000
0020
,  // measure 12
0000
0000
0001
0031
0000
1000
1010
0000
,  // measure 13
0200
0000
0001
0301
0000
1000
1100
0000
,  // measure 14
0001
0100
0001
0010
0100
1000
0010
1000
,  // measure 15
0001
1000
0001
1000
0001
1000
0001
1000
0010
0100
0010
0100
0010
0100
0010
0100
,  // measure 16
0001
0001
1000
0100
0010
0100
1000
0001
,  // measure 17
0100
0000
0010
0000
1000
0000
0010
0000
0001
0000
0000
0010
0100
0000
0001
0000
,  // measure 18
1000
1000
0100
0010
0001
0010
0100
1000
,  // measure 19
0001
0000
0100
0000
1000
0000
0100
0000
0001
0000
0100
0000
0010
0100
0010
0100
,  // measure 20
0010
0010
1000
0010
1000
0001
0010
0100
,  // measure 21
1000
0000
0100
0000
0001
0000
0100
0000
0010
0000
0000
0001
1000
0000
0010
0000
,  // measure 22
0100
0100
0001
0100
0001
1000
0100
0010
,  // measure 23
0001
0000
1000
0000
0010
0000
0001
0000
0010
0000
1000
0000
0001
1000
0001
1000
,  // measure 24
0001
1000
0001
M010
0000
001M
1000
0001
,  // measure 25
0000
0100
0010
0000
1000
0100
0010
0001
,  // measure 26
1000
0001
1000
001M
0000
M010
0001
1000
,  // measure 27
0000
0000
0100
0000
0010
0000
0000
0000
1001
0000
0000
0000
1000
0001
1000
0001
,  // measure 28
1000
0100
1000
001M
0000
M010
0001
0100
,  // measure 29
0000
0010
1000
0000
0001
0010
0100
1000
,  // measure 30
0001
0100
0001
M010
0000
001M
1000
0100
,  // measure 31
0000
0000
0010
0000
0001
0000
0000
0000
1001
0000
0000
0000
0001
1000
0001
1000
,  // measure 32
0001
0000
0100
0000
1000
0000
0100
0000
0001
0100
0001
0000
0100
0000
0010
0000
,  // measure 33
1000
0000
0100
0000
0001
0000
0100
0000
1000
0100
1000
0000
0001
0000
0100
0000
,  // measure 34
0010
0000
1000
0000
0100
0000
1000
0000
0010
0100
0001
0000
1000
0000
0100
0000
,  // measure 35
0010
0000
0001
0000
0100
0000
0001
0000
0010
0100
1000
0000
0100
0000
0001
0000
,  // measure 36
0100
0000
1000
0000
0100
0000
0010
0000
0100
1000
0001
0000
0100
0000
1000
0000
,  // measure 37
0100
0000
0001
0000
0100
0000
0010
0000
0100
0001
1000
0000
0100
0000
0010
0000
,  // measure 38
0100
1000
0100
1000
0100
0010
0100
0010
0001
0010
0001
0010
0001
1000
0001
1000
,  // measure 39
0010
0100
0010
0100
0010
0100
0010
0100
0001
1000
0001
1000
0001
1000
0001
1000
,  // measure 40
0020
0000
1000
1000
1030
0000
0101
0000
,  // measure 41
0002
0000
0000
0000
0010
0000
0010
0000
0013
0000
0000
0100
1000
0000
1000
0000
,  // measure 42
0002
0000
0100
0100
0103
0000
1010
0000
,  // measure 43
0002
0000
0000
0000
0010
0000
0010
0000
0013
0000
0000
0100
1000
0000
0001
0000
,  // measure 44
1000
0010
1000
0010
0100
0001
0100
0001
,  // measure 45
1000
0100
0010
0100
1000
0001
0100
0010
,  // measure 46
1000
0010
1000
0000
1000
0100
1000
0000
0001
0010
0001
0000
0001
0100
0001
0000
,  // measure 47
0100
0010
0100
0010
0100
0010
0100
0010
1000
0001
1000
0001
1000
0001
1000
0001
,  // measure 48
1000
0001
0001
0010
0001
0001
0100
0010
,  // measure 49
1000
0000
0010
0000
0010
0000
1000
0000
0001
0100
0001
0000
0010
0000
0010
0000
,  // measure 50
0001
1000
1000
0010
1000
1000
0100
0010
,  // measure 51
0001
0000
0010
0000
0010
0000
0001
0000
1000
0010
1000
0010
0100
0000
0100
0000
,  // measure 52
0001
0100
0100
1000
0100
0100
0001
1000
,  // measure 53
0100
0000
0001
0000
0001
0000
0100
0000
0010
0001
0010
0000
0001
0000
0001
0000
,  // measure 54
1000
0010
0010
0001
0010
0010
1000
0001
,  // measure 55
0010
0000
1000
0000
1000
0000
0010
0000
0100
1000
0100
1000
0001
0000
0001
0000
,  // measure 56
1000
0010
1000
0001
0100
0001
1000
0100
,  // measure 57
0010
0000
0001
0000
0010
0000
0100
0000
1000
0001
0100
0000
0010
0000
1000
0000
,  // measure 58
0001
0010
0001
1000
0100
1000
0001
0100
,  // measure 59
0010
0000
1000
0000
0010
0000
0100
0000
0001
1000
0001
0000
0010
0000
0100
0000
,  // measure 60
1000
0100
0001
0100
0010
0001
1000
0010
,  // measure 61
0100
0000
1000
0000
0100
0000
0001
0000
0100
0010
1000
0000
0001
0000
1000
0000
,  // measure 62
0001
0010
0001
0010
0100
1000
0100
1000
0001
0100
0001
0100
0010
1000
0010
1000
,  // measure 63
0001
1000
0001
1000
0001
1000
0001
1000
0100
0010
0100
0010
0100
0010
0100
0010
,  // measure 64
0002
1000
1000
0000
0010
0010
0000
1003
,  // measure 65
2000
0010
0010
0000
0001
3001
0010
0100
,  // measure 66
0200
1000
1000
0000
0001
0001
0000
1300
,  // measure 67
2000
0000
0001
0000
0001
0000
0000
0000
3010
0100
0010
0000
0100
0000
0100
0000
,  // measure 68
0100
0001
0100
0001
0100
0001
0100
0001
1000
0100
1000
0100
1000
0100
1000
0100
,  // measure 69
0010
0001
0010
0001
0010
0001
0010
0001
1000
0001
1000
0001
1000
0001
1000
0001
,  // measure 70
1000
0001
1000
0010
1000
0001
1000
0100
1000
0001
1000
0010
1000
0001
1000
0100
,  // measure 71
0010
0001
1000
0001
0100
0001
1000
0001
0010
0001
1000
0001
0100
0001
1000
0100
,  // measure 72
0010
0000
0000
0000
;

//---------------dance-single - ----------------
#NOTES:
     dance-single:
     :
     Medium:
     11:
     0.521174,0.610030,0.219292,0.159485,0.000000,366.000000,344.000000,22.000000,16.000000,8.000000,0.000000,0.521174,0.610030,0.219292,0.159485,0.000000,366.000000,344.000000,22.000000,16.000000,8.000000,0.000000:
0000
0000
0000
0000
,
0000
0000
0000
0000
,
0000
0000
0000
0000
,
0000
0000
0000
0000
,
1010
0000
0000
1000
0000
0000
1000
0000
,
0101
0000
0000
0001
0000
0000
0001
1000
,
1100
0000
0000
1000
0000
0000
1000
0000
,
0011
0000
0000
0001
0000
0000
0001
1000
,
0020
0000
0000
0230
0000
0000
0302
0000
,
0000
1003
0100
0010
,
0001
1000
0000
0002
0000
0000
0000
0000
,
0003
0100
1000
0100
0001
0100
0000
0020
,
0000
0000
0030
1010
0000
0000
1100
0000
,
0001
0000
0000
0011
0000
0000
0101
0000
,
0001
1000
0001
1000
0001
1000
0001
1000
,
0010
0100
0010
0100
0010
0100
0010
0100
,
0001
0000
1000
0100
1000
0000
0100
0000
,
0001
0000
0100
0010
0001
0000
0011
0000
,
1000
0000
0001
0100
0001
0000
0100
0000
,
1000
0000
0100
0010
1000
0000
0001
0001
,
0001
0000
1000
0100
0010
0000
1000
0000
,
0010
0000
0001
0010
0001
0000
1100
0000
,
1000
0000
0001
0100
0010
0000
0001
0000
,
0010
0000
1000
0010
1000
0000
0001
0001
,
0001
0000
1000
001M
0000
M010
0001
1000
,
0000
0000
0001
0000
1000
0100
0010
0001
,
1000
0000
0001
M010
0000
001M
1000
0001
,
0000
0000
1000
0000
0001
0000
0100
0010
,
1000
0000
0001
M010
0000
001M
1000
0100
,
0000
0000
0010
0000
0001
0100
0010
1000
,
0001
0000
1000
001M
0000
M010
0001
0100
,
0000
0000
0010
0000
1000
0000
0001
0010
,
0100
0000
1000
1000
0000
0001
0001
0000
,
0100
1000
0100
0001
,
0100
0010
0000
1010
0000
0000
0001
0000
,
0001
0000
1000
0100
0010
0001
0000
1000
,
0000
0000
0001
0001
0000
1000
1000
0000
,
0100
0001
0100
1000
,
0100
0010
0100
0010
0100
0010
0100
0010
,
0001
1000
0001
1000
0001
1000
0001
1000
,
0002
0000
0000
0010
0000
0000
0013
0000
,
0002
0000
0000
1000
0000
0000
1003
0000
,
2000
0000
0000
0010
0000
0000
3010
0000
,
2000
0000
0000
0001
0000
0000
3001
0000
,
1010
0100
0101
0001
,
0011
0100
1100
0001
,
1000
0001
1000
0001
1000
0001
1000
0001
,
0100
0010
0100
0010
0100
0010
0100
0010
,
1000
0001
0001
0000
1000
1000
0000
0101
,
0000
1000
1000
0000
0001
0010
0100
1000
,
0000
1000
1000
0000
0001
0001
0000
1100
,
0000
0001
0001
0000
1000
0010
0001
0010
,
0000
0100
0100
0000
0001
0001
0000
1100
,
0000
0010
0010
0000
0001
0100
0010
1000
,
0000
0100
0100
0000
1000
1000
0000
0101
,
0000
0001
0001
0000
1000
0100
0001
0100
,
0000
0010
0001
0000
0001
0010
0000
1001
,
0000
1000
0010
0000
0100
0001
1000
0100
,
0000
0010
0100
0000
0100
0010
0000
0110
,
0000
0001
1000
0000
0010
0001
0010
1000
,
0000
0001
0010
0000
0001
0100
0000
0011
,
0000
0100
1000
0000
0001
0100
0010
1000
,
0001
0010
0001
0010
0100
1000
0100
1000
,
0001
1000
0001
1000
0010
0100
0010
0100
,
0002
0000
0000
0023
0000
0000
0230
0000
,
0000
1300
0001
0100
,
0010
1000
0000
2000
0000
0000
0000
0000
,
3000
0100
0001
0100
1000
0100
0000
0020
,
0000
0000
0000
0032
0000
0000
2003
0000
,
0000
3010
0100
0001
,
1000
0001
1000
0001
1000
0001
1000
0001
,
0010
0100
0010
0100
0010
0100
0010
0100
,
0010
0000
0000
0000
;

//---------------dance-single - ----------------
#NOTES:
     dance-single:
     :
     Easy:
     8:
     0.373081,0.502377,0.049839,0.099678,0.000000,262.000000,257.000000,5.000000,10.000000,0.000000,0.000000,0.373081,0.502377,0.049839,0.099678,0.000000,262.000000,257.000000,5.000000,10.000000,0.000000,0.000000:
0000
0000
0000
0000
,
0000
0000
0000
0000
,
0000
0000
0000
0000
,
0000
0000
0000
0000
,
1000
0000
0000
1000
0000
0000
1000
0000
,
0001
0000
0000
0001
0000
0000
0100
0100
,
0100
0000
0000
0100
0000
0000
0100
0000
,
0010
0000
0000
0010
0000
0000
0010
0010
,
0010
0000
0000
0100
0000
0000
0002
0000
,
0000
1003
0100
0010
,
0001
1000
0000
2000
0000
0000
0000
0000
,
3000
0100
0001
0100
,
0010
0000
0000
0001
0000
0000
2000
0000
,
0000
3001
0100
0010
,
1000
1000
1000
1000
,
0001
0001
0001
0001
,
0010
0001
0010
1000
,
0010
0100
1000
0001
,
0100
0010
0100
0001
,
1000
0000
0100
0000
0010
0000
0100
0100
,
0100
1000
0100
0001
,
0100
0010
0001
1000
,
0010
0001
0010
1000
,
0010
0000
0100
0000
0001
0000
1000
1000
,
1000
0000
0001
0010
0000
0000
0001
0010
,
0000
0100
1000
1000
,
0001
0000
1000
0010
0000
0000
1000
0010
,
0000
0100
0001
0001
,
1000
0000
0100
0010
0000
0000
0100
0010
,
0000
0001
0010
0100
,
1000
0000
0001
0100
0000
0000
0001
0100
,
0000
0010
1000
0001
,
0010
1000
0010
0001
,
1000
0100
0001
0100
,
1000
0001
0100
0010
,
1000
0001
0010
0001
,
1000
0100
0001
0100
,
0010
1000
0010
0001
,
1000
1000
1000
1000
,
0001
0001
0001
0001
,
0002
0000
0000
0003
,
2000
0000
0000
3000
,
0020
0000
0000
0030
,
0200
0000
0000
0300
,
0101
0000
1010
0000
,
1100
0000
0011
0000
,
1000
1000
1000
1000
,
0001
1000
0001
1000
0001
1000
0001
1000
,
0001
1000
0100
0000
1000
0100
0000
1000
,
0000
0001
0100
0000
0010
0000
1000
0000
,
0000
0001
0010
0000
0001
0010
0000
0001
,
0000
1000
0100
0000
1000
0000
0001
0000
,
0000
1000
0010
0000
1000
0010
0000
0100
,
0000
0001
0100
0000
0001
0000
1000
0000
,
0000
0001
0010
0000
0001
0010
0000
0100
,
0000
1000
0100
0000
1000
0000
0001
0000
,
0010
1000
0010
0001
,
0010
0000
0100
0000
1000
1000
1000
0000
,
0001
0100
1000
0100
,
0010
0000
1000
0000
0001
0001
0001
0000
,
1000
0100
0001
0100
,
1000
0000
0100
0000
0010
0010
0010
0000
,
0001
0001
0001
0001
,
1000
1000
1000
1000
,
0010
0000
0000
0100
0000
0000
0002
0000
,
0000
1003
0100
0010
,
0001
1000
0000
2000
0000
0000
0000
0000
,
3000
0100
0001
0100
,
0010
0000
0000
0001
0000
0000
2000
0000
,
0000
3001
0100
0010
,
1000
1000
1000
1000
,
0001
0001
0001
0001
,
1001
0000
0000
0000
;

//---------------dance-single - ----------------
#NOTES:
     dance-single:
     :
     Beginner:
     5:
     0.239227,0.358841,0.049839,0.059807,0.000000,168.000000,163.000000,5.000000,6.000000,0.000000,0.000000,0.239227,0.358841,0.049839,0.059807,0.000000,168.000000,163.000000,5.000000,6.000000,0.000000,0.000000:
0000
0000
0000
0000
,
0000
0000
0000
0000
,
0000
0000
0000
0000
,
0000
0000
0000
0000
,
1100
0000
0000
0000
,
0101
0000
0000
0000
,
1010
0000
0000
0000
,
0011
0000
0000
0000
,
0000
1000
0000
1000
,
0000
0001
0000
0001
,
0000
0100
0000
0100
,
0000
0010
0000
0010
,
0000
1000
0000
0001
,
0000
0001
0000
1000
,
0100
0100
0100
0100
,
0010
0010
0010
0010
,
0001
0000
0010
0000
,
0001
0000
1000
0000
,
0100
0000
1000
0000
,
0010
0000
1000
0000
,
0001
0000
0100
0000
,
0001
0000
0010
0000
,
0100
0000
1000
0000
,
0010
0000
1000
0000
,
0001
0000
0001
0000
,
0001
0000
1000
1000
,
1000
0000
1000
0000
,
1000
0000
0010
1000
,
0010
0000
0010
0000
,
0010
0000
0100
0100
,
0100
0000
0100
0000
,
0100
0000
0001
1000
,
0001
0000
0001
0000
,
1000
0000
1000
0000
,
0010
0000
0010
0000
,
0100
0000
0100
0000
,
0001
0000
1000
0000
,
1000
0000
0001
0000
,
0010
0010
0010
0010
,
0100
0100
0100
0100
,
0200
0000
0000
0300
,
2000
0000
0000
3000
,
0002
0000
0000
0003
,
0200
0000
0000
0300
,
0010
0000
1000
0000
,
0010
0000
0100
0000
,
0001
0001
0001
0001
,
1000
1000
1000
1000
,
0001
0000
0010
0000
,
0001
0000
0100
0100
,
0010
0000
1000
0000
,
0010
0000
1000
1000
,
0001
0000
0100
0000
,
0001
0000
0010
0010
,
0100
0000
1000
0000
,
0100
0000
1000
1000
,
0001
0000
1000
0000
,
0001
0000
0100
0100
,
0010
0000
1000
0000
,
0010
0000
1000
1000
,
1000
0000
0001
0000
,
1000
0000
0100
0100
,
0010
0010
0010
0010
,
0001
1000
0001
1000
,
0002
0000
0000
0000
,
0003
1000
1000
1000
,
2000
0000
0000
0000
,
3000
0010
0010
0000
,
0100
0100
0100
0100
,
0010
0010
0010
0010
,
1000
1000
1000
1000
,
0001
0001
0001
0001
,
1001
0000
0000
0000
;
