#VERSION:0.83;
#TITLE:Pretty Lavinia;
#SUBTITLE:American Murder Song;
#ARTIST:Saar Hendelman & Terrance Zdunich;
#TITLETRANSLIT:;
#SUBTITLETRANSLIT:;
#ARTISTTRANSLIT:;
#GENRE:;
#CREDIT:SirenwithanX;
#MUSIC:Pretty Lavinia.ogg;
#BANNER:Pretty Lavinia-bn.png;
#BACKGROUND:Pretty Lavinia-bg.png;
#CDTITLE:SirenwithanXLogo.png;
#SAMPLESTART:14.073;
#SAMPLELENGTH:18.271;
#SELECTABLE:YES;
#OFFSET:-0.300;
#BPMS:0.000=200.045
,503.000=252.000
,504.000=200.045
;
#STOPS:;
#SCROLLS:0.000=1.000,
503.000=0.794,
504.000=1.000
;
#DISPLAYBPM:200:200;
#BGCHANGES:;
#FGCHANGES:;

//--------------- dance-single - SirenwithanX ----------------
#NOTEDATA:;
#STEPSTYPE:dance-single;
#DESCRIPTION:SirenwithanX;
#DIFFICULTY:Hard;
#METER:9;
#RADARVALUES:0,0,0,0,0;
#NOTES:
0000
0000
0000
0000
,
0000
0000
0000
0000
,
0000
0000
0000
0000
,
0000
0000
0000
0000
,
0010
0100
1000
0000
,
0001
0100
0010
0000
,
1000
0100
0010
0000
,
0001
0100
0010
0000
,
0110
0000
1001
0000
,
0110
0000
1001
0000
,
0110
0000
1001
0000
,
0000
0000
0000
0000
1000
0010
1000
0010
,
0000
1000
0000
0000
,
0001
0100
0010
0000
,
1000
0100
0010
0000
,
0001
0000
0000
0000
0000
0000
0000
0000
0000
0000
0000
0000
0000
0000
0000
0000
0000
0000
0000
0000
0000
0000
0000
0000
0100
0000
0000
0000
0000
0000
0000
0000
0000
0000
0000
0000
0000
0000
0000
0000
0000
0000
0000
0000
0000
0000
0000
0000
0010
0000
0000
0000
0000
0000
0000
0000
0000
0000
0000
0000
0000
0000
0000
0000
0000
0000
0000
0000
0000
0000
0000
0000
0000
0000
0000
0000
0000
0000
0000
0000
0000
0000
0000
0000
0000
0000
0000
0000
0000
0000
0000
0000
0000
0000
0000
1000
,
1000
0100
0001
0100
,
1000
0100
0001
0100
,
1000
0010
0001
0010
,
1000
0010
0001
0010
,
1000
0200
0000
0000
,
0000
0300
0010
0100
,
0010
0200
0000
0000
,
0000
0300
1000
0001
,
1000
0001
0000
1000
,
0000
0000
0001
1000
0010
1000
0010
1000
,
0010
1000
0010
1000
0000
0010
0000
0000
,
0000
1010
0000
0001
,
0000
0011
0000
0100
,
0000
1100
0000
0010
,
0000
0001
0000
0100
,
0000
0010
0000
1000
,
0000
0100
0000
0010
,
0000
0001
0000
0010
,
0000
0100
0000
1000
,
0000
0100
0000
0010
,
0000
0001
0000
0100
,
0000
0010
1000
0000
,
0100
0000
0000
0000
,
0001
0100
0010
0000
,
1000
0100
0010
0000
,
0001
0000
0000
0000
0000
0000
0000
0000
0000
0000
0000
0000
0000
0000
0000
0000
0000
0000
0000
0000
0000
0000
0000
0000
0100
0000
0000
0000
0000
0000
0000
0000
0000
0000
0000
0000
0000
0000
0000
0000
0000
0000
0000
0000
0000
0000
0000
0000
0010
0000
0000
0000
0000
0000
0000
0000
0000
0000
0000
0000
0000
0000
0000
0000
0000
0000
0000
0000
0000
0000
0000
0000
0000
0000
0000
0000
0000
0000
0000
0000
0000
0000
0000
0000
0000
0000
0000
0000
0000
0000
0000
0000
0000
0000
0000
1000
,
1000
0100
0001
0100
,
1000
0100
0001
0100
,
1000
0010
0001
0010
,
0000
1000
0010
0001
,
0010
1000
0200
0000
,
0000
0000
0300
0010
,
0100
0010
0200
0000
,
0000
0000
0300
1000
,
0001
1000
0001
0000
,
0000
0000
0000
0000
1000
0010
1000
0010
,
1000
0010
1000
0010
1000
0000
0000
1000
,
0000
0000
1000
0100
,
1000
0000
0001
1000
,
0001
1000
0001
0100
,
0001
0000
1000
0100
,
0000
0001
0100
0010
,
0000
0001
0100
0010
,
0000
1000
0100
0010
,
0000
0001
0100
0001
,
0100
1000
0100
0001
,
1000
0000
0010
0001
,
0010
0000
1000
0010
,
0001
0010
1000
0200
,
0000
0000
0000
0300
,
0010
0000
0100
0000
0010
0000
0000
0200
,
0000
0000
0000
0000
0000
0000
0000
0300
,
1000
0000
0001
0000
1000
0000
0000
0001
,
0000
0000
0000
0000
0000
0000
1000
0010
,
1000
0010
1000
0010
1000
0010
1000
0000
,
0000
0010
0000
0000
0000
0000
1000
0000
,
0000
0100
0000
0010
,
0000
0001
0000
0010
,
0000
0100
0000
1000
,
0000
0000
0001
0100
,
0010
0000
1000
0100
,
0010
0000
0001
0100
,
0010
0000
0000
1000
,
0100
0001
0100
1000
,
0100
0001
0100
1000
,
0010
0001
0010
1000
,
0010
0001
0010
1000
,
0200
0000
0000
0000
,
0300
0010
0100
0010
,
0200
0000
0000
0000
,
0300
1000
0001
1000
,
0001
0000
0000
0000
0000
0000
0001
1000
,
0010
1000
0010
1000
0010
1000
0010
1000
,
0000
0000
0000
0010
0000
0000
0000
0000
,
1000
0100
1000
0000
,
0010
0100
0010
0000
,
0100
0001
0100
0000
,
0001
0000
0100
0000
,
0010
0000
1000
0000
,
0100
0000
0010
0000
,
0001
0000
0010
0000
,
0100
0000
1000
0000
,
0100
0000
0010
0000
,
0001
0000
0100
0000
,
0010
0000
1000
0001
,
1000
0000
0100
0000
,
0010
0000
0001
0000
,
0100
0000
0010
0000
,
1000
0000
0010
0000
,
0100
0000
0001
0000
,
0100
0000
0010
0000
,
1000
0000
0100
0000
,
0010
0000
0001
0000
,
0010
0000
0100
0000
,
1000
0000
0100
0000
,
0010
0000
0001
0000
,
0100
0000
0010
0000
,
1000
0000
0100
0000
,
1000
0000
0001
1000
,
0001
0000
0010
0000
,
1000
0000
0100
0000
,
0010
0000
1000
0000
,
0001
0000
0001
0100
,
0001
0000
1000
0000
,
0100
0000
1000
0000
,
0010
0000
1000
0010
,
1000
0010
1000
0010
1000
0010
1000
0010
,
1000
0010
1000
0000
0000
0010
0000
0000
,
0000
0100
0001
0100
0001
0100
0001
0100
,
0001
0100
0001
0000
0000
0000
0100
0000
,
0010
0000
1000
0000
0010
1000
0010
1000
,
0010
1000
0010
0000
1000
0000
0000
0000
,
0100
0000
0000
0000
,
1000
0100
0001
0010
,
1000
0000
0000
0000
,
1001
0000
0000
0000
;
