#VERSION:0.83;
#TITLE:Phanto(me);
#SUBTITLE:;
#ARTIST:Reol;
#TITLETRANSLIT:;
#SUBTITLETRANSLIT:;
#ARTISTTRANSLIT:;
#GENRE:;
#CREDIT:;
#MUSIC:Phantome.ogg;
#BANNER:Phantome.png;
#BACKGROUND:Phantome-bg.png;
#CDTITLE:;
#LYRICSPATH:Phantome.lrc;
#SAMPLESTART:45.190;
#SAMPLELENGTH:13.594;
#SELECTABLE:YES;
#OFFSET:-0.424;
#BPMS:0.000=128.000;
#STOPS:;
#SPEEDS:0.000=1.000=0.000=0,
224.500=0.250=0.000=0,
225.000=3.000=0.000=0,
225.500=0.100=0.000=0,
226.000=2.000=0.000=0,
226.500=0.500=0.000=0,
227.000=1.000=0.000=0,
247.000=0.700=0.250=0,
247.250=1.000=0.250=0,
251.000=0.700=0.250=0,
251.250=1.000=0.250=0,
263.500=1.100=0.250=0,
263.750=1.000=0.250=0,
271.500=1.100=0.250=0,
271.750=1.000=0.250=0
;
#SCROLLS:0.000=1.000,
24.000=0.500,
28.000=1.000,
92.000=0.700,
95.000=1.000,
176.000=0.500,
189.000=0.600,
189.500=0.650,
190.000=0.700,
190.500=0.750,
191.000=0.800,
191.500=0.850,
192.000=1.000,
222.750=0.500,
227.000=0.600,
227.250=0.700,
227.500=0.800,
227.750=0.900,
228.000=1.000,
230.500=0.000,
231.000=1.000,
254.000=2.000,
254.125=0.000,
254.375=2.000,
254.625=0.000,
254.875=2.000,
255.125=0.000,
255.375=2.000,
255.625=0.000,
255.875=2.000,
256.000=1.000,
275.000=0.500,
276.000=1.000,
288.000=0.750
;
#TICKCOUNTS:0.000=4;
#TIMESIGNATURES:0.000=4=4;
#LABELS:0.000=A;
#COMBOS:0.000=1;
#ORIGIN:;
#PREVIEWVID:;
#JACKET:Phantome-jacket.png;
#CDIMAGE:;
#DISCIMAGE:;
#BGCHANGES:-0.904=Phantome.avi=1.000=1=0=0=StretchNoLoop==CrossFade==,
99999.000=-nosongbg-=1.000=0=0=0=StretchNoLoop====
;
#FGCHANGES:;

//--------------- dance-single - ----------------
#NOTEDATA:;
#STEPSTYPE:dance-single;
#DESCRIPTION:;
#DIFFICULTY:Beginner;
#METER:2;
#RADARVALUES:0.154385,0.180412,0.00711,0.028439,0,152,151,1,4,0,0,0,0,0,0.154385,0.180412,0.00711,0.028439,0,152,151,1,4,0,0,0,0,0;
#CHARTNAME:;
#CHARTSTYLE:;
#CREDIT:Highflyer;
#NOTES:
0000
0000
0000
0000
,
0000
0000
0000
0000
,
0000
0000
0000
0000
,
0000
0000
0000
0000
,
1000
0000
1000
0000
,
0001
0000
0001
0000
,
0200
0000
0000
0300
,
0010
0000
0010
0000
,
0100
0000
0100
0000
,
0001
0000
1000
0000
,
0100
0000
0010
0000
,
0100
0000
1000
0000
,
0001
0000
0100
0000
,
0010
0000
0100
0000
,
0001
0000
1000
0000
,
0100
0100
0100
0000
,
0010
0000
0001
0000
,
1000
0000
0020
0000
,
0130
0000
0010
0000
,
1000
0001
0001
0001
,
0010
0000
0100
0000
,
1000
0000
0001
0000
,
0100
0000
0010
0000
,
0100
0000
0000
0000
,
0010
0000
0100
0000
,
0001
0000
1000
0000
,
0100
0000
0010
0000
,
0100
0000
1000
0000
,
0001
0001
0001
0000
,
1000
1000
1000
0000
,
0010
0010
0100
0000
,
0010
0000
0000
0000
,
0100
0000
0001
0001
,
1000
0000
0100
0100
,
0010
0000
0100
0000
,
1000
0000
0001
0001
,
0001
0000
0100
0000
,
0010
0000
1000
1000
,
0001
0000
0010
0000
,
0100
0000
1000
0000
,
0001
0000
0100
0100
,
0010
0000
1000
1000
,
0001
0000
0010
0000
,
0100
0000
1000
0000
,
0001
0000
0100
0000
,
0010
0000
0100
0000
,
0001
0000
1000
0000
,
0100
0200
0000
0300
,
1001
0000
0001
0000
,
1000
0000
0010
0000
,
0100
0000
0001
0000
,
1000
0000
0100
0000
,
0010
0000
0100
0000
,
0010
0000
0100
0000
,
0010
0010
0010
0010
,
0020
0000
0000
0000
,
0030
0000
0000
0000
,
0001
0000
0001
0000
,
0000
1000
1000
0000
,
0010
0000
0100
0000
,
0010
0000
1000
0000
,
0001
0001
0001
0000
,
1000
1000
1000
0000
,
0100
0100
0100
0000
,
0100
0000
0010
0010
,
0010
0000
0001
0000
,
1000
0000
0010
0000
,
0100
0000
0010
0000
,
1000
0000
0001
0000
,
0010
0000
0100
0000
,
0010
0000
0001
0000
,
1000
0000
0010
0000
,
0100
0100
0100
0000
;

//--------------- dance-single - ----------------
#NOTEDATA:;
#STEPSTYPE:dance-single;
#DESCRIPTION:;
#DIFFICULTY:Easy;
#METER:5;
#RADARVALUES:0.246813,0.258621,0.063989,0.277284,0,243,234,9,39,21,0,1,0,0,0.246813,0.258621,0.063989,0.277284,0,243,234,9,39,21,0,1,0,0;
#CHARTNAME:;
#CHARTSTYLE:;
#CREDIT:Highflyer;
#NOTES:
0000
0000
0000
0000
,
0000
0000
0000
0000
,
0000
0000
0000
0000
,
0000
0000
0000
0000
,
1000
0010
2000
3000
,
0001
0010
0002
0003
,
2000
3200
0320
0030
,
0001
0100
0001
4000
,
3100
0010
0100
1000
,
0001
0000
0100
0000
0010
0000
0100
0M00
,
0100
0001
1000
0100
,
0010
0000
0010
0000
0100
0000
1000
M000
,
1000
0001
0100
0010
,
0100
0001
1000
0100
,
0010
0100
1000
0001
,
0100
0000
0010
0000
,
0100
0001
0100
1000
,
0100
0001
2000
3100
,
1000
0100
0001
0100
,
1000
0000
0002
0003
0200
0300
0020
0030
,
0100
0000
0010
0000
1000
0000
0002
0003
,
0000
0000
1000
0000
0100
0000
0020
0030
,
0100
1000
0001
0100
,
0020
M000
M030
0000
0000
0000
0001
0000
,
1001
1000
0200
0300
,
0010
0001
0200
0300
,
0010
0100
0002
0003
,
1000
0100
0020
0030
,
0100
1000
0020
0030
,
0100
0001
2000
3000
,
0001
0001
1000
1000
,
0010
0100
0002
0013
,
1001
0000
1000
0000
0100
0M00
0100
0000
,
0010
0000
0001
0000
1000
M000
1000
0000
,
0010
0100
0001
0010
,
0100
0000
0010
0000
0001
000M
1000
0000
,
0002
0000
0100
0000
1003
M000
1000
0000
,
0100
0000
0020
0000
0031
000M
0001
0000
,
1000
0010
0100
0010
,
1000
0100
0010
0010
,
0100
1000
0001
0001
,
0100
0010
1000
1000
,
0001
0100
0010
0010
,
0100
0001
1000
0100
,
1001
0000
1000
0000
,
0010
0000
0100
0000
,
0001
0000
1000
0000
,
0100
0200
0000
0000
,
0310
0001
0200
0300
,
0010
1000
0002
0003
,
1000
0100
0020
0030
,
0100
1000
0002
0003
,
1001
0000
0110
0000
,
0011
0000
1100
0000
,
0001
0001
0001
0001
,
0002
0000
0000
0000
,
0003
MM00
MM00
MM00
MM00
MM00
MM00
0000
,
1001
1000
0010
0000
,
0000
0001
0010
0100
,
0010
0001
1000
0010
,
0100
0010
1000
0001
,
0010
0000
0100
0000
0010
0000
0002
0003
,
1000
0000
0010
0000
0100
0000
0020
0030
,
0100
0000
0100
0000
0002
0003
0002
0003
,
0001
1001
1000
1000
,
0100
0010
0200
1300
,
0001
0100
0020
0130
,
0001
1000
0200
0310
,
0001
1000
0020
0230
,
0301
1000
0200
0310
,
0100
1000
0002
0103
,
0010
0100
0001
1000
,
0200
0000
0000
0300
;

//--------------- dance-single - ----------------
#NOTEDATA:;
#STEPSTYPE:dance-single;
#DESCRIPTION:;
#DIFFICULTY:Medium;
#METER:9;
#RADARVALUES:0.3301,0.387931,0.049769,0.099538,0.031994,325,318,7,14,9,0,2,0,0,0.3301,0.387931,0.049769,0.099538,0.031994,325,318,7,14,9,0,2,0,0;
#CHARTNAME:;
#CHARTSTYLE:;
#CREDIT:Highflyer;
#NOTES:
0000
0000
0000
0000
,
0000
0000
0000
0000
,
0000
0000
0000
0000
,
0000
0000
0000
0000
,
1000
0000
0000
0000
0010
0000
0000
0000
0100
0000
0000
0100
0000
0000
0000
0000
,
0010
0000
0000
0000
1000
0000
0000
0000
0001
0000
0000
0001
0000
0000
0000
0000
,
0010
0010
0010
0000
,
0100
0000
0000
0000
1000
0000
0000
0000
0001
0000
0000
0001
0000
0000
0000
0000
,
0100
0000
0010
0000
0100
0001
0100
0000
,
0010
0000
1000
0000
0100
0000
0010
0001
,
1000
0010
0100
0010
,
1000
0100
0010
0000
0100
1000
0001
0100
,
0000
0010
0100
0000
0001
0000
1000
0001
,
0000
0100
0000
0000
0010
0000
0000
0000
0100
0000
0001
0000
0010
0000
0000
0000
,
0100
0000
1000
0000
0001
0100
0010
0000
,
0100
0001
1000
0100
,
0010
0010
0100
0100
,
1000
0010
0100
0000
0010
1000
0001
0000
,
0010
0100
1000
0001
,
0100
0010
4000
0000
3004
0000
0013
0100
,
1000
0000
0001
0000
0100
0000
0010
1000
,
0000
0001
0010
0000
0100
0000
0010
0001
,
0000
1000
0010
0000
0100
0000
0010
0000
,
1000
000M
000M
0000
0001
0000
0010
0000
,
0100
0000
0010
0001
2000
0000
3001
0000
,
0100
0000
0010
1000
0001
0000
0010
0000
,
0100
0000
1000
0001
0100
0000
0010
0000
,
0100
0000
0001
1000
0100
0000
0010
0000
,
0100
0000
0010
0001
1000
0000
0010
0000
,
0100
0000
0010
1000
0001
0000
1000
0000
,
0100
0010
0100
0000
0010
0100
0010
0000
,
0001
1000
1000
0000
0010
0000
0100
0000
,
0001
0000
1000
0001
0100
0000
0100
0000
,
0010
0000
1000
0001
0010
0000
0010
0000
,
0100
0000
1000
0000
0001
0100
0010
0000
,
0100
0000
0001
0000
1000
0001
1000
0000
,
0100
0000
0010
0000
0001
1000
0010
0000
,
0100
0000
0010
0000
0100
0001
1000
0000
,
0100
0010
0100
1000
,
0001
0100
0010
0100
,
0001
1000
0001
0000
0010
0000
0100
0000
,
1000
0001
1000
0000
0010
0000
0100
0000
,
0010
1000
0100
0000
0010
0000
0010
0000
,
0100
0010
0001
1000
,
1001
0000
0001
0100
,
0010
0000
0100
0001
,
0010
0100
1000
0001
,
0100
0020
0000
0000
,
0130
0000
0000
0000
0001
0000
0000
0000
1000
0000
0000
1000
0000
0000
0000
0000
,
0001
0000
0000
0000
0010
0000
0000
0000
0100
0000
0000
0100
0000
0000
0000
0000
,
1000
0000
0000
0000
0001
0000
0000
0000
0100
0000
0000
0100
0000
0000
0000
0000
,
0010
0000
0000
0000
0100
0000
0000
0000
0001
0000
0000
0001
0000
0000
0000
0000
,
1001
1000
0110
0001
,
1010
0100
0101
1000
,
0001
0100
0001
0000
1000
0100
1000
0000
,
0020
0000
0000
0030
,
0000
M00M
00M0
M00M
0M00
00M0
0000
0000
,
1000
0000
0001
0010
0100
0000
0000
0200
,
0000
1300
0001
0000
0100
0000
0000
0000
,
0010
0000
0000
0000
0100
0000
0000
0000
0001
0000
0000
0001
0000
0000
0000
0000
,
1000
0100
0010
0100
,
1000
0000
0001
0100
0010
0000
0200
0300
,
0001
0000
1000
0100
0010
0000
0002
0003
,
1000
0010
1000
0000
0001
0010
0001
0010
,
0001
0000
1001
0000
1000
0010
0100
0000
,
0010
0100
0010
0100
0002
0000
1003
0000
,
0100
1000
0100
1000
0200
0000
0310
0000
,
0001
1000
0001
1000
0020
0000
0130
0000
,
0001
0010
0001
0010
0200
0300
1001
0000
,
0001
0100
0001
0100
0020
0000
1030
0000
,
0001
0010
0001
0010
0002
0000
0103
0000
,
0010
0100
0010
0100
0020
0000
1030
0000
,
0001
1000
0001
1000
0002
0000
0003
0000
;

//--------------- dance-single - XO FS- ----------------
#NOTEDATA:;
#STEPSTYPE:dance-single;
#DESCRIPTION:XO FS-;
#DIFFICULTY:Hard;
#METER:12;
#RADARVALUES:0.527144,0.569454,0.156417,0.376822,0.284394,519,497,22,53,4,0,1,0,0,0.527144,0.569454,0.156417,0.376822,0.284394,519,497,22,53,4,0,1,0,0;
#CHARTNAME:;
#CHARTSTYLE:;
#CREDIT:Highkoia;
#NOTES:
0000
0000
0000
0000
,
0000
0000
0000
0000
,
0000
0000
0000
0000
,
0000
0000
0000
0000
,
1000
0000
0100
0000
1000
0000
0100
0000
0020
0000
0000
0031
0000
0000
1000
0000
,
0010
0000
0100
0000
0010
0000
0100
0000
0002
0000
0000
1003
0000
0000
1000
0000
,
0400
0000
0000
0000
0000
0000
0000
0000
0310
0000
0000
0011
0000
0000
0000
0000
,
1010
0000
0010
0000
0100
0000
0001
0000
0010
0000
0000
0100
2000
0000
3001
0000
,
0010
0000
0000
0000
0001
1000
0000
0000
0001
0000
0100
0000
0010
0000
1000
0200
,
0000
0001
0301
0100
1000
0001
0100
0110
,
0010
0000
1000
0000
0001
0000
0010
0000
0001
1000
0001
0000
1000
0001
1000
0000
,
0100
00M0
0100
0000
0100
0000
0100
0000
0001
0000
0100
0000
1000
0000
0100
0000
,
0001
1000
0001
0000
1000
0000
0100
0000
1000
0000
0001
0000
0100
0000
0010
0100
,
0000
0001
0000
1000
0001
1000
0000
0001
0000
0010
0000
0100
1000
0100
0000
1000
,
0001
0000
0100
0000
0010
0000
0100
0000
0001
0000
0010
0000
1000
0000
0010
0001
,
2000
3020
0230
0302
,
1003
0100
0010
0001
0100
0010
0100
0001
,
1000
0000
0100
0020
0000
0000
0031
0000
1000
0000
0001
0200
0000
0000
0310
0000
,
1000
0010
1000
0001
0010
0100
1000
0001
,
0100
0000
0010
1000
0001
0000
0001
0000
0010
0000
0010
0000
0100
0000
0100
0000
,
1001
0000
1000
0000
0010
0000
0100
0000
0001
0020
0000
0000
0100
0000
0031
0000
,
1000
0000
0010
0000
0100
0000
0001
0000
1000
0020
0000
0000
0100
0000
1030
0000
,
0000
0001
1000
0000
1000
0001
0000
0001
0010
0000
0100
0000
1000
0000
0010
0000
,
0200
0010
0310
0100
0001
0010
0200
2300
,
3010
0100
0001
1000
0200
0300
0110
0001
,
1000
0000
0100
0000
0010
0000
0001
0000
2000
0000
0000
3000
1001
0000
0001
0000
,
0100
0000
1000
0000
0100
0000
0001
0000
0020
0000
0000
0230
0000
0000
0301
0000
,
0100
1000
0010
1000
0002
0003
1001
0001
,
0100
0010
1000
0100
0020
0030
0011
0001
,
1000
0010
0100
0001
2000
3000
1100
0000
,
0001
1000
0001
1000
0001
0000
1000
0100
0010
0000
0001
0000
1000
0000
0010
0000
,
2000
0100
0100
0100
3001
1000
0100
0010
,
0001
0000
0000
0001
0100
0000
1000
0000
0100
0000
0010
0000
1000
0000
0001
0000
,
0010
0000
0000
0010
0100
0000
0001
0000
0100
0000
0010
0000
0100
0000
1000
0000
,
0001
0000
1000
0010
1000
0000
0001
0000
1000
0001
1000
0001
1000
0000
0100
0000
,
0010
0100
0110
2002
0000
0000
3003
0000
,
1000
0010
0001
0010
0100
0010
1000
0001
,
0010
1000
0010
0100
0010
0001
1000
0010
,
0100
0100
0001
0001
1000
0100
0010
0100
,
1000
0001
1001
0000
0001
0100
0010
1000
,
0100
0000
0010
0000
0110
0000
0000
0000
0100
1000
0100
0000
1000
0000
0001
0000
,
0100
0010
0110
0000
0010
0010
1000
0001
,
0010
0000
0000
0100
0000
0000
0110
0000
0000
0000
0000
0000
1000
0000
0100
0000
1000
0000
0001
0000
0100
0000
0001
0000
,
2000
0000
0000
3100
0010
0001
1000
0000
1000
0020
0000
0000
,
0130
0000
0000
0000
0002
0000
1003
0100
,
0020
0230
2300
3002
,
0203
0000
0000
0310
0000
0010
1000
0000
1000
0001
0000
0001
,
0010
0000
0100
0000
0020
0000
0200
0000
0000
0000
0000
0000
0000
0000
0000
0000
0000
0000
0000
0000
0000
0330
0000
0000
,
1001
0000
0000
0000
,
0000
0000
0000
0000
0000
0000
0000
0000
0000
0000
0000
0000
0000
0000
2000
3000
,
2000
0000
3001
0000
0100
0000
0010
0000
0200
0000
0000
0301
0000
0000
0010
0000
,
0100
0000
1000
0000
0010
0000
1000
0000
0002
0000
0000
1003
0000
0000
1000
0000
,
0100
1000
0100
0000
0010
0000
0001
0000
0100
0001
0100
0000
0010
0000
1000
0000
,
0100
0100
0001
0100
1000
0010
0010
0001
,
0010
0000
1000
0000
0001
0100
0001
0000
1000
0000
0100
0000
0010
0001
0010
0000
,
0001
1000
0001
0000
1000
0001
1000
0000
0001
0010
0100
1000
0000
0000
0000
0000
,
0000
0000
0000
0000
,
0002
0013
0100
1000
0001
0200
0300
1001
,
0001
0000
0100
0000
0010
0000
1000
0000
0002
0000
0000
0003
1001
0000
1000
0000
,
0100
0000
0001
0000
0100
0000
1000
0000
0020
0000
0000
0230
0000
0000
1300
0000
,
0100
0001
0010
0001
2000
3000
1001
1000
,
0100
0000
0010
0000
0001
0000
0100
0000
0010
1000
0000
1000
0001
0000
0010
0000
,
0100
0000
1000
0000
0001
0000
1000
0000
0010
0100
0000
0100
0002
0000
2003
0000
,
3100
0010
0100
0010
0100
0000
0010
0001
1000
0000
1000
0000
0001
0000
0001
0000
,
0020
0000
0130
1001
,
1000
0000
0100
0000
1000
0000
0100
0000
0010
0000
0000
0001
0000
0000
0200
0000
,
0310
000M
0010
0000
0010
0000
0010
0000
0010
0000
0000
1000
0000
0000
0001
0000
,
0100
0000
0001
0000
0100
0000
0001
0000
1000
0000
0000
0010
0000
0000
2000
0000
,
3100
00M0
0100
0000
0100
0000
0100
0000
0200
0000
0000
2000
0000
0000
3300
0000
,
1000
0100
1000
0100
0001
0100
0001
0100
,
1000
0010
1000
0010
0001
0010
0001
0010
,
1000
0000
0001
0000
0100
0000
0010
0000
0110
0000
0000
1001
0000
0000
0000
0000
,
0100
00M0
0100
0000
0100
0000
0100
0000
0200
0000
0000
0000
0000
0300
0000
0000
;

//--------------- dance-single - FS XO DS- ----------------
#NOTEDATA:;
#STEPSTYPE:dance-single;
#DESCRIPTION:FS XO DS-;
#DIFFICULTY:Challenge;
#METER:15;
#RADARVALUES:0.656137,0.802413,0.078208,0.511909,0.643441,646,635,11,72,24,0,9,0,0,0.656137,0.802413,0.078208,0.511909,0.643441,646,635,11,72,24,0,9,0,0;
#CHARTNAME:;
#CHARTSTYLE:;
#CREDIT:Highkoia;
#NOTES:
0000
0000
0000
0000
,
0000
0000
0000
0000
,
0000
0000
0000
0000
,
0000
0000
0000
0000
,
1000
0000
0100
0000
0001
0000
0100
0000
0020
0000
0000
0031
0000
0000
1000
0000
,
0010
0000
0001
0000
0010
0000
0100
0000
0020
0000
0000
1030
0000
0000
0001
0000
,
2000
0000
3200
0000
0320
0000
0032
0000
0203
0000
0000
0320
0000
0000
0130
0000
,
0001
0000
0010
0000
0100
0000
1000
0000
0010
0000
0100
0000
0001
1000
0100
0100
,
0002
0000
0000
0000
1003
0001
0000
0000
1000
0000
0100
0000
0010
0000
0001
1000
,
0000
0001
0010
0010
1000
0001
0100
0001
1000
0100
1000
0001
0010
0000
0011
0000
,
0001
0000
1000
0100
0020
0000
2030
0000
3010
0001
2000
0000
3010
0100
2000
0000
,
3100
0001
1000
0100
0100
0001
1000
0010
0010
0001
1000
0000
0020
0000
0230
0000
,
0301
0010
0001
1000
0010
0000
0100
0001
1000
0000
0100
0010
0001
1000
0001
2000
,
0000
3100
00M0
0100
0001
0010
0000
0100
00M0
0100
0000
0001
1000
0200
0000
0301
,
0100
1000
0001
1000
0010
0010
0002
0000
2003
0000
3020
0000
0032
0000
0013
1000
,
0000
0001
0100
0100
1000
0001
0010
0010
1000
0100
0010
0001
1000
0000
0010
0000
,
2001
3100
1000
0001
0100
0010
1000
0001
,
0010
0000
0100
1000
0010
0000
1000
0000
1010
0000
0001
0000
0101
0000
1000
0000
,
0100
0010
0100
0001
0100
1000
0010
0001
,
0010
1000
0002
0100
2003
0100
3002
0010
,
1003
0100
0010
0100
1000
0000
0001
0100
0010
1000
0000
1000
0200
0000
0302
0000
,
0103
0010
0001
0000
1000
0010
0000
0010
1000
0001
0000
0001
0200
0000
2300
0000
,
3100
0010
1000
0000
0001
0010
0000
0010
0100
0000
1000
0000
0010
0000
1000
0000
,
0200
0000
0010
0000
0010
0000
1300
0100
1000
0100
0000
1000
0010
0000
0200
0000
,
0010
0301
1000
0010
0200
0000
0301
2000
,
0010
3001
0010
0100
2000
0000
3001
0020
,
0100
0000
0031
0000
1000
0000
1000
0000
0020
0000
0000
0230
0000
0000
0302
0000
,
0010
1003
0100
0010
0001
0000
1001
0002
,
0010
1003
0100
1000
0020
0000
1030
0200
,
1000
0310
0001
1000
0020
0000
0130
0001
,
0100
0100
0100
0100
1000
0000
0100
0100
0001
0000
1000
0000
0002
0000
0023
0000
,
0230
0001
0001
1300
0001
0400
0340
1030
,
0001
0000
0000
1000
0010
0000
0002
0000
2003
0000
3200
0000
0302
0000
1003
0000
,
0001
0000
0000
0001
0010
0000
2000
0000
3002
0000
0203
0000
2300
0000
3001
0000
,
1000
0000
1000
0100
0010
0000
0001
0000
1000
0001
0100
0100
1000
0000
0100
0100
,
0010
0000
1000
0000
0100
0000
1000
0000
M001
0000
100M
0000
M001
0000
0100
0010
,
2000
0000
0000
3001
0200
0000
0310
1000
0010
0000
0100
0001
0100
0000
0001
0000
,
0020
0000
0000
0130
1000
0000
0001
0010
0001
0000
1000
0100
1000
0000
0001
0000
,
1000
0010
0001
0010
1000
0100
0001
0100
,
0010
0000
0100
1000
0001
0000
0001
0100
0010
0000
1000
0000
0001
0000
0010
0000
,
0001
0000
0000
0000
0000
0000
0100
0000
0000
0000
0000
0000
1000
0000
0000
0000
0000
0000
0100
0000
0000
0000
0010
0000
1000
0000
0000
0000
0000
0000
0001
0000
0000
0000
0000
0000
0010
0000
0000
0100
0000
0000
0000
0000
0000
1000
0000
0000
,
0001
0010
1000
0010
0001
0011
2001
3010
,
1000
0000
0000
0100
0000
0000
0001
0000
0000
0100
0000
0000
0010
0000
0001
0000
0100
0000
0010
0000
1000
0000
0001
0000
,
0200
0000
0000
0000
0000
0000
0000
0000
0000
0000
0000
0000
1300
0000
0000
0000
0100
0000
0000
0000
0001
0000
0000
0000
0020
0000
0000
0000
0000
0000
0000
0000
0100
0030
0000
0000
1000
0000
0000
0000
0000
0000
0001
0000
0000
0000
0000
0000
,
0020
0000
0000
0000
0000
0000
0032
0000
0000
0000
0103
0000
0001
0000
1000
0000
0100
0000
0010
0000
0000
0001
0000
0000
,
0200
0000
0000
0320
0000
1030
0001
0100
0010
2000
0000
0000
,
3002
0000
0000
0013
0100
1000
0001
0100
0001
1000
0000
1000
,
0010
0000
0000
0000
0100
0000
0000
0000
0001
0000
0000
0000
0020
0000
0000
0000
0000
0000
0000
0000
0000
0000
0000
0000
0400
0000
0000
0000
0000
0000
0000
0000
0000
0000
0000
0000
0000
0000
0000
0000
0000
0000
0000
0000
0000
0330
0000
0000
,
1001
0000
0001
0100
0001
0000
0100
0000
0010
0000
0000
0100
0000
0000
0001
0000
,
1000
0000
0100
0010
0100
0000
1000
0000
0010
0000
0000
1000
0000
0000
0100
00M0
,
0100
0000
0001
1000
0100
0000
1000
0000
0010
0000
0000
1000
0000
0000
0001
0000
,
0100
0000
0001
1000
0010
0000
1000
0000
0001
0000
0000
0010
0000
0000
0100
0000
,
1000
0100
00M0
0100
0001
0000
1000
0000
0010
1000
0001
0000
0010
0M00
0010
0000
,
1000
0100
00M0
0100
0001
1000
0010
1000
0001
0000
1000
0010
0M00
0010
0001
0000
,
1000
0010
0100
0001
1000
0100
0010
0001
0100
0001
1000
0100
0010
0100
1000
0001
,
0100
0010
1000
0001
0010
0100
1000
0010
0100
0001
1000
0002
0000
0000
0000
0000
,
0003
M000
000M
00M0
M000
0M00
000M
0M00
M000
00M0
000M
0M00
M00M
0000
0000
0000
,
1000
0000
0100
0010
0001
0000
1000
0000
0010
0000
0100
0000
0000
0000
2001
0000
,
0000
0000
3001
0000
0010
0000
0100
0000
1000
0000
0001
0100
0001
0000
2000
0000
,
0100
0000
3001
0000
0100
0000
0010
0000
1000
0000
0001
0010
0001
0000
1000
0000
,
0010
0000
0001
0000
0010
0000
1000
0000
0001
0000
0100
0010
1000
0000
0100
0000
,
0110
0000
0010
0000
0001
0000
0100
0000
0010
1000
0000
0001
0040
0000
0130
0000
,
1001
0000
0001
0000
1000
0000
0010
0000
0100
0001
0000
1000
0040
0000
1030
0000
,
0100
0100
0100
0100
0001
0000
0100
0100
1000
0000
0100
0000
0001
0000
0100
0000
,
1000
0000
0000
0000
0002
0000
0400
0000
0000
0000
0303
0000
0001
1000
0010
0000
,
1000
0000
0000
0000
0000
0000
0100
0000
0000
0000
0000
0000
0010
0000
0000
0000
0000
0000
0001
0000
1000
0000
0001
0000
1000
0000
0000
0000
0000
0000
0010
0000
0000
0100
0000
0000
0001
0000
0000
0000
0000
0000
4000
0000
0000
0000
0000
0000
,
3001
0000
0100
0000
1000
0000
0100
0010
1000
0000
0001
1000
0010
0M00
0010
0001
,
0100
0000
0000
0000
0000
0000
0010
0000
0000
0000
0000
0000
1000
0000
0000
0000
0000
0000
0001
0000
0010
0000
0001
0000
0010
0000
0000
0000
0000
0000
0100
0000
0000
1000
0000
0000
0001
0000
0000
0000
0000
0000
0400
0000
0000
0000
0000
0000
,
0301
0000
0010
0000
1000
0000
0010
0001
1000
0000
0010
1000
0400
0000
0000
0000
,
0310
0000
0001
0000
0010
0000
0001
0000
1000
0000
0001
0100
0010
0000
1000
0000
,
0001
0000
0010
0000
0001
0000
0010
0000
0100
0000
1000
0010
0100
0000
0001
0000
,
1000
0100
1000
0001
0100
0001
1000
0010
1000
0001
0010
0001
0100
0010
1000
0001
,
1000
0000
0100
0000
0001
0000
0100
0000
2000
0000
0000
0002
0000
3003
0000
0000
;
