#TITLE:Perish Song;
#SUBTITLE:;
#ARTIST:Trickywi & YZYX;
#TITLETRANSLIT:;
#SUBTITLETRANSLIT:;
#ARTISTTRANSLIT:;
#GENRE:;
#CREDIT:Braeden;
#MUSIC:Perish Song.ogg;
#BANNER:Perish Song-ban.png;
#BACKGROUND:Perish Song-bg.png;
#CDTITLE:;
#SAMPLESTART:0.000;
#SAMPLELENGTH:0.000;
#SELECTABLE:YES;
#OFFSET:-0.075;
#BPMS:0.000=158.000;
#STOPS:130.000=0.380;
#JACKET:Perish Song-jacket.png;
#BGCHANGES:;
#FGCHANGES:;

//--------------- dance-single - ----------------
#NOTES:
     dance-single:
     Braeden:
     Beginner:
     3:
     0,0,0,0,0:
0000
0000
0000
0000
,
0000
0000
0000
0000
,
0000
0000
0000
0000
,
1001
0000
0001
0000
,
1000
0000
0000
0000
,
0001
0000
0100
0000
,
0010
0000
0000
0000
,
1001
0000
1000
0000
,
0001
0000
0000
0000
,
0010
0000
0000
0000
,
0100
0000
0000
0000
,
1000
0000
0000
0000
,
0010
0000
0000
0000
,
1000
0000
0000
0000
,
0001
0000
0000
0000
,
0100
0000
0000
0000
,
0010
0000
0000
0000
,
1001
0000
0000
0000
,
1000
0000
0001
0000
,
1000
0000
0000
0000
,
0001
0000
0001
0000
,
0100
0000
0000
0000
,
0010
0000
1000
0000
,
0001
0000
0000
0000
,
0100
0000
0010
0000
,
1001
0000
0000
0000
,
1000
0000
0001
0000
,
0100
0000
0000
0000
,
0010
0000
1000
0000
,
0001
0000
0000
0000
,
1000
0000
0001
0000
,
0100
0000
0010
0000
,
1000
0000
0001
1001
,
0000
1000
0000
0010
,
0000
0100
0000
0001
,
0000
0010
0000
0100
,
0000
1000
0000
1001
,
0000
1000
0000
0001
,
0000
0100
0000
0020
,
0000
0030
0000
2000
,
0000
3000
0000
1001
,
0000
0001
0000
1000
,
0000
0010
0000
0100
,
0000
0001
0000
0010
,
0000
0100
0000
1001
,
0000
1000
0000
0001
,
0000
0100
0000
0020
,
0000
0030
0000
0200
,
0000
0300
0000
2002
,
0000
3003
0000
0200
,
0000
0300
0000
0020
,
0000
0030
0000
1000
,
0000
0001
0000
0200
,
0000
0300
0000
0020
,
0000
0030
0000
2000
,
0000
3000
0000
0001
,
0000
1000
0000
1001
;

//--------------- dance-single - ----------------
#NOTES:
     dance-single:
     Braeden:
     Easy:
     5:
     0,0,0,0,0:
0000
0000
0000
0000
,
0000
0000
0000
0000
,
0000
0000
0000
0000
,
1001
1000
0001
0100
,
0020
0030
1000
0001
,
1000
0010
0100
0001
,
0020
0030
0001
1000
,
2002
3003
0001
0100
,
0010
1000
0100
1000
,
0001
0100
0010
1000
,
0001
0010
0100
1000
,
0000
0001
0100
0001
,
0010
0001
0200
0000
,
0310
1000
0100
1000
,
0001
0010
0100
1000
,
0001
0010
0001
0100
,
0010
0010
0200
0300
,
1001
0001
1000
0010
,
1000
0001
0001
0100
,
0000
0010
1000
0100
,
1000
0010
0200
0000
,
0301
1000
0010
1000
,
0001
0010
0100
1000
,
0001
0100
0010
1000
,
0001
0010
0200
0300
,
1100
1000
0001
1000
,
0010
1000
0001
0100
,
0000
0010
1000
0100
,
1000
0001
0200
0000
,
0301
1000
0010
1000
,
0001
0010
0100
1000
,
0001
0100
0001
0010
,
0002
0003
1000
1001
,
0001
1000
0010
1000
,
0001
0100
0010
1000
,
0100
0010
0001
0010
,
0100
1000
0001
0101
,
0100
0010
1000
0001
,
0010
0100
1000
0002
,
0000
1003
0010
2000
,
0000
3001
0001
1001
,
1000
0010
0100
0001
,
0010
0100
1000
0001
,
0100
0001
0010
0001
,
0100
0010
1000
1001
,
0001
0100
0010
1000
,
0001
0010
0100
2000
,
0000
3001
0100
0020
,
0000
0130
0010
0220
,
0000
0000
0330
0200
,
0000
0300
0001
2000
,
3000
1010
0000
0020
,
0000
2030
3000
2002
,
0000
0000
3003
0002
,
0000
0003
0100
0002
,
0003
1001
1000
0010
,
0100
0001
0010
1001
;

//--------------- dance-single - ----------------
#NOTES:
     dance-single:
     Braeden:
     Medium:
     9:
     0,0,0,0,0:
0000
0000
0000
0000
,
0000
0000
0000
0000
,
0000
0000
0000
0000
,
1002
1000
0010
1000
,
0103
0000
0010
0000
1000
0100
1000
0100
,
2000
0001
0100
0001
,
3010
0000
0100
0000
0001
1000
0001
1000
,
0002
1003
2000
0001
,
3010
0100
0010
1000
,
1001
0000
0001
0000
0100
0010
0100
0000
,
0001
0000
1000
0100
1000
0000
0001
0000
,
0100
0000
0001
0010
0001
0000
1000
0100
,
1000
0001
0200
0300
,
0110
0000
0010
1000
0010
0000
1000
0000
,
0001
0000
0100
0010
0100
0000
0001
0000
,
1000
0000
0100
0000
0010
0000
0001
1000
,
0001
0100
0010
1000
,
1001
0000
0001
0100
0001
0000
1000
0100
,
0010
0001
0001
1000
,
1001
0000
0001
0100
0001
0000
2000
0000
,
3002
2003
3020
0030
,
1001
0000
1000
0010
1000
0000
0001
0100
,
0001
0000
1000
0010
1000
0000
0001
0100
,
0001
2000
3020
2030
,
3002
0203
0302
1003
,
1001
0000
1000
0010
1000
0000
0001
0010
,
0001
0000
1000
0010
1000
0000
0001
0000
,
0101
0100
0010
1000
,
0200
0000
0320
0000
0230
0000
1300
0010
,
0100
0000
0001
0010
0001
0000
1000
0100
,
0010
0002
1003
0001
,
0100
0000
0010
1000
0010
0000
1000
0000
,
0001
0000
10M0
1001
,
0001
0100
0002
0000
2003
0000
3020
0000
,
0130
0101
0001
1000
,
0100
0010
0001
1000
0200
0000
0320
0000
,
0001
0100
0031
1001
,
2000
0000
3010
0100
0001
0100
0010
0000
,
2000
3010
0100
0002
,
0000
1003
0010
0200
,
0000
0301
0001
1001
,
1000
0010
1000
0000
0001
0100
0010
0000
,
1000
0200
0310
0002
,
1003
0010
0100
0000
0001
0100
0010
0000
,
1000
0100
1000
0000
0001
0000
1001
0000
,
1000
0100
1000
0000
0001
0010
0001
0000
,
0100
0010
0100
0000
0001
0000
2000
0000
,
0000
3020
2030
3002
,
1003
0001
1000
0000
0001
0100
0020
0000
,
0000
0000
1000
0000
1030
0001
0200
0000
,
0000
0000
0301
0000
1000
0001
2000
0000
,
3000
1001
0001
0200
,
0300
0000
0010
0100
0000
0010
2000
0000
,
0000
0000
3001
0000
0100
0001
2000
0000
,
0000
0000
3010
0000
0100
0001
2000
0000
,
3000
1001
0001
0100
,
0010
1001
1000
0220
,
0330
0000
0000
0000
;

//--------------- dance-single - XO ----------------
#NOTES:
     dance-single:
     Braeden XO:
     Hard:
     12:
     0,0,0,0,0:
0000
0000
0000
0000
,
0000
0000
0000
0000
,
0000
0000
0000
0000
,
1001
0001
1000
0010
1000
0000
0001
0100
,
0002
0000
0003
0000
1000
0010
0100
0001
,
2000
0000
3001
0100
0001
0000
0100
0010
,
0200
0000
0301
0010
0100
1000
0001
0100
,
0201
0000
0301
0010
0200
0000
1300
0001
,
1000
0000
0001
0100
0002
0000
1003
0010
,
1000
0000
0001
0100
0001
0010
0001
0100
,
0002
0000
0103
0010
0100
0000
0001
0000
,
1000
0000
0100
0010
0001
0010
0100
1000
,
0002
0000
0203
0000
0320
0000
1030
0001
,
1000
0000
0001
0010
0100
1000
0001
0100
,
0002
0000
1003
0100
0010
0001
0100
0010
,
2000
0000
3001
0000
0100
0000
0010
1000
,
0001
0100
0010
1000
,
1100
0000
0100
0010
0001
0010
0100
1000
,
0001
0000
1000
0100
0010
0001
0010
0100
,
1000
0000
0001
0100
0001
0100
0010
1000
,
0200
0000
1300
0001
0010
0001
1000
0100
,
1000
0000
0001
0100
0010
0001
0010
0100
,
0001
0000
1000
0010
0100
0000
1000
0100
,
0001
0000
0010
0100
1000
0000
0001
0000
,
0200
0000
0310
1000
0001
0100
0001
0000
,
1001
0000
1000
0100
0001
0100
0010
0100
,
1000
0001
0100
0010
0200
0000
0310
1000
,
0001
0000
1000
0001
0100
0000
0010
0000
,
1000
0001
0100
0010
1000
0000
0100
0100
,
1000
0000
0010
0100
2000
0000
3100
0010
,
2000
0000
3001
0010
0100
0000
1000
0001
,
1000
0000
0001
0100
0001
0000
0100
0000
,
0010
0000
1000
0000
0001
0000
1000
0001
1000
0000
0000
0000
1001
0000
0000
0000
,
0001
0100
0001
0010
0001
0100
0010
1000
,
0100
1000
0001
0100
0010
1000
0002
0000
,
1003
0100
0010
0001
0200
0000
0310
1000
,
0100
1000
0001
0000
0100
0000
0101
0000
,
0001
0100
1000
0100
0001
0100
0010
0100
,
0010
1000
0002
0000
1003
0000
0002
0000
,
0000
2003
3020
2030
,
0000
3001
0001
1001
,
1000
0100
0001
0100
1000
0010
0100
0000
,
0001
1001
2000
3001
,
0100
0010
0100
0001
0100
0010
1000
0000
,
0100
0010
0001
0000
0010
0001
0011
0000
,
0010
0100
1000
0001
0100
0001
0100
0000
,
0010
1010
1000
0002
,
0103
0102
1000
0013
,
0001
0100
0010
0000
1000
0001
2000
0010
,
0010
0000
0000
0000
3100
0000
0001
0000
1000
0000
0001
0100
0001
0000
0100
0000
,
0020
0000
0000
0000
1030
0000
0001
0000
1000
0010
1000
0010
2000
0000
0000
0000
,
3001
0100
0101
0000
0001
1000
0020
0000
,
0100
0000
2030
0000
3001
1000
1001
0000
,
0001
0000
0100
0000
0010
0000
1000
0000
0100
0000
0010
0001
0010
0000
0001
0000
,
2000
0000
0000
0000
3001
0000
0010
0000
0100
1000
0100
1000
0100
0000
0010
0000
,
0001
1000
2001
0000
3001
0100
0001
0100
,
0001
0010
0100
1000
0100
1000
2002
0000
,
3003
0000
0000
0000
;

//--------------- dance-single - BU SJ FS- XO ----------------
#NOTES:
     dance-single:
     Braeden BU SJ FS- XO:
     Challenge:
     16:
     0,0,0,0,0:
0000
0000
0000
0000
,
0000
0000
0000
0000
,
0000
0000
0000
0000
,
1001
0000
0001
0000
0100
0000
0010
0000
1000
0000
0001
0000
1000
0100
0010
0001
,
1000
0000
0000
0000
0001
0000
0100
0000
0001
0010
0100
1000
0001
0000
0100
0000
,
0001
0000
0100
0000
0010
0000
0001
0000
0010
0000
1000
0000
0001
0010
0100
1000
,
0001
0000
0000
0010
0000
0000
0001
0000
0000
0000
0000
0000
1000
0000
0000
0000
0000
0000
0000
0000
0000
0000
0000
0000
0010
0000
0000
0100
0000
0000
0010
0000
0000
0000
0000
0000
1000
0000
0000
0000
0000
0000
0000
0000
0000
0000
0000
0000
0001
0000
0000
0000
0000
0000
0010
0000
0000
0000
0000
0000
0100
0000
0000
0000
0000
0000
1000
0000
0000
0000
0000
0000
0001
0000
0000
0000
0010
0000
0000
0000
0001
0000
0000
0000
1000
0000
0000
0000
0010
0000
0000
0000
1000
0000
0000
0000
,
0001
0000
0100
0000
1000
0000
0100
0000
0010
0000
0100
0000
0001
0010
0100
1000
,
0001
0000
0000
0100
0000
0000
0001
0000
0000
0000
0000
0000
0100
0000
0000
0000
0000
0000
0000
0000
0000
0000
0000
0000
0001
0000
0000
1000
0000
0000
0001
0000
0000
0000
0000
0000
0100
0000
0000
0000
0000
0000
0000
0000
0000
0000
0000
0000
0001
0000
0000
0000
0000
0000
0010
0000
0000
0000
0000
0000
0100
0000
0000
0000
0000
0000
1000
0000
0000
0000
0000
0000
0001
0000
0000
0000
0100
0000
0000
0000
0001
0000
0000
0000
0010
0000
0000
0000
0100
0000
0000
0000
1000
0000
0000
0000
,
0001
0100
0010
1000
0100
0010
0001
0100
,
0010
0000
1000
0000
0001
0000
0100
0000
0001
0000
1000
0000
0001
0010
0100
1000
,
0001
0100
0010
0100
0001
1000
0100
0010
,
0001
0000
0000
0000
0100
0000
0010
0000
0100
0000
0000
0000
0001
0000
0000
0000
1000
0000
0000
0000
0001
0000
0000
0000
1000
0100
1000
0000
0010
0000
0100
0000
,
0001
1000
0001
0100
1000
0100
0001
0100
,
0101
0000
0000
0000
0001
0000
0000
0000
1000
0000
0000
0000
0010
0000
0000
0000
0100
0000
0000
0000
0001
0000
0000
0000
1000
0100
1000
0000
0001
0000
0100
0000
,
0010
1000
0100
1000
1001
0001
0100
0010
,
1010
0000
0000
0000
1000
0000
0001
0000
0100
0000
0000
0000
0010
0000
0000
0000
1000
0000
0000
0000
0001
0000
0000
0000
1000
0010
1000
0000
0001
0000
0100
0000
,
0010
1000
0100
0100
0001
0100
0010
0100
,
1000
0000
0010
0100
0001
0000
0100
0000
0010
0000
1000
0000
0001
0010
0100
1000
,
0001
0100
0010
1000
0001
0100
1000
0100
,
0001
0000
1000
0010
0100
0000
0001
0000
0100
0000
0001
0000
1000
0100
0010
0100
,
1000
0001
0100
0010
1000
0100
1000
0001
,
1000
0000
0000
0000
0001
0000
0100
0000
0020
0000
0000
0000
1030
0100
0010
0001
,
1000
0010
0100
0010
1000
0001
0010
0100
,
2000
0000
0000
0000
3002
0000
0000
0000
2003
0000
0000
0000
3001
0010
0100
1000
,
0001
1000
0000
0000
0000
0000
0000
0000
0001
0000
0000
0000
0100
0000
00M0
0000
0100
0000
0000
0000
1000
0000
0000
0000
0010
0000
0000
0000
0100
0000
0000
0000
,
0001
0100
0010
1000
0001
0000
0010
0010
,
0001
2000
0000
0000
0000
0000
0000
0000
3010
0000
0000
0000
0100
0000
000M
0000
0100
0000
0000
0000
0000
0000
0000
0000
1000
0000
0000
0000
0000
0000
0000
0000
,
0001
0100
0000
0000
0001
0000
0000
0000
1000
0000
0000
0000
0001
0000
1000
0000
0001
0010
0000
0000
0000
0000
0000
0000
0001
0000
0010
0000
0100
0000
1000
0000
,
0100
0010
0000
0000
0001
0000
0000
0000
0010
0000
0000
0000
0001
0000
0000
0000
1000
0020
0000
0000
0000
0000
0000
0000
0130
0000
0000
0000
0001
0000
0000
0000
,
1000
0010
0000
0000
1000
0000
0000
0000
0001
0000
0000
0000
0100
0000
0000
0000
0020
0000
0000
0000
0000
0000
0000
0000
1030
0000
0000
0000
1000
0000
0000
0000
,
1002
0000
0103
0010
2010
0000
3001
0000
,
0100
0000
0000
0000
0000
0000
0010
0000
0000
0000
0000
0000
0000
0000
0000
0000
0000
0000
1000
0000
0000
0001
0000
0000
1000
0000
0000
0000
0000
0000
0000
0000
0000
0000
0000
0000
0001
0000
0010
0000
0100
0000
1000
0000
0001
0000
1000
0000
,
0010
0100
0101
0001
1000
0010
0200
0001
,
0301
1000
0010
1000
0100
0010
0002
0000
0000
1000
0000
0000
0000
0000
0000
0013
0000
0000
0001
0000
0000
0000
0000
0000
,
1000
0000
0010
0000
1010
0000
1000
0000
0001
0000
0100
0000
0001
0000
1000
0001
,
0100
0000
0010
0000
1010
0000
1000
0000
0001
0000
0100
0010
0110
0000
0000
0000
,
0100
0001
0101
0100
0010
1000
0001
0100
,
0010
0000
0000
1000
0000
0000
1010
0000
0000
0010
0000
1000
0001
0000
0100
0000
0000
0010
2000
0000
0000
0001
0000
0000
,
0000
3010
0012
0000
2003
0000
3010
0100
,
0100
0000
0000
0001
0000
0000
1000
0010
0100
0001
0000
0000
1000
0100
0010
0001
0000
0000
0101
0000
0000
0000
0000
0000
,
0100
0000
0010
0000
1000
0000
0100
0000
1000
0000
0100
1000
0100
0000
1000
0000
,
0001
0000
0000
0100
0000
0000
0110
0000
0000
0010
0000
0000
1000
0000
0001
1000
0010
1000
0001
0000
0000
0100
0000
0000
,
0010
0000
1000
0000
1100
0000
0100
0000
0010
0000
0001
0000
1000
0000
0001
0100
,
0001
0101
0100
0000
0010
1010
1001
0000
,
0101
0000
0100
0000
0110
0000
0010
0000
2000
0000
0000
0000
3001
0000
0100
0010
,
0100
0010
1010
1000
0002
0000
0013
0100
,
0010
0000
0001
0000
1001
0000
1000
0000
0010
0000
1000
0001
1000
0000
0010
0000
,
0100
0101
0001
1000
0001
0101
1002
1000
,
1003
0000
0010
0M00
0010
0000
0001
0000
1000
0000
0010
0100
0010
0000
1000
0000
,
0001
0000
0100
00M0
0100
0000
1000
0000
0001
0010
0100
1000
0001
0000
0100
0000
,
0010
0000
1000
0000
0001
1000
0001
1000
0010
0000
0100
0000
0001
0000
0010
0000
,
0001
0000
1000
0000
1001
0000
0001
0000
0000
0000
1000
0010
1010
0000
1000
0000
,
0100
0000
0010
000M
0010
0000
1000
0000
0010
0000
0100
0001
1000
0000
0001
0000
,
1000
0000
0010
0M00
0010
0000
0001
0000
1000
0100
0010
0001
2000
0000
0010
0000
,
3010
0100
0201
0000
0301
1000
0001
0100
,
0010
1000
1100
0100
0010
0001
0220
0000
,
0330
0000
0000
0000
;

//--------------- dance-double - ----------------
#NOTES:
     dance-double:
     Braeden:
     Hard:
     12:
     0,0,0,0,0:
00000000
00000000
00000000
00000000
,
00000000
00000000
00000000
00000000
,
00000000
00000000
00000000
00000000
,
00011000
00001000
01000000
00100000
20000000
00000000
30010000
01000000
,
00100000
00000000
10000000
00000000
00010000
00010000
01000000
00100000
,
20000000
00000000
30010000
00100000
00002000
00000000
00013000
00000100
,
00001000
00000000
00001100
00000000
00000100
00001000
00000010
00000100
,
00000101
00000000
00000001
00001000
00000100
00000000
00000010
00000100
,
00010000
00000000
00001000
00000000
00010000
00001000
00010000
00001000
,
00101000
00000000
00010000
10000000
01000000
00100000
00001000
00100000
,
00020000
00000000
00130000
00001000
00010000
00000000
00001000
00000000
,
00011000
00000000
00010000
00000010
00000100
00001000
00000100
00000010
,
00010000
00000100
00002000
00003001
,
00001001
00000000
00000001
00000010
00001000
00000010
00000001
00001000
,
00000010
00000000
00010000
00000100
00001000
00000100
00010000
00000010
,
00000200
00000000
00010300
00000000
00001000
00000000
01000000
00010000
,
10000000
00200000
02300000
03010000
,
10010000
00000000
10000000
01000000
00100000
00001000
00010000
00000100
,
00001000
00000000
00000001
00000000
00001000
00000000
00000001
00000100
,
00000010
00000000
00001000
00000100
00001000
00000000
00000010
00000000
,
00010000
00000000
00002000
00000000
00023000
00000000
00031000
00100000
,
00010000
00000000
10000000
01000000
00010000
01000000
10000000
00010000
,
01000000
00000000
01000000
00001000
00100000
00000000
00001000
00010000
,
00000010
00001000
00001001
00000001
,
00000100
00000000
00000010
00001000
00000001
00000000
00001000
00000000
,
00001001
00000000
00000001
00000010
00001000
00000100
00010000
00001000
,
02000000
00000000
03010000
10000000
00100000
00000000
01000000
00010000
,
02010000
00000000
03001000
00010000
00000100
00000000
00001000
00000000
,
00001100
00000100
00001000
00000010
00001000
00000000
00000001
00000001
,
00002001
00000000
00003010
00010000
00001000
00000000
01000000
00010000
,
10000000
00020000
02030000
03001000
,
00011000
00000000
00010000
00000010
00000100
00000000
00000001
00000000
,
00001002
00000000
00001003
00000100
00001000
00000000
00001001
00000000
,
00000001
00000010
00001000
00010000
01000000
10000000
01000000
00010000
,
00001000
00000010
00000001
00001000
00000010
00001000
00000002
00000000
,
00001003
00000100
00010000
00001000
01000000
00100000
00020000
00000000
,
00130000
00000000
01000000
00010000
10000000
00010000
01010000
00000000
,
01000000
00001000
00010000
00100000
01000000
00100000
00010000
00000000
,
00001000
00010000
00000010
00000000
00001000
00000000
00001002
00000000
,
00000000
00001003
00001020
00000000
00020030
00000000
00032000
00000000
,
00000000
00103000
00100000
00101000
,
00001000
01000000
00100000
10000000
01000000
10000000
00010000
00000000
,
01000000
01010000
00010000
10000000
,
10000000
01000000
00010000
00001000
00000010
00000001
00001000
00000000
,
00000001
00001000
00000010
00000000
00001000
00000001
00001001
00000000
,
00000001
00000010
00002000
00000000
00013000
00000000
00100000
00000000
,
10000000
00100000
01010000
00000000
01000000
00000000
00002000
00000000
,
01000000
00000000
00013000
00000010
00000100
00000000
00000001
00000000
,
00001000
00000010
00000001
00000000
00000010
00001000
00001020
00000000
,
00000000
00000000
00001030
00000000
00000100
00000000
00010000
00000000
00001000
00000000
01000000
00010000
01000000
00000000
00010000
00000000
,
10000000
00000000
00010000
00000000
01000000
00000000
01000000
00000000
00100000
10000000
00100000
01000000
00020000
00000000
00000000
00000000
,
00130000
00001000
01001000
00000000
01000000
00000000
00002000
00000000
,
00013000
00000000
00010010
00000010
00000000
00001000
00001020
00000000
,
00000130
00000000
00000001
00000000
00000010
00000000
00000100
00000000
00001000
00000000
00000001
00000010
00000100
00000000
00000010
00000000
,
00000001
00000000
00001000
00000000
00000010
00000000
00010000
00000000
00000100
00010000
00000100
00010000
00000200
00000000
00000000
00000000
,
00001300
00000010
00001010
00000000
00001000
00000010
00100000
00000000
,
00010000
00000000
10000000
00010000
01000000
00000000
22000000
00000000
,
33000000
00000000
00000000
00000000
;
