#VERSION:0.83;
#TITLE:Not the Smiler;
#SUBTITLE:New Vocal Version;
#ARTIST:The Scaritones Ascended;
#TITLETRANSLIT:;
#SUBTITLETRANSLIT:;
#ARTISTTRANSLIT:;
#GENRE:;
#ORIGIN:;
#CREDIT:;
#BANNER:Not the Smiler-banner.png;
#BACKGROUND:;
#PREVIEWVID:;
#JACKET:Not the Smiler-jacket.png;
#CDIMAGE:;
#DISCIMAGE:;
#LYRICSPATH:Not the Smiler.lrc;
#CDTITLE:;
#MUSIC:Not the Smiler.ogg;
#OFFSET:0.000000;
#SAMPLESTART:10.412;
#SAMPLELENGTH:12.000;
#SELECTABLE:YES;
#DISPLAYBPM:170.000000;
#BPMS:0.000=170.000;
#STOPS:;
#DELAYS:;
#WARPS:;
#TIMESIGNATURES:0.000=4=4;
#TICKCOUNTS:0.000=4;
#COMBOS:0.000=1;
#SPEEDS:0.000=1.000=0.000=0;
#SCROLLS:0.000=1.000;
#FAKES:;
#LABELS:0.000=Song Start;
#LASTSECONDHINT:122.823997;
#BGCHANGES:-1.000=Not the Smiler.avi=1.000=1=0=0=StretchNoLoop==CrossFade==,
99999=-nosongbg-=1.000=0=0=0 // don't automatically add -songbackground-
;
#KEYSOUNDS:;
#ATTACKS:
;

//---------------dance-single - Score line 2----------------
#NOTEDATA:;
#CHARTNAME:Just baritone;
#STEPSTYPE:dance-single;
#DESCRIPTION:Score line 2;
#CHARTSTYLE:Blatant karaoke;
#DIFFICULTY:Easy;
#METER:8;
#RADARVALUES:0.293114,0.490739,0.246780,0.416000,0.021153,291.000000,256.000000,35.000000,59.000000,34.000000,0.000000,0.000000,0.000000,0.000000,0.293114,0.490739,0.246780,0.416000,0.021153,291.000000,256.000000,35.000000,59.000000,34.000000,0.000000,0.000000,0.000000,0.000000;
#CREDIT:BGS's Ghost;
#DISPLAYBPM:170.000000;
#NOTES:
0000
0000
0000
0000
,
0000
0000
0000
0000
,
0000
0000
0000
0000
,
0000
0000
0000
0000
,
0000
0011
0000
1100
,
0000
0000
0001
0000
0100
0001
1000
0000
,
0000
1010
0000
0101
,
1100
0000
0000
0000
,
0001
0001
0101
0000
,
1000
1000
1010
0000
,
0010
0010
0110
0100
,
0001
0001
0011
0000
,
1000
1000
1100
0000
,
0100
0100
0110
0000
,
0010
0010
0011
0001
,
2002
0000
3003
0000
,
2000
0000
3010
0100
,
0002
0000
0023
0000
,
0230
0000
1300
0001
,
0200
0000
0320
0000
,
1030
0001
0011
0000
,
0001
1000
1010
0000
,
0010
0100
0001
0010
,
0100
0100
2002
0003
,
3010
0100
0100
0001
0100
0100
0010
0000
,
1000
0100
0100
0010
0100
0100
1000
0000
,
0010
0100
0100
0001
0100
0100
0010
0000
,
M000
M000
M000
M000
MM00
MM00
MM00
MM00
,
MM20
MM00
MM00
MM00
MM0M
MM0M
MM3M
0000
,
1000
0001
1000
0100
0010
0000
0001
0000
,
0000
0100
1000
0100
,
0001
1000
0001
0100
0010
0000
1000
0000
,
0002
0003
0000
0000
,
0000
0000
0000
0100
0010
0000
1000
0001
,
0000
0010
0000
1100
0000
0101
0000
1010
,
0000
1000
0200
0000
0000
0000
0300
0000
,
0000
0000
0000
0100
1000
01M0
0100
0010
,
0000
1000
0000
0001
0010
0100
1000
0000
,
0001
0100
0000
0000
0000
0000
0000
0000
0000
0000
0000
0000
0000
0000
0000
0000
,
1000
1010
1000
1010
,
1000
0001
0010
0100
,
0000
0100
1000
0001
,
0000
0202
0000
0303
,
1000
0010
1000
0010
,
1000
1000
0010
0000
,
0200
0000
0002
0000
,
0000
0000
0000
0300
,
0010
0020
0030
2003
,
0200
0000
3300
0000
,
1000
1000
0001
0020
,
0000
0130
2000
0000
,
3010
0200
0000
0302
,
0200
0000
0303
0000
,
1000
0000
0010
0000
0010
M000
0001
0000
0010
0000
0010
000M
1000
0000
0001
0000
,
1000
0000
0100
0000
0100
M000
0001
0000
0100
0000
0100
000M
1000
0000
0000
0000
,
0001
0000
0000
0000
0100
0000
0000
0000
0010
0000
0000
1000
0000
0000
0100
0000
,
0000
0000
0000
0010
0002
0000
0000
0000
,
2000
0000
0000
3003
,
0001
0001
0202
0300
,
1003
1000
2200
0300
,
3010
0010
0110
0100
,
0001
0001
2002
3000
,
0103
0100
0220
0300
,
1030
1000
2002
3000
,
0013
0010
0110
0100
,
2200
0000
3300
0000
,
2002
3000
0103
0001
,
0010
0200
0000
1300
,
0010
0001
0100
1000
,
2002
3000
0200
0003
,
0310
0010
2020
0030
,
3100
0100
0220
0300
,
0031
0100
1000
0100
,
0001
1000
0001
0010
,
0100
1000
0001
0100
,
0010
0100
0001
1000
,
0100
0010
0001
0100
,
0020
0000
1030
0001
,
1000
0100
0001
0100
,
1000
0010
0100
0001
,
0010
0020
0000
0000
,
0200
0000
0000
0000
,
0000
0330
2200
0300
,
0020
3000
0200
0030
,
0002
0300
0020
0003
,
0200
0000
0000
0000
,
0000
0000
0000
0000
,
0330
0000
0000
0000
;

//---------------dance-single - Score line 1----------------
#NOTEDATA:;
#CHARTNAME:Fake tenor;
#STEPSTYPE:dance-single;
#DESCRIPTION:Score line 1;
#CHARTSTYLE:Blatant karaoke;
#DIFFICULTY:Beginner;
#METER:7;
#RADARVALUES:0.273976,0.398725,0.162169,0.416000,0.000000,272.000000,249.000000,23.000000,59.000000,36.000000,0.000000,1.000000,0.000000,0.000000,0.273976,0.398725,0.162169,0.416000,0.000000,272.000000,249.000000,23.000000,59.000000,36.000000,0.000000,1.000000,0.000000,0.000000;
#CREDIT:BGS's Ghost;
#DISPLAYBPM:170.000000;
#NOTES:
0000
0000
0000
0000
,
0000
0000
0000
0000
,
0000
0000
0000
0000
,
0000
0000
0000
0000
,
2000
0000
3200
0000
,
2300
0000
3000
0000
,
0002
0000
0203
0000
,
0301
0000
0002
0000
,
2003
0000
0000
0000
,
0000
0000
0000
0000
,
3020
0000
0000
0000
,
0000
0000
0230
0000
,
0302
0000
0000
0000
,
0023
0000
0032
0000
,
0203
0000
0000
0000
,
0300
0000
0010
1000
0010
0100
0001
1000
,
0100
0000
0000
0110
0000
0000
0011
0000
,
0000
0001
0000
1000
0010
0100
0010
1000
,
1000
0000
0000
1001
0000
0000
0101
0000
,
0000
0100
0000
0000
0001
0010
0001
1000
,
0100
0000
0000
1100
0000
0000
0011
0000
,
0000
0000
0004
0003
0000
0000
0010
0000
0001
0000
1000
0000
0010
0000
0100
0000
,
0100
0000
0000
0101
0000
0000
1010
0000
,
0000
1000
0000
0000
0001
0010
0001
0010
,
0100
0000
0100
1000
0000
1000
0001
0100
,
0000
0100
0010
1000
0000
0100
0000
0010
,
0000
0001
1000
0100
0010
0001
0100
0001
,
M000
M000
M000
M000
MM00
MM00
MM00
MM00
,
MMM0
MMM0
MMM0
MMM0
MMM2
MMM0
MMM3
0000
,
1000
0010
0100
0001
,
0010
0001
0100
0010
,
0000
1000
0100
0001
,
0100
1000
0010
0100
,
0000
0001
0010
0100
,
1000
0010
0001
0010
,
0000
1000
0100
0010
,
0001
1000
0010
0100
,
0020
0000
0000
0000
2030
0000
3000
1000
,
0002
0000
0000
0000
0023
0000
0030
0010
,
0200
0000
0000
0000
,
0310
0001
1000
0010
,
0100
0100
0000
0001
,
0010
0001
1000
0100
,
0000
0000
0000
1000
,
1000
0001
0100
0020
,
0000
2030
0000
3002
,
0000
1003
0001
0000
,
2200
0000
3300
0100
,
0010
0001
1000
0001
,
0100
0100
0000
0000
,
0010
1000
0001
2000
,
0000
3000
0000
0000
,
0000
0000
0000
0000
0000
0001
01M0
0100
,
1000
0000
0001
0000
0000
0001
0010
0000
,
0100
0000
0100
1000
0000
001M
0000
0010
,
0001
0100
0001
1000
,
01M0
0000
0100
0001
2000
0000
0000
0000
,
0002
0000
0000
3003
,
0001
0001
0202
0300
,
1003
1000
2200
0300
,
3010
0010
0110
0100
,
0001
0001
2002
3000
,
1003
1000
2020
3000
,
0130
0100
0202
0300
,
0013
0010
0110
0100
,
2200
0000
3300
0000
,
0022
0030
1003
0010
,
0100
0001
0010
0001
,
0202
0003
0310
1000
,
2002
3000
0020
0030
,
0103
0100
0220
0300
,
1030
1000
2200
3000
,
0310
0001
0100
1000
,
0100
0001
0010
0100
,
1000
1000
0010
0010
,
0100
0100
0001
0001
,
0010
0010
0100
0100
,
1000
1000
0001
0001
,
0100
0100
0010
0010
,
1000
1000
0100
0100
,
0010
0010
0001
0001
,
1000
2000
0000
3020
,
0000
0030
0202
0300
,
0020
0003
2000
0030
,
0020
0000
3030
0000
,
0002
0000
0000
0000
,
0200
0000
0000
0000
,
0303
0000
0000
0000
;

//---------------dance-single - Line 3----------------
#NOTEDATA:;
#CHARTNAME:Baritone but lower;
#STEPSTYPE:dance-single;
#DESCRIPTION:Line 3;
#CHARTSTYLE:Blatant karaoke;
#DIFFICULTY:Medium;
#METER:6;
#RADARVALUES:0.238721,0.337383,0.155119,0.458305,0.000000,237.000000,215.000000,22.000000,65.000000,25.000000,0.000000,0.000000,0.000000,0.000000,0.238721,0.337383,0.155119,0.458305,0.000000,237.000000,215.000000,22.000000,65.000000,25.000000,0.000000,0.000000,0.000000,0.000000;
#CREDIT:BGS's Ghost;
#DISPLAYBPM:170.000000;
#NOTES:
0000
0000
0000
0000
,
0000
0000
0000
0000
,
0000
0000
0000
0000
,
0000
0000
0000
0000
,
0101
0000
1010
0000
,
0101
0000
0000
0000
0001
1000
0100
0000
,
1100
0000
0011
0000
,
1100
0000
0200
0000
,
0320
0000
0000
0000
,
0000
0000
0000
0000
,
0032
0000
0000
0000
,
0000
0000
0203
0000
,
0320
0000
0000
0000
,
2030
0000
3002
0000
,
0023
0000
0000
0000
,
0000
0000
0000
0000
,
0130
0100
0010
0010
,
0022
0030
2000
0003
,
3010
0000
0110
0000
0000
1000
0000
1001
,
0000
0000
0000
0000
,
0001
1000
0001
0000
0001
0000
0000
0000
,
0100
0001
0100
0000
0100
0000
0010
0010
,
0010
1000
0010
0000
0010
0000
0000
0000
,
1000
0001
1000
0000
1000
0000
0000
0000
,
2000
0000
0000
0200
0000
3000
0002
0300
,
0020
0000
0003
2000
0000
0030
0002
3000
,
0020
0000
0033
0000
,
M000
M000
M000
M000
M200
M000
M000
M000
,
M0M0
M0M0
M0M0
M0M0
M0MM
M0MM
M3MM
0000
,
0001
0100
1000
0100
,
0001
1000
0002
0000
,
1003
0100
2000
0000
,
3100
0010
0200
0000
,
1300
0010
0001
0010
,
1000
0001
0010
1000
,
0010
0001
0100
0010
,
2000
0000
3000
0000
,
0001
0010
1100
0000
,
1000
0010
0101
0000
,
0001
0010
0100
1000
,
0010
0010
0101
0000
,
1000
0010
0101
0000
,
0001
0010
1100
0000
,
1000
1000
0001
0100
,
0202
0000
0303
0000
,
0002
0000
0013
1000
,
0020
0000
0032
0000
,
2003
0000
3010
0001
,
0020
0000
2030
0000
,
3001
1000
0101
0000
,
1000
0001
1100
0000
,
1000
0010
0001
0100
,
1000
0001
0202
0003
,
0310
0010
2000
0000
,
3100
0100
0020
0000
,
0031
0001
1000
0020
,
0000
0000
0000
0000
,
0200
0000
0000
0330
,
0001
0001
0202
0300
,
1003
1000
2200
0300
,
3010
0010
0110
0100
,
0001
0001
2002
3000
,
0103
0100
0020
0000
,
1030
1000
0200
0000
,
0310
0010
0001
1000
,
0020
0000
0030
0000
,
0200
0000
0301
0010
,
0200
0000
2300
0000
,
3002
0000
0103
0010
,
0200
0000
0302
0000
,
0013
0010
0200
0000
,
1300
1000
0020
0000
,
0130
0001
0010
0001
,
0100
0100
0010
1000
,
0001
0010
0001
0100
,
0010
1000
0100
1000
,
0001
0100
0010
1000
,
0200
0000
0310
0001
,
1000
0010
0100
0001
,
1000
0020
0000
0000
,
0000
0000
0000
0000
,
0000
0000
0000
0000
,
0000
0030
0200
0000
,
0302
0000
2003
0000
,
3020
0000
0230
0000
,
0302
0000
2003
3200
,
2000
0000
0000
0000
,
3300
0000
0000
0000
;

//---------------dance-single - Score line 4----------------
#NOTEDATA:;
#CHARTNAME:Feigned bass;
#STEPSTYPE:dance-single;
#DESCRIPTION:Score line 4;
#CHARTSTYLE:Blatant karaoke;
#DIFFICULTY:Hard;
#METER:9;
#RADARVALUES:0.306208,0.429396,0.021153,0.296135,0.000000,304.000000,301.000000,3.000000,42.000000,60.000000,0.000000,0.000000,0.000000,0.000000,0.306208,0.429396,0.021153,0.296135,0.000000,304.000000,301.000000,3.000000,42.000000,60.000000,0.000000,0.000000,0.000000,0.000000;
#CREDIT:BGS's Ghost;
#DISPLAYBPM:170.000000;
#NOTES:
0000
0000
0000
0000
,
0000
0000
0000
0000
,
0000
0000
0000
0000
,
0000
0000
0000
0000
,
1000
0010
0100
0010
,
1000
0000
0010
0000
0100
0001
1000
0000
,
0001
0010
0100
0010
,
0001
0100
0010
1000
,
0001
0010
0100
0010
,
0001
0000
0010
0000
0100
1000
0001
0000
,
0100
0010
1000
0010
,
0100
0000
0010
0000
1000
0001
0010
0000
,
0100
1000
0001
1000
,
0100
0000
1000
0000
0001
0100
0010
0000
,
1000
0001
0100
0001
,
1000
0000
0001
0000
0100
0010
1000
0000
,
0001
0010
0100
1000
,
0010
0000
0100
0000
0001
1000
0100
0000
,
1000
0010
0100
0001
,
0010
0000
0100
0000
1000
0001
0100
0000
,
0010
0100
0001
0100
,
0010
0100
0001
1000
,
0100
0010
0001
0100
,
0010
1000
1100
0000
,
0002
0000
0000
1003
0002
0000
0000
0000
,
0203
0000
0000
0301
0200
0000
0000
0000
,
0320
0000
0000
1030
0020
0000
0000
0000
,
2030
0000
0000
0000
0M00
0M00
0M00
0M00
,
0MM0
0MM0
0MM0
0MM0
0MMM
0MMM
3MMM
0000
,
0200
0000
0000
0310
0002
0000
0000
0000
,
2003
0000
0000
3010
0200
0000
0000
0000
,
0302
0000
0000
1003
0200
0000
0000
0000
,
0320
0000
0000
0031
0200
0000
0000
0000
,
0320
0000
0000
1030
0200
0000
0000
0000
,
0320
0000
0000
0031
2000
0000
0000
0000
,
3020
0000
0000
1030
0020
0000
0000
0000
,
0230
0000
0000
0301
0200
0000
0000
0000
,
0310
1000
0001
1000
,
0010
1000
0001
1000
,
0010
1000
0001
1000
,
0100
0000
0010
0000
0001
0100
0010
0000
,
1000
0001
0100
0001
,
1000
0001
0100
0001
,
1000
0001
0100
0001
,
1000
0100
0010
0001
,
0100
0010
1000
0010
,
0100
0001
1000
0100
,
0010
0001
1000
0001
,
0010
0000
0100
0000
1000
0001
0100
0000
,
0010
0100
0001
0100
,
0010
0100
0001
0100
,
0010
1000
0100
0010
,
0001
1000
2200
0300
,
3002
0000
0000
1003
0200
0000
0000
0000
,
2300
0000
0000
3001
0200
0000
0000
0000
,
0302
0000
0000
1003
0200
0000
0000
0000
,
2300
0000
0000
3001
0020
0000
0000
0000
,
0200
0000
0000
0330
,
000M
0000
000M
0000
0M0M
0M0M
0M0M
000M
,
M00M
0000
M000
0000
MM00
MM00
MM00
M000
,
M0M0
00M0
0MM0
0M00
,
000M
0000
000M
0000
M00M
M00M
M00M
000M
,
000M
0000
1000
0100
0010
0000
0001
0100
,
0000
0010
0000
1000
0001
0M10
0010
1000
,
0001
01M0
0100
1000
0001
0000
0001
0010
,
0000
0001
0000
1000
0100
0000
0100
0000
,
0011
0000
0001
0100
0010
0000
1000
0100
,
0000
0010
0000
0001
1000
0M10
0010
0001
,
1000
01M0
0100
0001
1000
0000
1000
0010
,
0000
1000
0000
0001
0100
0000
0100
0000
,
0010
1000
0001
0010
0001
0000
1000
0100
,
0000
1000
0000
0010
0100
0001
1000
0100
,
0010
0100
1000
0001
0010
0000
0001
0100
,
0000
0020
0000
0030
0000
0000
1000
0000
,
0100
0010
0100
1000
,
0001
0100
0010
1000
,
0100
0001
0100
1000
,
0002
0000
0103
0010
,
0001
0010
1000
0100
,
0010
0001
1000
0001
,
0100
0010
1000
0001
,
1000
2000
0000
0000
,
0000
3000
0200
0000
,
0320
0000
0000
0030
0020
0000
0000
0000
,
0031
0100
0020
0000
,
2000
0000
0000
0000
,
0000
0000
0000
0000
,
3030
0000
0000
0000
;

//---------------dance-single - All four voices----------------
#NOTEDATA:;
#CHARTNAME:The real deal;
#STEPSTYPE:dance-single;
#DESCRIPTION:All four voices;
#CHARTSTYLE:Blatant karaoke;
#DIFFICULTY:Challenge;
#METER:11;
#RADARVALUES:0.464348,0.552081,0.274983,0.232678,0.007051,461.000000,420.000000,39.000000,33.000000,0.000000,3.000000,1.000000,0.000000,0.000000,0.464348,0.552081,0.274983,0.232678,0.007051,461.000000,420.000000,39.000000,33.000000,0.000000,3.000000,1.000000,0.000000,0.000000;
#CREDIT:BGS's Ghost;
#DISPLAYBPM:170.000000;
#NOTES:
// measure 0
0000
0000
0000
0000
,  // measure 1
0000
0000
0000
0000
,  // measure 2
0000
0000
0000
0000
,  // measure 3
0000
0000
0000
0000
,  // measure 4
0001
0011
1000
1100
,  // measure 5
0001
0000
0101
0000
1000
0010
0100
0000
,  // measure 6
0001
0011
1000
1100
,  // measure 7
0200
1000
0010
1300
,  // measure 8
0001
0100
0010
0100
,  // measure 9
0001
0000
1000
0000
0100
0010
0001
0000
,  // measure 10
1000
0010
0100
0010
,  // measure 11
1000
0000
0100
0000
0010
0001
0100
0000
,  // measure 12
0010
1000
0001
1000
,  // measure 13
0100
0000
0010
0000
0100
1000
0001
0000
,  // measure 14
0100
0010
1000
0001
,  // measure 15
0010
0000
0001
0100
1000
0100
0001
0010
,  // measure 16
0001
0000
0100
0010
1000
0000
1100
0000
,  // measure 17
0001
0100
0010
1000
0001
0010
0100
0010
,  // measure 18
0001
0000
0100
0010
1000
0001
0100
0001
,  // measure 19
0010
0100
1000
0000
0001
0100
0001
1000
,  // measure 20
0010
1000
0001
0100
0010
0000
1010
0000
,  // measure 21
1000
0000
0004
0003
0010
0000
0100
0000
1000
0000
0001
0000
0100
0000
0001
0000
,  // measure 22
0010
0100
1000
0010
0100
0000
0001
0000
,  // measure 23
1000
0010
1000
0100
0001
1000
0010
0001
,  // measure 24
0100
0010
0100
0001
1000
0100
0010
0001
,  // measure 25
0100
0010
1000
0001
0010
0100
0010
0001
,  // measure 26
0100
1000
0100
0010
1000
0001
0010
0100
,  // measure 27
2000
0000
0200
0000
,  // measure 28
0020
0000
0002
3333
,  // measure 29
0001
0100
0010
1000
1100
0000
0101
0000
,  // measure 30
1100
0000
0001
0100
0010
0000
1010
0000
,  // measure 31
1000
0100
0010
0001
0101
0000
1100
0000
,  // measure 32
0101
0000
1000
0100
0010
0000
0011
0000
,  // measure 33
1010
0000
1000
0100
0001
0000
1000
0010
,  // measure 34
0001
1000
0010
0100
0001
0010
0001
0100
,  // measure 35
0010
1000
0001
0010
0100
0000
1100
0000
,  // measure 36
0110
0000
0001
1000
0010
1000
0100
0010
,  // measure 37
0001
0100
0010
0100
0001
1000
0100
0000
,  // measure 38
0010
0001
0000
0000
1100
0000
0000
0000
1010
0000
0000
0000
1000
0000
0001
0000
,  // measure 39
0200
1000
0001
1300
,  // measure 40
0100
0000
0001
0000
0010
0100
1000
0000
,  // measure 41
0001
0100
0010
2000
,  // measure 42
0100
3001
0101
0101
,  // measure 43
1010
1000
0100
0010
,  // measure 44
0011
0001
0100
0010
,  // measure 45
2000
0000
0020
3000
0200
0030
0002
0300
,  // measure 46
1000
0103
0110
0001
,  // measure 47
0100
0010
1000
0100
,  // measure 48
0010
0000
0001
0000
1000
0010
1000
0000
,  // measure 49
0002
0100
1003
1000
,  // measure 50
0010
0100
0010
1000
,  // measure 51
0001
0010
0100
1000
,  // measure 52
1010
0000
0101
0000
1000
0100
0001
0100
,  // measure 53
1000
0001
0100
0001
1000
0010
1000
0001
,  // measure 54
1000
0010
1000
0001
0100
0001
1000
0100
,  // measure 55
0010
0000
0000
0000
1001
0000
0000
0000
0001
0000
0100
0010
0100
0000
0001
0000
,  // measure 56
2000
0000
0000
3200
0020
0000
0000
0300
,  // measure 57
0002
0000
0000
0033
,  // measure 58
0001
0001
0202
0300
,  // measure 59
1003
1000
2200
0300
,  // measure 60
3010
0010
0110
0100
,  // measure 61
0001
0001
2002
3000
,  // measure 62
0103
0000
0010
1000
0010
0000
0100
0001
,  // measure 63
1000
0100
0010
0001
0010
0100
1000
0010
,  // measure 64
0100
0001
0010
0100
1000
0000
0010
0100
,  // measure 65
0001
1000
0000
0001
0011
0000
1100
0000
,  // measure 66
1111
0000
0001
0100
0010
0000
1000
0100
,  // measure 67
0010
0100
1000
0010
0100
0001
0010
0001
,  // measure 68
0100
0010
1000
0001
0010
0000
0100
1000
,  // measure 69
0001
0100
0000
0010
1010
0000
1010
0000
,  // measure 70
1000
0100
0010
0100
1000
0000
0001
0100
,  // measure 71
0010
0100
0001
1000
0100
0001
0100
1000
,  // measure 72
0001
0100
0010
0100
0001
0000
0010
0100
,  // measure 73
1000
0001
0100
0000
0110
0000
1000
0000
,  // measure 74
0100
0001
1000
0010
,  // measure 75
0100
1000
0010
0100
,  // measure 76
1000
0001
0010
0100
,  // measure 77
0001
1000
0001
0100
,  // measure 78
0010
1000
0010
0100
,  // measure 79
0001
0020
0130
1000
,  // measure 80
0001
2000
3010
0100
,  // measure 81
0001
0020
0000
0200
,  // measure 82
0000
0000
0330
0000
2200
0000
0000
0300
,  // measure 83
0020
0000
0000
3000
0200
0000
0000
0030
,  // measure 84
0001
0000
0010
0000
0002
0000
0000
0300
,  // measure 85
2003
0000
0100
0010
,  // measure 86
0002
0000
0000
0000
,  // measure 87
3003
0000
0000
0000
;

//---------------dance-double - ----------------
#NOTEDATA:;
#CHARTNAME:;
#STEPSTYPE:dance-double;
#DESCRIPTION:;
#CHARTSTYLE:;
#DIFFICULTY:Hard;
#METER:9;
#RADARVALUES:0.375796,0.565206,0.317623,0.407209,0.000000,323.000000,284.000000,39.000000,50.000000,0.000000,2.000000,0.000000,0.000000,0.000000,0.375796,0.565206,0.317623,0.407209,0.000000,323.000000,284.000000,39.000000,50.000000,0.000000,2.000000,0.000000,0.000000,0.000000;
#CREDIT:BGS's Ghost;
#DISPLAYBPM:170.000000;
#NOTES:
// measure 0
00000000
00000000
00000000
00000000
,  // measure 1
00000000
00000000
00000000
00000000
,  // measure 2
00000000
00000000
00000000
00000000
,  // measure 3
00000000
00000000
00000000
00000000
,  // measure 4
10000000
00010000
00100000
00001000
,  // measure 5
00010000
00000000
00000100
00000000
00000010
00000001
00000010
00000000
,  // measure 6
00000100
00001000
00000010
00000100
,  // measure 7
00000110
00000000
00011000
00000000
,  // measure 8
01100000
10000000
00020000
00030000
,  // measure 9
01100000
00010000
20000000
30000000
,  // measure 10
00100000
01000000
00001000
00010000
,  // measure 11
00000100
00000010
00000002
00000003
,  // measure 12
00000100
00000010
00020000
00030000
,  // measure 13
00001000
00100000
00020000
00030000
,  // measure 14
01000000
00100000
10000000
01000000
,  // measure 15
00020000
00001000
00000010
00031000
,  // measure 16
00011000
00000100
00011000
00100000
,  // measure 17
00011000
01000000
00010000
00100000
,  // measure 18
11000000
00010000
11000000
00100000
,  // measure 19
11000000
01000000
00100000
00010000
,  // measure 20
01000000
00001000
00022000
00033000
,  // measure 21
00010000
00000100
00002200
00003000
,  // measure 22
00000310
00000001
00000100
00000010
,  // measure 23
00010000
00001000
00022000
00033000
,  // measure 24
01000000
00000000
00000000
00100000
00000000
00000000
10000000
01000000
,  // measure 25
10000000
00000000
00000000
00100000
00000000
00000000
01000000
00010000
,  // measure 26
01000000
00000000
00001000
00010000
00000100
00000000
00010000
00001000
,  // measure 27
02000000
00000000
00002000
00000000
,  // measure 28
20000000
00000000
00020000
33033000
,  // measure 29
00001000
01000000
00001000
00000000
00010000
00000000
00000100
00000000
,  // measure 30
00010000
00001000
00100010
00011000
,  // measure 31
00001000
01000000
00010000
00000000
00100000
00000000
01000000
00000000
,  // measure 32
22000000
33000000
20000000
30000000
,  // measure 33
00020000
00000000
00000000
00130000
00010000
00000000
00100000
00001000
,  // measure 34
00000000
00001000
00000000
00010000
00000000
00010000
00000000
00000100
,  // measure 35
00000000
00000100
00000020
00000000
00000000
00000000
00000030
00000000
,  // measure 36
00000001
00001000
00000002
00000003
,  // measure 37
00000202
00000000
00000303
00000000
00001020
00000000
00000030
00010000
,  // measure 38
00002000
00000000
00003000
00000000
02000000
00000000
03000000
01000000
,  // measure 39
00020000
00000000
10000000
10030000
,  // measure 40
01000000
00100000
00010000
00001000
,  // measure 41
00000100
00000010
00000000
00000001
,  // measure 42
00000100
00000010
00010000
00002000
,  // measure 43
00010000
01000000
00013000
00001000
,  // measure 44
00100000
00010000
01000000
01100000
,  // measure 45
00000000
10100000
00000000
11000000
,  // measure 46
00000000
10000000
02000000
00000000
,  // measure 47
00010000
00000000
13000000
00010000
,  // measure 48
01000000
00001000
00010000
00000100
,  // measure 49
00000010
00000010
00000001
00000000
,  // measure 50
00000001
00000100
00000001
00000020
,  // measure 51
00000100
00000000
00000001
00000000
,  // measure 52
00000230
00000000
00000000
00000000
00010300
00001000
00010000
00001000
,  // measure 53
00010000
00000000
00011000
00000000
00100000
00010000
00100000
00000000
,  // measure 54
00011000
00000000
00000010
00001000
00000010
00000000
00011000
00000000
,  // measure 55
00011000
00000000
00011000
00000000
01000000
00010000
01000000
00000000
,  // measure 56
00011000
00000000
00000100
00001000
00000200
00000000
00000000
00000000
,  // measure 57
00020000
00000000
00000000
00030300
,  // measure 58
00000100
00000010
00000011
00000000
,  // measure 59
00000001
00000100
00000110
00000000
,  // measure 60
00000010
00010000
00001000
00100000
,  // measure 61
00010000
01000000
01100000
00000000
,  // measure 62
00100000
10000000
11000000
00000000
,  // measure 63
01000000
00100000
00101000
00000000
,  // measure 64
00001000
00010000
00000010
00000100
,  // measure 65
00000220
00000000
00000000
00000330
,  // measure 66
00000020
00000100
00001000
00010000
,  // measure 67
00100000
00010000
00001000
00000130
,  // measure 68
00000001
00000010
00000100
00010000
,  // measure 69
00012000
00000000
02000000
03003000
,  // measure 70
01000000
00100000
10100000
00000000
,  // measure 71
10000000
01000000
01100000
00000000
,  // measure 72
00100000
00001000
01000000
00010000
,  // measure 73
00100000
01000000
10000000
00100000
,  // measure 74
00010000
00001000
00000010
00000001
,  // measure 75
00000100
00001000
00010000
00100000
,  // measure 76
10000000
01000000
00010000
00001000
,  // measure 77
00000100
00000001
00000010
00001000
,  // measure 78
00010000
00100000
10000000
01000000
,  // measure 79
00010000
01000000
10000000
00100000
,  // measure 80
00010000
00001000
00000100
00000001
,  // measure 81
00000020
00000200
00000000
00000000
,  // measure 82
00000000
00000330
00002200
00003300
,  // measure 83
00022000
00033000
00220000
00330000
,  // measure 84
10000000
01000000
00020000
00000000
,  // measure 85
00002000
00003000
00000010
00000001
,  // measure 86
00000200
00000000
00000000
00030300
;
