#VERSION:0.83;
#TITLE:廿;
#SUBTITLE:;
#ARTIST:DJ TECHNORCH;
#TITLETRANSLIT:Nijuuichi no mae;
#SUBTITLETRANSLIT:;
#ARTISTTRANSLIT:;
#GENRE:;
#CREDIT:;
#MUSIC:Nijuuichi no mae.ogg;
#BANNER:Nijuuichi no mae.png;
#BACKGROUND:Nijuuichi no mae-bg.png;
#CDTITLE:;
#SAMPLESTART:0.000;
#SAMPLELENGTH:10.000;
#SELECTABLE:YES;
#OFFSET:3.500;
#BPMS:0.000=60.000
,12.000=120.000
,13.000=160.000
;
#STOPS:12.000=2.500
,216.750=1.125
;
#SPEEDS:0.000=1.000=0.000=0;
#SCROLLS:0.000=1.000;
#TICKCOUNTS:0.000=4;
#TIMESIGNATURES:0.000=4=4;
#DISPLAYBPM:160.000;
#ORIGIN:;
#PREVIEWVID:;
#JACKET:;
#CDIMAGE:;
#DISCIMAGE:;
#PREVIEW:Nijuuichi no mae (preview).ogg;
#BGCHANGES:;
#FGCHANGES:;

//--------------- dance-single - ----------------
#NOTEDATA:;
#STEPSTYPE:dance-single;
#DESCRIPTION:;
#DIFFICULTY:Beginner;
#METER:5;
#RADARVALUES:0.258528,0.292109,0.13376,0.007868,0.003934,230,213,17,1,0,0,0,0,0,0.258528,0.292109,0.13376,0.007868,0.003934,230,213,17,1,0,0,0,0,0;
#DISPLAYBPM:160.000;
#CHARTNAME:;
#CHARTSTYLE:;
#CREDIT:forcednature;
#NOTES:
0000
0000
0000
0000
,
0000
0000
0000
0000
,
0000
0000
0000
0000
,
0020
0030
0000
0000
1001
0000
0000
0000
0000
0000
0000
0000
1000
0000
0000
0000
,
0000
0001
0000
0100
,
0100
0001
0000
1000
,
0000
0100
0000
0010
,
0010
1001
0000
0001
,
0000
0100
0000
0010
,
0010
1000
0000
0100
,
0000
0110
0000
1001
,
0000
1000
0000
0001
,
0000
0100
0000
0001
,
0000
1000
0000
0100
,
0000
1000
0000
0010
,
0000
0100
0000
0001
,
0000
0010
0000
0001
,
0000
1000
0000
0100
,
0000
1000
0000
0010
,
0000
0110
0100
0000
,
0001
0000
1000
0000
,
0100
0000
0010
0000
,
0001
0100
0100
0010
,
0010
1000
0001
0000
,
0010
0000
0100
0000
,
1000
0000
0001
0000
,
0100
0010
1000
0001
,
1000
0100
0000
0110
,
0000
0010
0000
1001
,
0000
0100
0000
0110
,
0000
0001
1000
0001
,
1000
0010
0000
1001
,
0000
0100
0000
1001
,
0000
0110
0000
1001
,
0000
1000
0010
0100
,
0001
1000
1000
0000
,
1000
0001
0001
0000
,
0001
0100
0010
0100
,
0000
0010
0100
0010
,
0000
1000
1000
0000
,
1000
0001
0001
0000
,
0001
0010
0100
0000
,
0100
0010
0100
0000
,
0100
1000
0001
0000
,
0001
1000
0001
0000
,
0001
0100
0010
0100
,
0000
0010
0100
0010
,
0000
1000
1000
0000
,
0001
1000
1000
0000
,
0001
0010
0100
1000
,
0001
0100
0010
1000
,
0000
0001
0000
0010
,
0010
0100
1000
0001
,
0000
0100
0100
0010
,
0010
0000
1001
1000
,
0001
0100
0010
1000
,
0001
1000
0100
0010
,
0001
0100
0010
0010
,
0010
0000
0110
0100
,
0001
1000
0001
0010
,
0100
1000
0010
0100
,
0001
1000
0100
0100
,
0100
0000
1001
1000
,
0010
0100
0001
0010
,
0001
0100
0010
1000
,
0001
0010
0100
1000
,
0100
1000
1001
0001
,
0100
0010
1000
0001
,
0010
0001
1000
0010
,
0100
0001
1000
0100
,
1000
0001
0110
0000
,
0001
1000
0010
0100
,
0001
0000
1000
1000
,
0001
0001
0010
0100
,
1000
0001
0000
0000
;

//--------------- dance-single - ----------------
#NOTEDATA:;
#STEPSTYPE:dance-single;
#DESCRIPTION:;
#DIFFICULTY:Easy;
#METER:9;
#RADARVALUES:0.459731,0.468161,0.243916,0.157365,0.078683,409,378,31,20,0,0,0,0,0,0.459731,0.468161,0.243916,0.157365,0.078683,409,378,31,20,0,0,0,0,0;
#DISPLAYBPM:160.000;
#CHARTNAME:;
#CHARTSTYLE:;
#CREDIT:forcednature;
#NOTES:
0000
0000
0000
0000
,
0000
0000
0000
0000
,
0000
0000
0000
0000
,
0020
0030
0000
0000
1001
0000
0000
0000
1000
0000
0100
0000
1000
0000
0000
0000
,
0010
0000
0100
0001
0100
0000
0010
0000
,
0010
0000
1000
0001
1000
0000
0100
0000
,
0010
0000
0001
0100
0001
0000
0010
0010
,
0010
0000
0110
0000
0100
0000
1000
0001
,
1000
0010
0100
0001
,
0001
0000
1000
0100
1000
0000
0001
0100
,
0001
1001
0000
0110
,
0000
0000
1001
0000
0001
0000
0100
0010
,
0100
0000
0001
0000
1000
0000
0010
0100
,
0010
0000
1000
0000
0001
0000
0010
0100
,
0010
0000
0000
0000
0001
0000
0000
0001
0000
0000
1000
0000
0000
1000
0000
0000
,
0010
0000
1001
0000
1000
0000
0100
0010
,
0100
0000
1000
0000
0001
0000
0100
0010
,
0100
0000
0001
0000
1000
0000
0010
0100
,
0010
0000
0000
0000
1000
0000
0000
1000
0000
0000
0001
0000
0000
0001
0000
0000
,
0010
0000
0110
0000
0100
2000
0000
3001
,
0100
0000
0010
0000
1000
0002
0000
0013
,
0001
0000
0100
0000
0010
2000
0000
3001
,
0010
0000
0000
0000
0100
0000
0000
0100
0000
0000
1000
0000
0000
1000
0000
0000
,
0001
0000
0101
0000
1000
0020
0000
0130
,
0001
0000
1000
0000
0100
0020
0000
0031
,
0100
0000
0010
0010
1000
0002
0000
0013
,
0001
1000
0010
0000
1001
0000
0110
0000
,
1001
0000
0000
0000
1000
0000
0000
0100
0000
0000
2200
0000
0000
0000
0000
0000
,
3300
0000
0000
0000
0001
0000
0000
0100
0000
0000
0202
0000
0000
0000
0000
0000
,
0303
0000
0000
0000
0010
0000
0000
0100
0000
0000
0220
0000
0000
0000
0000
0000
,
0330
0000
0000
0000
0001
0000
0000
1000
0000
0000
0001
0000
0010
0000
0100
0000
,
0010
0000
0000
0000
1100
0000
0000
1100
0000
0000
2200
0000
0000
0000
0000
0000
,
3300
0000
0000
0000
0101
0000
0000
0101
0000
0000
0202
0000
0000
0000
0000
0000
,
0303
0000
0000
0000
1001
0000
0000
1001
0000
0000
2002
0000
0000
0000
0000
0000
,
3003
0000
0000
0000
0010
0000
0000
0010
0000
0000
0010
0000
0100
0000
0100
0000
,
0100
0000
1001
0000
0001
0000
1000
0010
,
0001
0000
0010
0000
1000
0000
0001
0010
,
1000
0000
0010
0100
1000
0000
0001
0000
,
0100
0000
0010
0100
0001
0000
0010
0000
,
0100
0000
1000
0001
0100
0000
1000
0000
,
0100
0000
0001
1000
0100
0000
0001
0000
,
0100
0000
0010
0001
0100
0000
1000
0000
,
0100
0000
0001
0010
0100
0000
1000
0001
,
0100
0000
0010
1000
0100
0000
0010
0000
,
1000
0000
0010
0001
1000
0000
0010
0000
,
0100
0000
1000
0100
0001
0000
1000
0100
,
0001
0000
0100
0010
0001
0000
0100
0010
,
0001
0000
0010
0000
1000
0000
0001
0010
,
0100
0000
1000
0000
0001
0000
0100
0010
,
1000
0000
0001
0010
0001
0010
0100
1000
,
0100
1000
0001
0100
0010
1000
0002
0000
,
0000
1003
0100
0011
,
0001
0100
1000
0000
0100
0000
1010
0000
,
0001
0000
1000
0010
1000
0010
0100
0001
,
0100
0001
0000
0000
1001
0000
1000
0100
,
0000
0010
0001
1000
0010
0000
0100
0001
,
0000
1000
0100
1000
0010
0000
0100
0001
,
0000
0000
0010
0000
0100
0000
1000
0000
0001
0000
0000
0100
0000
0000
1000
0000
,
0000
0100
0000
0000
0001
0000
0000
0000
0110
0000
0000
0000
0001
0000
1000
0000
,
0000
0010
0100
0001
1000
0000
0100
0010
,
0000
0001
0010
0100
1000
0000
0001
0100
,
0000
0000
0010
0000
1000
0000
0001
0000
0010
0000
0000
0010
0000
0000
0100
0000
,
1000
0001
0100
0000
0010
1000
0001
0010
,
0000
0100
1000
0001
0100
0010
1000
0010
,
0000
0100
0001
1000
0001
0010
0100
1000
,
0000
0000
0001
0000
0100
0000
0010
0000
1000
0000
0000
0001
0000
0000
0010
0000
,
0000
0001
0000
0000
0100
0000
0000
0000
0010
0000
1000
0000
0001
0000
0010
0000
,
0000
0100
1000
0010
1000
0100
0010
0001
,
0000
0100
0010
0100
0001
0010
0100
1000
,
0000
0001
0100
1000
0100
0000
0101
0000
,
1100
0000
1001
0000
0001
0010
1000
0000
,
0010
0000
0100
1000
0001
0000
0100
0010
,
1000
1000
0001
0000
0010
0001
0100
0001
,
1000
0010
1000
0000
0100
0010
0100
1000
,
0001
0100
1000
0001
0000
0000
0000
0000
;

//--------------- dance-single - ----------------
#NOTEDATA:;
#STEPSTYPE:dance-single;
#DESCRIPTION:;
#DIFFICULTY:Medium;
#METER:13;
#RADARVALUES:0.673298,0.732116,0.330467,0.36194,0.334401,599,557,42,46,0,0,0,0,0,0.673298,0.732116,0.330467,0.36194,0.334401,599,557,42,46,0,0,0,0,0;
#DISPLAYBPM:160.000;
#CHARTNAME:;
#CHARTSTYLE:;
#CREDIT:forcednature;
#NOTES:
0000
0000
0000
0000
,
0000
0000
0000
0000
,
0000
0000
0000
0000
,
2002
3003
0000
0000
0011
0000
0000
0000
1100
0000
0000
0000
0100
0000
0010
0000
,
0001
0010
0100
1000
0001
0100
0020
0030
,
0020
0030
0101
0000
1010
0000
0100
0001
,
1000
0001
0010
0100
1000
0001
0100
0100
,
0010
0100
1001
0000
0110
0000
0001
0010
,
1000
0010
0100
1000
0001
1000
0020
0030
,
0020
0030
0100
1000
0100
0001
0010
1000
,
0010
0001
2002
0000
3003
0000
0220
0000
,
0330
0000
0001
0010
1000
0010
0001
0100
,
0001
0001
1000
0010
0001
0010
1000
0100
,
1000
1000
0001
0100
1000
0001
0010
1000
,
0100
0000
0100
0000
0010
0001
0000
0010
0001
0000
1000
0010
0000
1000
0010
0000
,
0100
0100
0001
0010
0100
0001
0100
1000
,
0010
0010
1000
0010
0100
1000
0100
0001
,
0010
0010
0100
0001
0100
1000
0010
0001
,
0010
0000
0010
0000
0100
0001
0000
0100
0001
0000
1000
0100
0000
1000
0100
0000
,
0010
0010
0001
1000
0020
0230
0000
0302
,
0013
0100
0010
0001
2000
3002
0000
0203
,
0310
0010
1000
0001
0020
0032
0000
0203
,
0310
0000
1000
0000
0001
0010
0000
0001
0010
0000
0100
1000
0000
0100
1000
0000
,
0010
0010
0100
0001
2000
3020
0000
0230
,
0301
1000
0100
0010
0002
2003
0000
3020
,
0130
0001
1000
1000
0100
0100
0010
0010
,
0001
0001
0101
0000
1100
0000
0110
0000
,
1001
0000
0000
0000
1010
0000
0000
0101
0000
0000
1010
0000
0001
0000
0000
0000
,
0000
0000
0000
0000
0011
0000
0000
1100
0000
0000
0011
0000
1000
0000
1000
0000
,
0001
0000
0000
0000
1001
0000
0000
0110
0000
0000
1001
0000
0100
0000
0010
0000
,
0100
0000
0000
0000
0101
0000
0000
1100
0000
0000
0001
0000
0010
0000
1000
0000
,
0010
0000
0001
0000
0101
0000
0000
1100
0000
0000
1001
0000
0010
0000
0010
0000
,
0000
0000
0000
0000
1010
0000
0000
0011
0000
0000
1001
0000
0100
0000
0001
0000
,
0000
0000
0000
0000
0110
0000
0000
1100
0000
0000
0101
0000
0010
0000
0100
0000
,
0010
0000
0000
0000
1100
0000
0000
0101
0000
0000
1000
0000
0100
0000
0001
0000
,
0100
0010
0001
0100
1000
0001
0010
0100
,
0001
0000
1000
0100
0001
1000
0010
0100
,
1000
0000
0001
0100
0010
0001
1000
0100
,
0010
1000
0001
0010
0100
0001
1000
0010
,
0100
1000
0001
0010
1000
0001
0100
1000
,
0010
0000
0000
0000
0200
0000
0000
1000
0000
0000
0010
0000
0000
0001
0000
0000
,
0310
0000
0100
0001
1000
0010
1000
0100
,
0010
0001
0100
0010
1000
0001
0010
0100
,
1000
0000
0001
0100
1000
0001
1000
0100
,
0001
1000
0001
0010
1000
0001
1000
0010
,
0001
1000
0010
0100
0001
0100
1000
0100
,
0001
1000
0001
0010
1000
0010
0001
0010
,
0200
0000
1300
1000
0100
0001
1000
0001
,
0100
1000
0001
0001
0100
1000
0001
1000
,
0100
0000
0001
0000
0010
0000
0000
0000
0001
0100
0001
0000
1000
0100
1000
0000
,
0001
0010
0001
0000
1000
0010
1000
0000
0001
0000
0100
0000
0020
0000
0000
0000
,
0000
0000
0000
0000
1030
0000
0000
1000
0100
0000
0010
0001
0010
0000
0000
0001
,
1000
0000
0010
0000
0100
0000
0001
0000
1000
0100
0000
0100
0010
0000
0000
0001
,
1000
0000
0010
0000
0100
0001
0100
0000
0010
1000
0010
0000
1000
0100
1000
0000
,
0001
0010
0001
0010
0000
0000
0000
0000
1100
0000
0000
1000
0002
0000
0203
0000
,
0000
0000
0320
0000
1030
0000
1000
0000
0001
0000
0000
0010
0200
0000
2300
0000
,
0000
0000
3002
0000
1003
0010
1000
0000
0001
0000
0000
0010
0200
0000
2300
0000
,
0000
0000
3002
0000
0103
0000
0100
0000
0010
1000
0000
0001
0100
0000
0001
0010
,
0000
0100
1000
0000
0001
1000
0001
0000
0100
0000
0001
0010
0002
0000
0203
0000
,
0000
0000
0320
0000
1030
0000
0001
0000
0100
0000
0010
1000
0020
0000
0230
0000
,
0000
0000
0302
0000
1003
0100
1000
0000
0010
0000
0100
0001
0200
0000
2300
0000
,
0000
0000
3200
0000
0301
0000
0010
0000
0100
1000
0000
0001
0100
0000
0010
1000
,
0000
0001
0010
0000
0001
1000
0001
0000
0100
0000
0001
0010
0001
0000
0101
0000
,
0000
0000
1100
0000
1000
0000
0001
0000
0010
0000
0001
0100
0001
0000
0011
0000
,
0000
0000
1010
0000
1000
0001
1000
0000
0100
0000
0010
0001
0010
0000
0110
0000
,
0000
0000
1001
0000
1000
0000
0010
0000
0100
0001
0100
0000
1000
0000
0100
0001
,
0100
0000
0010
0000
1000
0001
1000
0000
0100
0000
0010
0001
0010
0000
0100
0000
,
1000
0000
0001
0000
0100
0010
0100
0000
0001
0000
1000
0010
1000
0000
0001
0000
,
0010
0000
0100
0000
1000
0001
1000
0000
0001
0010
0001
0000
1000
0010
1000
0000
,
0001
0100
0001
0000
1000
0100
1000
0000
0001
0100
0000
0000
0100
0010
0000
0000
,
0010
1000
0000
0000
1000
0001
0000
0000
0010
0000
1000
0000
0001
0000
0100
0000
,
1000
0001
0100
1000
0100
0001
0010
0100
,
1000
0010
1000
0000
0001
0000
0000
0000
0010
0100
0010
0000
0100
0010
0100
0000
,
1000
0001
1000
0000
0001
1000
0001
0000
0010
0001
0010
0000
0100
1000
0100
0000
,
1000
0010
1000
0000
0001
0100
0001
0100
0000
0000
0000
0000
0000
0000
0000
0000
;

//--------------- dance-single - ----------------
#NOTEDATA:;
#STEPSTYPE:dance-single;
#DESCRIPTION:;
#DIFFICULTY:Hard;
#METER:16;
#RADARVALUES:0.849771,0.849255,0.204575,0.519305,0.908783,756,730,26,66,0,0,0,0,0,0.849771,0.849255,0.204575,0.519305,0.908783,756,730,26,66,0,0,0,0,0;
#DISPLAYBPM:160.000;
#CHARTNAME:;
#CHARTSTYLE:;
#CREDIT:forcednature;
#NOTES:
0000
0000
0000
0000
,
0000
0000
0000
0000
,
0000
0000
0000
0000
,
2002
3003
0000
0000
1001
0000
0000
0000
0001
0000
0100
0000
1000
0000
0100
0000
,
0010
0000
1000
0000
0001
0000
0010
0000
0100
1000
0100
1000
0002
0000
0000
0000
,
0023
0000
0130
0000
1000
0001
0100
1000
,
0100
0000
0001
0000
1000
0010
1000
0010
0100
0000
0001
0000
1000
0000
1000
0100
,
0010
0010
1001
0000
1000
0010
0001
0010
,
0100
0000
0001
0000
1000
0000
0001
0010
0001
0000
1000
0010
2000
0000
0000
0000
,
3002
0000
0103
0100
0001
0001
1000
1000
,
0100
0100
0220
0000
0330
0000
2002
0000
,
3003
0000
0000
0000
1000
0100
1000
0000
0001
0000
1000
0010
1000
0000
0001
0000
,
1000
0100
1000
0000
0001
0100
0001
0000
1000
0000
0001
0010
0001
0000
1000
0000
,
0001
0100
0001
0000
0010
0100
0010
0000
1000
0000
0010
0100
0010
0000
0001
0000
,
0010
0100
0010
0000
0001
0100
0000
0001
0010
0000
0100
1000
0000
0010
1000
0000
,
0001
1000
0001
1000
0001
0100
0010
0000
1000
0000
0001
0010
0100
0000
1000
0000
,
0001
0100
0010
0000
1000
0100
0010
0000
0001
0000
1000
0010
0100
0000
0001
0000
,
1000
0100
0010
0000
0001
1000
0010
0000
0100
0000
0010
1000
0001
0000
0100
0000
,
0001
1000
0100
0000
0010
0001
0000
1000
0010
0000
0100
0001
0000
1000
0100
0000
,
0010
0001
0010
0001
0100
0000
0010
1000
0002
0000
0203
0000
0000
0000
0320
0000
,
1030
0001
1000
0000
0100
0000
0010
0001
2000
0000
3002
0000
0000
0000
0203
0000
,
0301
0010
0001
0010
0100
0000
1000
0100
0020
0000
0032
0000
0000
0000
2003
0000
,
3010
0100
0010
0000
1000
0100
0000
1000
0010
0000
0100
0001
0000
0010
0001
0000
,
1000
0001
1000
0001
0010
0000
0100
1000
0002
0000
0203
0000
0000
0000
0320
0000
,
1030
0100
1000
0000
0001
0000
0010
0100
2000
0000
3002
0000
0000
0000
0203
0000
,
0301
0010
0001
0010
0100
0000
0100
1000
0001
0000
0001
1000
0010
0000
0010
0100
,
0001
0000
0001
1000
0200
0000
0300
0000
0220
0000
0330
0000
2002
0000
3003
0000
,
1000
0100
0010
0001
0100
0000
0000
0101
0000
0000
1010
0000
0001
1000
0001
0000
,
0000
0000
0000
0000
1100
0000
0000
0011
0000
0000
1001
0000
0100
0000
0110
0000
,
0000
0000
0000
0000
0101
0000
0000
0011
0000
0000
1010
0000
1000
0100
0000
0000
,
0010
0000
0000
0000
0001
0100
0001
0100
0010
1000
0010
0000
1000
0100
1000
0100
,
0010
0001
0010
0000
0100
0000
0000
0110
0000
0000
1001
0000
0001
0000
0100
0000
,
0010
0000
0010
0000
1010
0000
0000
1100
0000
0000
0101
0000
0001
0000
0010
0000
,
0100
1000
0100
1000
0010
0000
0000
0101
0000
0000
1100
0000
0001
1000
0000
0000
,
0010
1000
0010
1000
0001
0010
0001
0010
0100
1000
0100
0000
1000
0010
1000
0010
,
0100
0001
0100
0000
0010
0000
0100
0000
1000
0000
0001
0000
0010
0000
0100
0000
,
0001
1000
0100
0010
1000
0001
0100
0010
,
0001
0000
1000
0000
0010
0000
0100
0000
0001
0010
0001
0010
0100
1000
0100
0010
,
0001
0010
0001
0000
1000
0000
0001
0000
1000
0010
1000
0010
0100
0001
0100
0010
,
1000
0010
1000
0000
0001
0000
0100
0000
1000
0000
0001
0000
0010
0000
1000
0000
,
0001
0000
0010
0000
0100
0000
1000
0010
0000
1000
0100
0000
1000
0010
0000
1000
,
0100
0000
0010
0000
0001
0100
0001
0100
0010
0000
1000
0000
0100
0010
0001
0000
,
0010
0100
1000
0000
0001
0100
0001
0100
0010
0000
1000
0000
0001
0010
0100
1000
,
0002
0000
0013
1000
0001
0100
1000
0001
,
0010
1000
0001
1000
0010
0001
1000
0010
,
0001
0000
1000
0000
0100
0000
0001
0000
1000
0010
0100
0001
1000
0010
0100
0001
,
1000
0010
0100
0000
0001
0000
1000
0000
0001
0010
0100
1000
0001
0010
0100
1000
,
0001
0010
0100
0000
1000
0000
0010
0000
0001
0010
1000
0000
0010
0000
0001
0010
,
1000
0000
0010
0000
1000
0100
0010
0001
1000
0000
0001
0100
0010
1000
0001
0000
,
0100
0001
0010
0000
0100
1000
0100
1000
0001
0100
0001
0100
0010
1000
0010
1000
,
0001
0000
0001
0000
1000
0010
0100
0001
1000
0100
0010
0001
0200
0000
0000
0000
,
0000
0000
0000
0000
0310
0000
1000
0000
0100
0010
0001
0010
0100
0000
1000
0001
,
0000
0100
0001
0000
1000
0001
0010
0001
1000
0001
0010
0001
0100
0000
0010
1000
,
0000
0001
1000
0000
0001
0010
0001
0010
0100
1000
0100
1000
0001
0100
0010
1000
,
0010
0100
0001
1000
0000
0000
0000
0000
1001
0000
1000
0100
0020
0000
0032
0000
,
1000
0000
0203
0000
0310
1000
0010
0000
0100
0000
0001
1000
0200
0000
2300
0000
,
0001
0000
3020
0000
0130
0001
0100
0001
1000
0000
0100
0010
0002
0000
2003
0000
,
0100
0000
3020
0000
0130
0001
0100
0000
0010
1000
0001
1000
0100
0000
0010
0001
,
1000
0001
0100
0000
0001
0010
0100
1000
0001
0000
0100
0010
2000
0000
3002
0000
,
0100
0000
0023
0000
0130
1000
0001
0000
0010
0000
0100
1000
0020
0000
0230
0000
,
1000
0000
0302
0000
1003
0100
0010
0001
0100
0000
0001
1000
0200
0000
0320
0000
,
1000
0000
0032
0000
1003
0001
0100
0000
0010
1000
0100
1000
0001
0000
0010
0001
,
0100
0001
1000
0000
0010
0100
0001
1000
0100
0000
0010
0001
2000
0000
0100
0000
,
0001
0000
0010
0000
3001
1000
0001
0100
0010
0000
1000
0100
0020
0000
1000
0000
,
0100
0000
0001
0000
0130
0010
0001
1000
0001
0000
1000
0010
0200
0000
0001
0000
,
1000
0000
0001
0000
0310
0100
0001
1000
0001
0010
0100
1000
0010
0000
1000
0010
,
0100
0001
0010
0000
0001
1000
0010
0100
0001
0000
1000
0100
0020
0000
0031
2000
,
0000
3010
0200
0000
0301
1000
0100
0010
0001
0000
0100
0010
2000
0000
3001
0020
,
0000
0130
2000
0000
3001
0100
0010
1000
0100
0010
0001
1000
0001
0100
0010
1000
,
0001
1000
0100
0010
0001
1000
0001
0100
0020
0000
0030
0000
0220
0000
0330
0000
,
2002
0000
3003
0000
0001
0010
0100
1000
0010
0000
0100
0001
0100
1000
0100
0010
,
1000
0000
0001
0010
0100
0000
1000
0000
0001
0100
0010
0001
0010
0100
0001
0000
,
1000
0100
0010
0001
0200
0000
0300
0000
0010
1000
0010
1000
0001
0010
0001
0010
,
0100
0001
0100
1000
0020
0000
0130
0001
1000
0100
0010
0001
0100
0010
1000
0100
,
0010
0001
0100
0010
1000
0100
0001
0100
0000
0000
0000
0000
0000
0000
0000
0000
;

//--------------- dance-double - ----------------
#NOTEDATA:;
#STEPSTYPE:dance-double;
#DESCRIPTION:;
#DIFFICULTY:Easy;
#METER:9;
#RADARVALUES:0,0,0,0,0;
#CREDIT:forcednature;
#NOTES:
00000000
00000000
00000000
00000000
,
00000000
00000000
00000000
00000000
,
00000000
00000000
00000000
00000000
,
00022000
00033000
00000000
00000000
00010100
00000000
00000000
00000000
00000100
00000000
00001000
00000000
00000100
00000000
00000000
00000000
,
00000010
00000000
00000001
00000100
00000001
00000000
00000010
00000000
,
00000010
00000000
00000100
00000000
00010000
00001000
00010000
00000000
,
00100000
00000000
01000000
00010000
01000000
00000000
00100000
00100000
,
00100000
00000000
01100000
00000000
01000000
00000000
00010000
10000000
,
00010000
00100000
00001000
00010000
,
00010000
00000000
00000100
00001000
00000100
00000000
00000010
00000001
,
00000010
00020200
00030300
02002000
,
03003000
00000000
00011000
00000000
00001000
00000000
01000000
00010000
,
01000000
00000000
00100000
00000000
10000000
00000000
00010000
00100000
,
00010000
00000000
01000000
00000000
00001000
00000000
00010000
00000100
,
00010000
00000000
00000000
00000000
00001000
00000000
00000000
00001000
00000000
00000000
00000100
00000000
00000000
00000100
00000000
00000000
,
00000001
00000000
00000110
00000000
00001000
00000000
00000100
00010000
,
00000100
00000000
00001000
00000000
00000010
00000000
00010000
00001000
,
00010000
00000000
00100000
00000000
01000000
00000000
00010000
10000000
,
00010000
00000000
00000000
00000000
00100000
00000000
00000000
00100000
00000000
00000000
01000000
00000000
00000000
01000000
00000000
00000000
,
10000000
00000000
10010000
00000000
10000000
02000000
00000000
03010000
,
00001000
00000000
00100000
00000000
00001000
00020000
00000000
00030010
,
00001000
00000000
00000100
00000000
00000010
00000002
00000000
00000103
,
00000010
00000000
00000000
00000000
00001000
00000000
00000000
00001000
00000000
00000000
00000100
00000000
00000000
00000100
00000000
00000000
,
00010000
00000000
00011000
00000000
00001000
02000000
00000000
03010000
,
00100000
00000000
01000000
00000000
00010000
00002000
00000000
00103000
,
00010000
00000000
01000000
00001000
01000000
00001000
00010000
00000100
,
00010000
00000100
00001000
00000000
00000010
00000000
00000110
00000000
,
00001001
00000000
00000000
00000000
00000001
00000000
00000000
00000100
00000000
00000000
00000100
00000000
00002000
00000000
00000000
00000000
,
00003000
00000000
00000000
00000000
00010000
00000000
00000000
01000000
00000000
00000000
01000000
00000000
10000000
00000000
20000000
00000000
,
00000000
00000000
30000000
00000000
10000000
00000000
00000000
00100000
00000000
00000000
00100000
00000000
00020000
00000000
00000000
00000000
,
00030000
00000000
00010000
00001000
00010000
00000000
00000100
00001000
,
00000100
00000000
00000000
00000000
00000110
00000000
00000000
00000110
00000000
00000000
00000220
00000000
00000000
00000000
00000000
00000000
,
00000330
00000000
00000000
00000000
00001001
00000000
00000000
00001001
00000000
00000000
00002002
00000000
00000000
00000000
00000000
00000000
,
00003003
00000000
00000000
00000000
00010100
00000000
00000000
00010100
00000000
00000000
00020200
00000000
00000000
00000000
00000000
00000000
,
00030300
00000000
00001000
00010000
00001000
00000000
00010000
00001000
,
00010000
00000000
01001000
00000000
01000000
00000000
00010000
00100000
,
00010000
00000000
01000000
00000000
00001000
00000000
00010000
00000100
,
00010000
00000000
00000010
00001000
00000100
00000000
00000010
00000000
,
00000001
00000000
00000100
00000010
00001000
00000000
00000100
00000000
,
00010000
00000000
00011000
00000000
00001000
00000000
01000000
00010000
,
01000000
00000000
00100000
10000000
01000000
00000000
00010000
00000000
,
00001000
00000000
00100000
00010000
01000000
00000000
00001000
00000000
,
00010000
00000000
00000010
00001000
00000100
00000000
00000010
00000001
,
00000010
00000000
00000110
00000000
00000100
00010000
00001000
00000000
,
01000000
00000000
00010000
00000000
00100000
01000000
10000000
00000000
,
00100000
00000000
01000000
00001000
00010000
00000000
00000100
00010000
,
00001000
00000000
00100000
00001000
00010000
00000000
00000010
00010000
,
00001000
00000000
00000010
00000000
00000100
00000000
00001000
00000001
,
00000100
00000000
00001000
00000000
00010000
00000000
00100000
01000000
,
00010000
00000000
10000000
01000000
10000000
01000000
00100000
00010000
,
00100000
00010000
01000000
00001000
00010000
00000010
00020000
00000000
,
00000000
00031000
00000010
00000110
,
00000100
00001000
00000001
00000000
00000100
00000000
00000110
00000000
,
00000010
00010000
00001000
00100000
00010000
00100000
01000000
10000000
,
00010000
10000000
00000000
00000000
10010000
00000000
10000000
01000000
,
00000000
00100000
00010000
00100000
00001000
00000000
00010000
00000010
,
00000000
00001000
00000010
00000100
00000001
00000000
00000010
00000100
,
00000000
00000000
00001000
00000000
00000100
00000000
00010000
00000000
00001000
00000000
00000000
01000000
00000000
00000000
00010000
00000000
,
00000000
01000000
00000000
00000000
00100000
00000000
00000000
00000000
10100000
00000000
00000000
00000000
10000000
00000000
01000000
00000000
,
00000000
00100000
00001000
00010000
00001000
00000000
01000000
00010000
,
00000000
01000000
00001000
00010000
00000100
00000000
00001000
00000001
,
00000000
00000000
00000100
00000000
00001000
00000000
00010000
00000000
00001000
00000000
00000000
00001000
00000000
00000000
00001000
00000000
,
01000000
00010000
10000000
00000000
10010000
00000000
10000000
01000000
,
00000000
00100000
00010000
00100000
00001000
00000000
00010000
00000010
,
00000000
00001000
00000100
00000010
00000001
00000000
00000100
00000001
,
00000000
00000000
00001000
00000000
00000010
00000000
00010000
00000000
00001000
00000000
00000000
00001000
00000000
00000000
00010000
00000000
,
00000000
00010000
00000000
00000000
00100000
00000000
00000000
00000000
01100000
00000000
00000000
00000000
01000000
00000000
00010000
00000000
,
00000000
10000000
01000000
00100000
00010000
00000000
01000000
00001000
,
00000000
00010000
00000100
00001000
00000010
00000100
00000010
00000100
,
00000000
00000001
00001000
00000001
00000010
00000000
00000110
00000000
,
00001100
00000000
00010100
00000000
00010000
00001000
00100000
00000000
,
00001000
00010000
00100000
00000000
01000000
00010000
01000000
00010000
,
10000000
10000000
01000000
00000000
00100000
00010000
00100000
00010000
,
01000000
00001000
00010000
00000000
00000010
00001000
00000010
00001000
,
00000100
00000010
00000001
00001000
00000000
00000000
00000000
00000000
;

//--------------- dance-double - ----------------
#NOTEDATA:;
#STEPSTYPE:dance-double;
#DESCRIPTION:;
#DIFFICULTY:Medium;
#METER:14;
#RADARVALUES:0,0,0,0,0;
#CREDIT:forcednature;
#NOTES:
00000000
00000000
00000000
00000000
,
00000000
00000000
00000000
00000000
,
00000000
00000000
00000000
00000000
,
00022000
00033000
00000000
00000000
00101000
00000000
00000000
00000000
01001000
00000000
00000000
00000000
00001000
00000000
00010000
00000000
,
00000100
00001000
00000010
00010000
00001000
00000010
00000002
00000003
,
00000002
00000003
00001100
00000000
00001010
00000000
00000010
00000100
,
00001000
00010000
00001000
00100000
01000000
00100000
00010000
00010000
,
10000000
00000000
01100000
00000000
10010000
00000000
10000000
01000000
,
00010000
00001000
01000000
00010000
00100000
00001000
00020000
00030000
,
00020000
00030000
00000010
00001000
00000100
00010000
00001000
01000000
,
00010000
00100000
02200000
00000000
03300000
00000000
00022000
00000000
,
00033000
00000000
00000100
00001000
00000010
00010000
00001000
00100000
,
00010000
00010000
01000000
00010000
00100000
00001000
00010000
00000010
,
00001000
00001000
00000010
00001000
00000100
00010000
00001000
00100000
,
00010000
00000000
00010000
00000000
01000000
00010000
00000000
01000000
00010000
00000000
10000000
01000000
00000000
10000000
01000000
00000000
,
00100000
00100000
01000000
00010000
00001000
00000010
00001000
00010000
,
00001000
00001000
00000100
00001000
00010000
00100000
00010000
00001000
,
00010000
00010000
01000000
00010000
00001000
00000100
00001000
00010000
,
00000100
00000000
00000100
00000000
00001000
00000010
00000000
00001000
00000010
00000000
00000100
00000001
00000000
00000100
00000001
00000000
,
00000010
00000010
00000100
00010000
00002000
00203000
00000000
02300000
,
13000000
00010000
01000000
00001000
00020000
00030020
00000000
00000230
,
00000301
00001000
00000001
00000000
00000100
00000000
00001000
00000000
00020000
00000000
02030000
00000000
00000000
00000000
03200000
00000000
,
00310000
00000000
10000000
00000000
00010000
01000000
00000000
00010000
01000000
00000000
00001000
00010000
00000000
00001000
00010000
00000000
,
00000100
00000100
00001000
00000010
00020000
00032000
00000000
00203000
,
00310000
01000000
00001000
00010000
00000200
00002300
00000000
00003020
,
00010030
00001000
00000010
00000010
00000100
00000100
00001000
00001000
,
00000001
00000001
00000101
00000000
00010010
00000000
00101000
00000000
,
11000000
00000000
00000000
00000000
10000000
00000000
00000000
01000000
00000000
00000000
00010000
00000000
00011000
00000000
00000000
00000000
,
00000000
00000000
00000000
00000000
00000001
00000000
00000000
00000100
00000000
00000000
00001000
00000000
00011000
00000000
00000000
00000000
,
00100000
00000000
00100000
00000000
01000000
00000000
00000000
10000000
00000000
00000000
00100000
00000000
00010000
00000000
00001000
00000000
,
00010000
00000000
00000000
00000000
00000100
00001000
00000100
00000000
00000010
00000000
00000001
00000000
00001000
00000010
00001000
00000000
,
00010000
00000000
01000000
00000000
00100000
00000000
00000000
00010000
00000000
00000000
00000010
00000000
00001000
00000000
00001000
00000000
,
00000000
00000000
00000000
00000000
00000100
00000000
00000000
00001000
00000000
00000000
01000000
00000000
00010000
00000000
00010000
00000000
,
00000000
00000000
00000000
00000000
00001000
00000000
00000000
00000100
00000000
00000000
00010000
00000000
01000000
00000000
00100000
00000000
,
01000000
00000000
00000000
00000000
00100000
10000000
00100000
00000000
01000000
00000000
00010000
00000000
00100000
00000000
01000000
00000000
,
00010000
00001000
00000010
00000100
00001000
00000010
00000100
00001000
,
00010000
00000000
00100000
01000000
00010000
00100000
01000000
00010000
,
00001000
00000000
00000000
00000000
00000100
00000000
00001000
00000000
00010000
00000000
00001000
00000000
00100000
00010000
00100000
00000000
,
00001000
00000000
00010000
00000000
01000000
00000000
00010000
00000000
00001000
00000000
00010000
00000000
00000010
00001000
00000010
00000000
,
00000200
00000000
00001300
00000100
00000001
00001000
00000100
00000001
,
00000100
00000000
00001000
00000000
00000010
00000000
00000010
00010000
00000000
00010000
00001000
00000000
00001000
00100000
00000000
00100000
,
00010000
00000000
01000000
00000000
00100000
10000000
00100000
00000000
01000000
00000000
00010000
00000000
10000000
00000000
01000000
00000000
,
00010000
00000000
00001000
00000000
01000000
00010000
01000000
00000000
00100000
00000000
00010000
00000000
00001000
00010000
00001000
00000000
,
00000020
00000000
00000031
00000100
00001000
00010000
00001000
00000010
,
00000100
00010000
00001000
00100000
01000000
00010000
00001000
00100000
,
00010000
00000000
01000000
00000000
10000000
00000000
01000000
00000000
00100000
10000000
00100000
00000000
01000000
00010000
01000000
00000000
,
00001000
00010000
00001000
00000000
00010000
00000000
00000100
00000000
00001000
00000100
00001000
00000000
00000001
00000010
00000001
00000000
,
00000200
00000000
00000310
00001000
00010000
01000000
00010000
00100000
,
01000000
00010000
00001000
00000100
00001000
00010000
01000000
00010000
,
00001000
00000000
00010000
00000000
00100000
01000000
00100000
00000000
10000000
00000000
00010000
00000000
00100000
01000000
00100000
00000000
,
00001000
00000000
00010000
00000000
00000010
00001000
00000010
00000000
00000100
00000001
00000100
00000000
00000020
00000000
00000000
00000000
,
00000000
00000000
00000000
00000000
00000130
00000000
00001000
00000000
00010000
00001000
00010000
00001000
00010000
00000000
00000000
00010000
,
00100000
00000000
01000000
00000000
00100000
00000000
10000000
00000000
00010000
00100000
00010000
00100000
00010000
00000000
00000000
00010000
,
01000000
00000000
00001000
00000000
00010000
00000100
00010000
00000000
00000100
00001000
00000100
00000000
00000010
00000001
00000010
00000000
,
00000001
00001000
00000001
00001000
00000000
00000000
00000000
00000000
00000110
00000000
00000000
00000001
00001000
00000000
00000010
00000000
,
00000100
00000000
00001000
00000000
00010000
00001000
00010000
00000000
00100000
00000000
00000000
00100000
01000000
00000000
00010000
00000000
,
10000000
00000000
01000000
00000000
00100000
00010000
00100000
00000000
00001000
00000000
00000000
00001000
00010000
00000000
00000010
00000000
,
00001000
00000000
00000001
00000000
00000010
00000100
00000010
00000000
00000001
00000100
00000000
00000100
00001000
00000000
00001000
00010000
,
00000000
00010000
00100000
00000000
01000000
00100000
01000000
00000000
00010000
00000000
10000000
01000000
10000000
00000000
00100000
00000000
,
00010000
00000000
00100000
00000000
01000000
00010000
01000000
00000000
00001000
00000000
00010000
00000100
00010000
00000000
00001000
00000000
,
00000100
00000000
00001000
00000000
00010000
00000010
00010000
00000000
00001000
00000000
00000010
00000100
00000010
00000000
00000001
00000000
,
00001000
00000000
00000001
00000000
00000100
00000010
00000100
00000000
00001000
00010000
00000000
00010000
01000000
00000000
01000000
00100000
,
00000000
00100000
00010000
00000000
10000000
00100000
10000000
00000000
01000000
00000000
00010000
00001000
00010000
00000000
00000100
00001000
,
00000000
00000100
00000010
00000000
00000001
00001000
00000001
00000000
00000100
00000000
00001000
00010000
00001000
00000000
01000000
00010000
,
00000000
01000000
00100000
00000000
10000000
00010000
10000000
00000000
01000000
00000000
00010000
00001000
00010000
00000000
00000100
00001000
,
00000000
00000100
00000010
00000000
00000001
00001000
00000001
00000000
00000100
00000010
00000000
00000010
00001000
00000000
00001000
00010000
,
00000000
00010000
01000000
00000000
00100000
10000000
00100000
00000000
01000000
00000000
00001000
00010000
00001000
00000000
00100000
00010000
,
00000000
01000000
00001000
00000000
00010000
00000100
00010000
00000000
00001000
00000000
00000100
00000001
00000100
00000000
00000010
00001000
,
00000000
00000100
00010000
00000000
00001000
01000000
00001000
00000000
00100000
00010000
00100000
00010000
00100000
00000000
01000000
10000000
,
01000000
10000000
01000000
00000000
00010000
00001000
00010000
00001000
00010000
00000100
00000000
00000000
00100000
00001000
00000000
00000000
,
00000010
00010000
00000000
00000000
00001000
01000000
00000000
00000000
00011000
00000000
00000000
00010000
00001000
00010000
00001000
00000000
,
00000010
00000000
00000100
00001000
00000100
00000000
00000010
00000000
00000001
00000000
00000100
00000000
00001000
00000000
00010000
00000000
,
00100000
01000000
00100000
00000000
20000000
00000000
00000000
00000000
31000000
10000000
01000000
10000000
01000000
00000000
00010000
00000000
,
00001000
00010000
00001000
00000000
00000020
00000000
00000000
00000000
00000130
00001000
00000100
00001000
00000100
00000000
00000010
00000001
,
00000010
00000001
00000010
00000000
00001000
00010000
00001000
00010000
00000000
00000000
00000000
00000000
00000000
00000000
00000000
00000000
;

//--------------- dance-double - ----------------
#NOTEDATA:;
#STEPSTYPE:dance-double;
#DESCRIPTION:;
#DIFFICULTY:Hard;
#METER:17;
#RADARVALUES:0,0,0,0,0;
#CREDIT:forcednature;
#NOTES:
00000000
00000000
00000000
00000000
,
00000000
00000000
00000000
00000000
,
00000000
00000000
00000000
00000000
,
00022000
00033000
00000000
00000000
01001000
00000000
00000000
00000000
01000000
00000000
00010000
00000000
00100000
00000000
00010000
00000000
,
00001000
00000000
00000100
00000000
00010000
00000000
00001000
00000000
00000010
00000001
00000010
00000001
00000200
00000000
00000000
00000000
,
00002300
00000000
00013000
00000000
00100000
01000000
00100000
10000000
,
01000000
00000000
00010000
00000000
00001000
00100000
00001000
00100000
00010000
00000000
01000000
00000000
00001000
00000000
00001000
00010000
,
00000100
00000100
00000110
00000000
00000010
00001000
00000010
00000001
,
00000100
00000000
00001000
00000000
00010000
00000000
00100000
01000000
00100000
00000000
10000000
00010000
20000000
00000000
00000000
00000000
,
32000000
00000000
03010000
00010000
00001000
00001000
00000100
00000100
,
00000001
00000001
00000022
00000000
00000033
00000000
00002200
00000000
,
00003300
00000000
00000000
00000000
00010000
00001000
00010000
00000000
00100000
00000000
01000000
00010000
01000000
00000000
00100000
00000000
,
10000000
00010000
10000000
00000000
01000000
00100000
01000000
00000000
00010000
00000000
00001000
00010000
00001000
00000000
00000100
00000000
,
00000010
00001000
00000010
00000000
00010000
00001000
00010000
00000000
00000100
00000000
00001000
00000010
00001000
00000000
00000100
00000000
,
00000010
00000001
00000010
00000000
00000100
00010000
00000000
00010000
00001000
00000000
00001000
01000000
00000000
01000000
00010000
00000000
,
10000000
00100000
10000000
00100000
01000000
00001000
00010000
00000000
00000100
00000000
00010000
00001000
00100000
00000000
00010000
00000000
,
01000000
00001000
00010000
00000000
00000100
00001000
00000010
00000000
00000100
00000000
00000010
00001000
00000100
00000000
00000010
00000000
,
00000001
00001000
00000010
00000000
00010000
00001000
00100000
00000000
01000000
00000000
00100000
00001000
00010000
00000000
00100000
00000000
,
10000000
00010000
00100000
00000000
01000000
10000000
00000000
10000000
00100000
00000000
00100000
00010000
00000000
00010000
00001000
00000000
,
01000000
00010000
01000000
00010000
00100000
00000000
00001000
00010000
00000020
00000000
00001000
00000000
00000100
00000000
00000031
00000000
,
00000010
00000000
00001000
00000000
00010000
00000000
00100000
00010000
02000000
00000000
10000000
00000000
00100000
00000000
03010000
00000000
,
01000000
00001000
01000000
00001000
00010000
00000000
00000100
00001000
00000200
00000000
00000001
00000000
00000010
00000000
00001300
00000000
,
00000100
00010000
00000100
00000000
00001000
00000010
00000000
00000010
00000100
00000000
00000100
00001000
00000000
00001000
00010000
00000000
,
00100000
01000000
00100000
01000000
00010000
00000000
10000000
01000000
00020000
00000000
00000100
00000000
00001000
00000000
00030010
00000000
,
00010000
00000000
00001000
00000000
01000000
00000000
00010000
00100000
02000000
00000000
00010000
00000000
10000000
00000000
03010000
00000000
,
01000000
10000000
01000000
10000000
00100000
00000000
00010000
00000000
00000100
00001000
00000100
00000000
00010000
00000000
00000010
00000000
,
00000100
00001000
00000100
00000000
00000202
00000000
00000303
00000000
00020020
00000000
00030030
00000000
02002000
00000000
03003000
00000000
,
01000000
00010000
10000000
00010000
00100000
00000000
00000000
01100000
00000000
00000000
10010000
00000000
00001000
00010000
00001000
00000000
,
00000000
00000000
00000000
00000000
00000010
00000000
00000000
00000110
00000000
00000000
00001001
00000000
00010000
00000000
00011000
00000000
,
00000000
00000000
00000000
00000000
01000000
00000000
00000000
01100000
00000000
00000000
10010000
00000000
00002000
00100000
00000000
00000000
,
01003000
00000000
00000000
00000000
00001000
00010000
00000100
00001000
00000100
00010000
00001000
00000000
00000100
00000001
00001000
00000010
,
00010000
00001000
00010000
00000000
00100000
00000000
00000000
01100000
00000000
00000000
10010000
00000000
00001000
00000000
00010000
00000000
,
00000100
00001000
00000100
00001000
00000010
00000000
00000000
00000110
00000000
00000000
00001001
00000000
00010000
00000000
00001000
00000000
,
00100000
00010000
01000000
00010000
00100000
00000000
00000000
01100000
00000000
00000000
10010000
00000000
00002000
01000000
00000000
00000000
,
00103000
00001000
00100000
00001000
00010000
00000010
00001000
00000010
00000100
00000001
00001000
00000000
00000100
00001000
00000100
00010000
,
00001000
00100000
00010000
00100000
01000000
00000000
00010000
00000000
00000010
00000000
00010000
00000000
00001000
00000000
00100000
00000000
,
01000000
00010000
00001000
00000000
00000100
00000000
00001000
00000000
00100000
00000000
00001000
00000000
00010000
00000000
00000010
00000000
,
00000100
00001000
00010000
00000000
00100000
00000000
00100000
00000000
10000000
01000000
00100000
00010000
00100000
00001000
00010000
00000100
,
00001000
00000100
00000010
00000001
00001000
00000000
00001000
00000000
00000001
00000100
00000010
00001000
00000010
00010000
00001000
00010000
,
02000000
00000000
03100000
00001000
00000010
00000100
00001000
01000000
,
00100000
00000000
00001000
00000000
00010000
00000000
00100000
10000000
00000000
00100000
00010000
00000000
00100000
10000000
00000000
00100000
,
00010000
00000000
00001000
00000000
00100000
00010000
01000000
00001000
00010000
00000000
00000100
00000000
00001000
00000001
00000010
00000000
,
00000100
00000010
00000001
00000000
00001000
00000010
00001000
00000100
00010000
00000000
00001000
00000000
00100000
00001000
00010000
00001000
,
02000000
00000000
03100000
00010000
00000100
00010000
00001000
01000000
,
00100000
00010000
00001000
00000000
00000010
00000000
00001000
00000000
01000000
00000000
00001000
00000000
00010000
00000000
00000100
00000000
,
00000010
00001000
00010000
00000000
00100000
00000000
00100000
00000000
10000000
01000000
00100000
00010000
00100000
00010000
00001000
00000100
,
00001000
00000100
00000010
00000001
00001000
00000000
00001000
00000000
00000001
00000100
00000010
00001000
00010000
01000000
00010000
00100000
,
00020000
00000000
00000000
00000000
01030000
00000000
00001000
00000000
00000100
00001000
00010000
00000000
00001000
00000000
00000100
00001000
,
00010000
00000000
00001000
00000000
00100000
00010000
01000000
00001000
00010000
00000000
00000010
00001000
00000100
00010000
00001000
00000000
,
00100000
00010000
01000000
00000000
00100000
10000000
01000000
00100000
00010000
01000000
00001000
00010000
00000100
00001000
00000010
00000100
,
00000001
00001000
00000001
00000010
00000100
00010000
00001000
00100000
01000000
00100000
00010000
10000000
00200000
00000000
00000000
00000000
,
00000000
00000000
00000000
00000000
10300000
00000000
01000000
00000000
00010000
00001000
00010000
00001000
00000010
00000000
00000010
00000100
,
00000000
00000100
00001000
00000000
00000001
00000100
00000010
00000100
00001000
00000100
00000010
00000100
00000001
00000000
00000001
00000010
,
00000000
00000010
00001000
00000000
00010000
00100000
00010000
00100000
00010000
00001000
00010000
00001000
01000000
00010000
00100000
00010000
,
10000000
01000000
00010000
00001000
00000000
00000000
00000000
00000000
00011000
00000000
00001000
00000010
00000200
00000000
00002300
00000000
,
00000001
00000000
00000010
00000000
00013000
01000000
00010000
00000000
00100000
00000000
00001000
00010000
00100000
00000000
20000000
00000000
,
01000000
00000000
00010000
00000000
30100000
00010000
00001000
00010000
00000100
00000000
00000010
00001000
00020000
00000000
00030200
00000000
,
00000010
00000000
00001000
00000000
00010300
00000010
00001000
00000000
00010000
01000000
00001000
00100000
00010000
00000000
00001000
00000100
,
00010000
00000010
00001000
00000000
00010000
00100000
01000000
00100000
10000000
00000000
00010000
01000000
20000000
00000000
30200000
00000000
,
10000000
00000000
01000000
00000000
00310000
00001000
00100000
00000000
01000000
00000000
00010000
00001000
00000020
00000000
00000230
00000000
,
00000001
00000000
00000010
00000000
00010300
00001000
00100000
00010000
01000000
00000000
00010000
00100000
00002000
00000000
00023000
00000000
,
00000010
00000000
00001000
00000000
01030000
00100000
00010000
00000000
01000000
00001000
00010000
00001000
00000010
00000000
00000100
00010000
,
00001000
00010000
00100000
00000000
00010000
00001000
00100000
00001000
01000000
00000000
00100000
00010000
00002000
00000000
00000100
00000000
,
00010000
00000000
01000000
00000000
00103000
01000000
00100000
00001000
00010000
00000000
00000010
00010000
00002000
00000000
01000000
00000000
,
00010000
00000000
00100000
00000000
00003100
00000010
00001000
00000001
00000010
00000000
00000100
00010000
00002000
00000000
00000010
00000000
,
00010000
00000000
01000000
00000000
00103000
01000000
10000000
00010000
10000000
00100000
01000000
00100000
00010000
00000000
00001000
00000010
,
00000100
00000010
00000001
00000000
00000100
00001000
00010000
00001000
00100000
00000000
01000000
10000000
00200000
00000000
00320000
00000000
,
00000100
00000000
00001000
00000000
00130000
01000000
00100000
10000000
00010000
00000000
00100000
00001000
00020000
00000000
00030020
00000000
,
00001000
00000000
00000100
00000000
00000031
00001000
00000100
00000001
00000010
00000100
00000010
00001000
00010000
00001000
01000000
00010000
,
01000000
00100000
10000000
00100000
00010000
00001000
00010000
00000100
00002000
00000000
00003000
00000000
00000220
00000000
00000330
00000000
,
00002002
00000000
00003003
00000000
00000001
00000100
00001000
00010000
00001000
00000000
01000000
00010000
01000000
10000000
01000000
00100000
,
10000000
00000000
01000000
00010000
00001000
00000000
00100000
00000000
00001000
00010000
00000010
00000100
00000010
00010000
00001000
00000000
,
00000010
00000100
00000010
00000001
00000200
00000000
00000300
00000000
00001000
00010000
00100000
00010000
00001000
00100000
00010000
00100000
,
01000000
10000000
01000000
00010000
00002000
00000000
00103000
00010000
01000000
00001000
00010000
00000100
00001000
00000010
00010000
00001000
,
00100000
00010000
01000000
00001000
00010000
00000100
00000010
00001000
00000000
00000000
00000000
00000000
00000000
00000000
00000000
00000000
;
