#TITLE:Nightmare before oversleep;
#SUBTITLE:;
#ARTIST:猫叉Master;
#TITLETRANSLIT:;
#SUBTITLETRANSLIT:;
#ARTISTTRANSLIT:Nekomata Master;
#GENRE:SORROW STEP;
#CREDIT:;
#MUSIC:Nightmare before oversleep.ogg;
#BANNER:Nightmare before oversleep.png;
#BACKGROUND:Nightmare before oversleep-bg.png;
#CDTITLE:;
#SAMPLESTART:76.836;
#SAMPLELENGTH:15.000;
#SELECTABLE:YES;
#OFFSET:1.776;
#BPMS:0.000=95.000
,42.000=190.000
,200.000=999.000
,206.000=950.000
,207.000=855.000
,208.000=760.000
,209.000=665.000
,210.000=570.000
,211.000=475.000
,212.000=380.000
,213.000=285.000
,214.000=190.000
,313.000=95.000
;
#STOPS:;
#DISPLAYBPM:95.000:190.000;
#BGCHANGES:2.500=Nightmare before oversleep.mp4=1.000=0=0=1,
333.000=Nightmare before oversleep-bg.png=1.000=0=0=1,
99999.000=-nosongbg-=1.000=0=0=0=StretchNoLoop====
;
#FGCHANGES:;

//--------------- dance-single - forcednature ----------------
#NOTES:
     dance-single:
     forcednature:
     Beginner:
     5:
     0,0,0,0,0:
0000
0000
0000
0000
,
0000
0000
0000
0000
,
0000
0000
0000
0000
,
1000
0000
0000
0000
,
0001
0000
0100
0000
,
0010
0000
1000
0000
,
0001
0000
0010
0000
,
0000
0000
0100
0000
,
1000
0000
0001
0000
,
0100
0000
0010
0000
,
0100
0000
1001
0000
,
0000
0000
1000
0000
,
1000
0000
1000
0000
,
0000
0000
0001
0000
,
0001
0000
0001
0000
,
0000
0000
0100
0000
,
0100
0000
0010
0000
,
0000
0010
0000
0000
,
0010
0000
1001
0000
,
0000
0000
0001
0000
,
0100
0000
0001
0000
,
0000
0000
1000
0000
,
0100
0000
1000
0000
,
0000
0000
0010
0000
,
0100
0000
0010
0000
,
0000
0010
0100
0000
,
0100
0000
1001
0000
,
0000
0000
1000
0000
,
0010
0000
1000
0000
,
0000
0000
0001
0000
,
0010
0000
0001
0000
,
0000
0000
0100
0000
,
0010
0000
0100
0000
,
0000
0100
0000
0000
,
0100
0000
1001
0000
,
0000
1000
0000
0000
,
0001
0000
0000
0100
,
0000
0000
0010
0000
,
0000
1000
0000
0000
,
0100
0000
0000
0110
,
0000
0000
0010
0000
,
0000
0001
0000
0000
,
1000
0000
0000
0010
,
0000
0000
0100
0000
,
0000
0001
0000
0000
,
1000
0000
0000
0100
,
0000
0000
0010
0000
,
0000
0000
0001
0000
0000
0001
0000
0000
,
1000
0000
0000
1000
0000
0000
0010
0000
,
0000
0010
0000
0000
0100
0000
0100
0000
,
0200
0000
0000
0000
,
0000
0000
0000
0000
,
0000
0000
0000
0000
,
0000
0000
0000
0000
,
0300
1001
0000
0000
,
0000
1000
0000
0100
,
0000
1000
0000
0000
,
0000
0001
0000
0100
,
0000
0001
0000
0000
,
0000
0010
0000
0000
,
0000
0100
0000
0100
,
0000
1001
0000
0000
,
0000
1000
0000
0010
,
0000
1000
0000
0000
,
0000
0001
0000
0010
,
0000
0001
0000
0000
,
0000
0100
0000
0000
,
0000
0010
0000
0010
,
0000
1000
0000
0001
,
0000
1000
0100
1000
,
0100
0010
0001
0010
,
0001
1000
0100
1000
,
0100
0010
0000
0010
,
0000
0001
0100
0001
,
0100
0010
1000
0010
,
1000
0001
0100
0001
,
0100
0010
0010
1000
,
1000
0000
0000
0000
,
0000
0220
0000
0000
,
0000
0000
0330
2002
,
0000
0000
0000
0000
,
0000
0000
0000
0000
,
0000
0000
0000
0000
,
0000
3003
0000
0000
;

//--------------- dance-single - forcednature ----------------
#NOTES:
     dance-single:
     forcednature:
     Easy:
     8:
     0,0,0,0,0:
0000
0000
0000
0000
,
0000
0000
0000
0000
,
0000
0000
0000
0000
0000
0000
0000
0001
,
1000
0100
1000
0010
,
0100
0000
0001
0000
0010
0000
0100
1000
,
0100
0000
0010
0001
1000
0001
0100
0001
,
1000
0010
0200
0302
,
2003
3002
0023
0230
,
2300
0000
3010
0100
0020
0000
1030
0100
,
0010
0001
0010
0100
2000
0000
0000
0000
,
0002
0000
0000
3003
0110
0000
0001
0000
,
0000
0001
0000
1000
,
0001
0010
0100
1000
,
0000
1000
0000
0010
,
0100
0001
1001
1000
,
0000
1000
0000
0100
,
0010
0000
0001
0000
1001
0000
0000
0100
,
0000
0000
1001
0000
0000
0010
0000
0000
,
0110
0110
1001
0000
,
0001
0100
0010
1000
,
0001
1000
0100
0000
,
0010
0001
0100
0010
,
0100
0001
0010
0000
,
0100
1000
0001
1000
,
0010
0000
0100
0000
1001
0000
0000
0010
,
0000
0000
0100
0000
1000
0001
0000
1000
,
0001
0010
0110
0100
,
1000
0001
1000
0010
,
0100
0001
1000
0100
,
0010
0001
0100
0010
,
1000
0001
0010
0100
,
1000
0001
0100
0010
,
1000
0000
0001
0000
1001
0000
0000
0100
,
0000
0000
1001
0000
0000
0010
0000
0000
,
1000
0000
0001
0000
1002
0000
0000
2003
,
0000
0000
3200
0000
0000
2300
0000
0000
,
3020
0000
0000
2030
0000
0000
3200
0000
,
0320
0032
0203
0320
,
2030
3002
0023
0230
,
2300
0001
3001
1200
,
0000
0320
0000
0000
0032
0000
0000
0023
,
0000
0000
0230
0000
0000
2300
0000
0000
,
3002
0203
0320
2030
,
3002
0023
0230
2300
,
3002
0000
0203
0000
0000
0320
0000
0000
,
2030
0000
0000
3002
0000
0000
0023
0000
,
0000
0230
0000
0000
2300
0000
0000
3002
,
0000
0000
0103
0000
0000
1001
0000
0000
,
0010
0000
0000
1001
0000
0000
0110
0000
,
0000
1001
0000
0000
0110
0000
0110
0000
,
2002
0000
0000
0000
,
0000
0000
0000
0000
,
0000
0000
0000
0000
,
0000
0000
0000
0000
,
3003
0110
0001
1000
,
0010
0000
0100
0000
0001
0000
1000
0100
,
1000
0010
0100
0001
,
0010
0000
0100
1000
0100
0000
0010
0000
,
0001
0202
0303
0010
,
1000
2200
3300
0010
,
0001
0000
0100
0000
0001
0100
0000
0001
,
0100
0110
0010
1000
,
0001
0000
1000
0000
0100
0000
0010
0001
,
0010
0100
1000
0001
,
0100
0000
0010
1000
0010
0000
1000
0000
,
0100
2200
3300
0001
,
0100
0202
0303
0010
,
0100
0000
0110
0000
0000
1001
0000
0000
,
0110
0002
2003
3020
,
0230
0000
0301
0010
0001
0000
0010
0000
,
0001
0000
1000
0010
1000
0000
0010
0000
,
1000
0000
0001
0100
0001
0000
0100
0000
,
0001
2000
3200
0320
,
0032
0000
1003
0100
1000
0000
0100
0000
,
1000
0000
0001
0100
0001
0000
0100
0000
,
0001
0000
1000
0010
1000
0000
0010
0000
,
1000
0000
0001
0010
0001
0000
1000
0001
,
1000
0001
0000
0000
0000
0000
0000
0000
,
0000
0220
0000
0000
,
0000
0000
0330
2002
,
0000
0000
0000
0000
,
0000
0000
0000
0000
,
0000
0000
0000
0000
,
0000
3003
0000
0000
;

//--------------- dance-single - forcednature ----------------
#NOTES:
     dance-single:
     forcednature:
     Medium:
     12:
     0,0,0,0,0:
0000
0000
0000
0000
,
0000
0000
0000
0000
,
0000
0000
0000
0000
0000
0000
0000
0000
0000
0000
0000
0000
0000
0000
1000
0001
,
1000
0100
0010
0001
,
0100
0000
0010
0000
1000
0000
0001
0010
,
0100
0000
1000
0001
1000
0010
0100
0001
,
1000
0100
0020
0032
,
0203
0320
2030
3002
,
0023
0000
0230
2300
3002
0000
0203
0320
,
2030
3200
0320
0032
0203
0000
0000
0000
,
0020
0000
0000
0330
1001
0000
0001
0100
,
0000
1000
0100
0000
0010
1000
0000
1000
,
0100
0000
0010
0000
1001
0000
1000
0100
,
0000
0001
0100
0000
0010
0001
0000
0001
,
0100
0000
0010
0000
1001
0000
0001
0010
,
0000
1000
0010
0000
0100
1000
0000
1000
,
0010
0000
0100
0000
0110
0000
0100
1000
,
0000
0100
0001
0000
0010
1000
0000
0010
,
0001
0100
0001
0010
0100
0000
1000
0010
,
0000
0100
0010
0000
1000
0001
0000
0010
,
0001
0100
0010
1000
0001
0000
0010
0100
,
0000
1000
0100
0000
0010
0001
0000
1000
,
0010
0100
0001
1000
0100
0000
1000
0010
,
0000
0100
0001
0000
0010
0100
0000
1000
,
0001
0010
0001
1000
0010
0000
1000
0100
,
0000
0001
0100
0000
0010
0010
1000
0010
,
0010
0001
0100
0000
0110
0000
0001
0100
,
0010
1000
0001
0000
1000
0100
0000
0010
,
0001
0000
1000
0000
0010
0000
0100
0001
,
1000
0100
1000
0000
0010
0100
0000
0001
,
1000
0000
0100
0000
0110
0000
0010
0001
,
1000
0001
0100
0000
0010
1000
0000
0001
,
0010
0000
0100
0000
0110
0000
1000
0010
,
0000
0001
0010
0000
0100
1000
0000
0100
,
0001
0100
0001
1000
0010
0000
0010
1000
,
0100
0000
0010
0000
0010
0001
0100
0000
,
0010
0000
0010
1000
0100
0000
0020
0000
,
0032
2003
3020
0230
,
0302
0000
2003
0000
3100
0010
0001
0100
,
0020
0001
1030
0110
,
0100
0001
1000
0001
0010
0000
0100
1000
,
0001
1000
0010
0000
0100
0001
1000
0001
,
0020
0230
2300
3020
,
0230
0000
0302
0000
2003
0000
3100
0010
,
0001
0100
0010
0000
0010
1000
0001
0000
,
0010
0000
0010
0001
1000
0000
0100
0000
,
0100
1000
0001
0000
0100
0000
0100
0001
,
1000
0000
1100
0000
0000
0011
0000
0000
,
0101
0000
0000
1010
0000
0000
1001
0000
,
0000
0110
0000
0000
1100
0000
0101
0000
,
2002
0000
0000
0000
,
0000
0000
0000
0000
,
0000
0000
0000
0000
,
0000
0000
0000
0000
,
3003
0000
0110
0000
0001
0100
0010
1000
,
0001
0000
0000
0000
0010
0000
0000
0000
0100
0000
1000
0000
0001
0000
0100
0001
,
0100
0010
1000
0000
0001
0010
0100
0000
,
1000
0000
0001
0000
0100
0000
0010
1000
0010
0000
0100
0000
0001
0010
0000
0000
,
0010
0100
0000
0000
2000
0000
0000
0000
0010
0000
0000
0000
3100
0000
1000
0000
,
0001
0100
0002
0000
0010
0000
0103
0001
,
1000
0100
0010
0001
1000
0010
1000
0001
,
0010
0000
0110
0000
0100
1000
0001
1000
,
0010
0000
0000
0000
0100
0000
0000
0000
0001
0000
1000
0000
0100
0000
0010
0001
,
0010
0100
1000
0000
0001
0100
0010
0000
,
1000
0000
0001
0000
0010
0000
0100
1000
0100
0000
0010
0000
0001
1000
0000
0000
,
1000
0010
0000
0000
0200
0000
0000
0000
1000
0000
0000
0000
0301
0000
0100
0000
,
0010
1000
0200
0000
0001
0000
1300
0100
,
0010
0001
0100
1000
0100
0001
0100
0010
,
1000
0000
0100
0010
0001
0100
0010
1000
,
0001
0000
0010
0100
1000
0001
0010
0100
,
1000
0001
0100
0010
1000
0001
0100
0010
,
1000
0001
1000
0100
0010
0001
1000
0100
,
0010
0001
0100
1000
0100
0001
0100
1000
,
0100
0001
1000
0100
0010
0100
0001
0100
,
0010
0100
1000
0010
0100
0010
0001
0010
,
0100
0010
1000
0100
0001
0100
1000
0010
,
0001
0010
0100
1000
0100
0001
0010
1000
,
0010
0001
0000
0000
0000
0000
0000
0000
,
0000
0220
0000
0000
,
0000
0000
0330
2002
,
0000
0000
0000
0000
,
0000
0000
0000
0000
,
0000
0000
0000
0000
,
0000
3003
0000
0000
;

//--------------- dance-single - forcednature ----------------
#NOTES:
     dance-single:
     forcednature:
     Hard:
     16:
     0,0,0,0,0:
0000
0000
0000
0000
,
0000
0000
0000
0000
,
0000
0000
0000
0000
0000
0000
0000
0000
0000
0000
0000
0000
0000
0000
0001
1000
,
0010
1000
0100
1000
,
0010
0000
0100
0000
0001
0000
1000
0100
,
0010
0000
0001
0100
0010
1000
0010
0100
,
0001
0011
1020
2030
,
3200
0000
0320
0030
0012
0000
2003
3000
,
1020
0000
0230
0301
2001
0000
3200
0320
,
0032
0203
0320
1030
2002
0000
0000
3000
,
0200
0000
0000
0303
1010
0000
1000
0100
,
0000
0001
0100
0000
0010
0001
1000
0001
,
0100
0010
1010
0000
0011
0000
0001
0100
,
0000
1000
0100
0000
0010
1000
0001
1000
,
0100
0010
0011
0000
1001
0000
1000
0100
,
0000
0001
0100
0000
1000
0010
0001
0010
,
0100
0001
1001
0000
0110
0000
1000
1100
,
0000
0001
0101
0000
0010
0110
0000
0001
,
0100
1000
0100
0010
0110
0000
0001
0100
,
0010
0000
1000
0000
0100
0000
1000
0000
0010
0000
0100
0000
0001
0000
1000
0100
,
1000
0001
0100
0001
0010
0000
0100
1000
,
0100
0000
0001
0000
0100
0000
0010
0000
0001
0000
1000
0000
0010
0000
0100
0001
,
0100
0010
1000
0000
1100
0000
0100
0010
,
0001
0000
1000
0000
0010
0000
0100
0000
0001
0000
1000
0000
0100
0000
0010
0001
,
0010
0100
1000
0010
0110
0000
1000
1100
,
0000
0001
0101
0000
1000
1000
0100
0001
,
0001
0000
0100
0000
0010
0001
1000
0100
0010
0000
0000
0000
0001
0000
1000
0000
,
0010
0000
0100
0000
1000
0000
0100
0000
0001
0000
1000
0000
0010
0000
0100
0001
,
1000
0100
0010
0001
0100
0000
0010
1000
,
0001
0000
0010
0000
0100
0000
0001
0000
0100
0000
0010
0000
0001
0000
1000
0010
,
0100
0000
0001
0000
1000
0001
0010
0000
0110
0000
0000
0000
0010
0000
0001
0000
,
0100
0000
1000
0000
0100
0000
0010
0000
1000
0000
0001
0000
0010
0000
0100
1000
,
0001
0100
0010
1000
1001
0000
0001
0011
,
0000
0000
1000
0000
1010
0000
0000
0000
0100
0000
0110
0000
0000
0000
0001
0100
,
0001
0000
1000
0100
1000
0000
0001
0100
0010
0000
0000
0000
0010
0000
1000
0000
,
0010
0000
0110
0000
0010
0001
0010
0000
,
0110
0000
0000
0000
0010
0000
1000
0000
0100
0000
0000
0000
0010
0001
0000
0000
,
0001
1000
0000
0000
1000
0010
0000
0000
0110
0000
0000
0000
0200
0000
0000
0000
,
0302
0000
0023
0000
0130
1000
0001
1000
,
0010
0000
0000
0000
0000
0000
0000
0000
0100
0001
0000
0000
0000
0000
0000
0000
0100
0001
0000
0000
0000
0000
0000
0000
1001
0000
0000
0000
0000
0000
0000
0000
,
1000
0000
0100
0000
0010
0000
0001
1000
0100
0000
1000
0000
0001
0000
0100
0000
,
0010
0000
1000
0001
0100
0000
0001
0000
0010
0000
0100
0000
1000
0000
0001
0010
,
0100
0000
0000
0100
1000
0000
0000
1000
0010
0000
0000
0010
0200
0000
0000
0000
,
2300
0000
3002
0000
0023
0000
0130
0001
,
1000
0000
0100
0010
0002
0000
0000
0000
0100
0000
2003
0000
0010
0000
0000
0000
,
3002
0000
0000
0000
0010
0000
2003
0000
0100
0000
0000
0000
3001
0010
0001
0000
,
0100
0000
0010
0000
1000
0000
0001
0100
0010
1000
0010
0000
0100
0000
0001
0000
,
1000
0001
0011
0000
1000
1010
0000
0001
,
0101
0000
0000
0000
1000
0000
1100
0000
0000
0000
0001
0000
0010
0100
1000
0000
,
0001
0000
0100
0010
1000
0000
0001
0000
0100
0001
1000
0000
0100
1000
0001
0000
,
2002
0000
0000
0000
,
0000
0000
0000
0000
,
0000
0000
0000
0000
,
0000
0000
0000
0000
,
3003
0000
0110
0000
0001
0100
0010
1000
,
0100
0000
0001
0000
0100
0000
0010
0000
0001
0000
1000
0000
0010
0000
0100
0001
,
1000
0100
0010
0000
0001
0100
1000
0100
,
0010
0000
1000
0000
0001
0000
0010
0100
1000
0000
0001
0000
1000
0001
0010
0000
,
0001
1000
0010
0000
0100
0001
0100
0001
2000
0000
0000
0000
3100
0000
1000
0001
,
0100
0000
0001
0010
0100
1000
0100
1000
0002
0000
0000
0000
0103
0000
0001
1000
,
0100
0000
1000
0010
1000
0000
0100
0000
0100
0000
0001
0000
0100
1000
0001
1000
,
0020
0000
0130
0001
0010
0001
0100
1000
,
0100
0000
0001
0000
0010
0000
0100
0000
1000
0000
0001
0000
0100
0000
0010
1000
,
0001
0010
0100
0000
0001
0100
1000
0010
,
0001
0000
0010
0000
0100
0000
0001
1000
0100
0000
0010
0000
0001
1000
0010
0000
,
0100
0001
1000
0000
0001
0010
0100
1000
0002
0000
0000
0000
0103
0000
0001
1000
,
0100
0000
0010
0001
1000
0010
0100
0001
2000
0000
0000
0000
3100
0000
1000
0001
,
0100
0000
0010
1000
0001
0000
0010
0000
0010
0000
1000
0000
0010
0000
0010
0000
,
0100
0000
1000
0001
0100
0000
0010
1000
0010
0000
0100
0001
1000
0000
0100
0000
,
0020
0000
0000
0000
0031
0000
0100
0010
1000
0000
0001
0100
0010
0000
1000
0001
,
0100
0000
0010
0000
1000
0000
0100
0010
0001
0000
1000
0100
0010
0000
0001
1000
,
0100
0000
0010
0000
0001
0000
0100
0010
1000
0000
0001
0100
0010
0000
1000
0001
,
0100
0000
0010
0000
1000
0100
1000
0000
0100
0010
0100
0000
0010
0001
0010
0000
,
0001
1000
0001
0000
0100
0000
0001
1000
0010
0000
1000
0001
0100
0000
0001
1000
,
0010
0000
0100
0000
0001
0000
1000
0100
0010
0000
0001
0010
0100
0000
1000
0100
,
0010
0000
0001
0000
0100
0000
0010
1000
0100
0000
0010
0001
0100
0000
0010
1000
,
0100
0000
0010
0000
0001
0100
0001
0100
0010
1000
0010
1000
0001
0010
0100
1000
,
0100
0010
0001
1000
0000
0000
0000
0000
0000
0000
0000
0000
0000
0000
0000
0000
,
0000
0220
0000
0000
,
0000
0000
0330
2002
,
0000
0000
0000
0000
,
0000
0000
0000
0000
,
0000
0000
0000
0000
,
0000
3003
0000
0000
;

//--------------- dance-double - forcednature ----------------
#NOTES:
     dance-double:
     forcednature:
     Easy:
     9:
     0,0,0,0,0:
00000000
00000000
00000000
00000000
,
00000000
00000000
00000000
00000000
,
00000000
00000000
00000000
00000000
00000000
00000000
00000000
00000000
00000000
00000000
00000000
00000000
00000000
00000000
00010000
00001000
,
00010000
00000010
00001000
00000001
,
00000010
00000000
00000100
00000000
00010000
00000000
00001000
01000000
,
00001000
00000000
00100000
00010000
10000000
00010000
01000000
00100000
,
10000000
01000000
00020000
00032000
,
00023000
00030200
00002300
00003002
,
00000203
00000000
00001300
00010000
00002000
00000000
01003000
00010000
,
00100000
00010000
10000000
00100000
02000000
00000000
00000000
00000000
,
00020000
00000000
00000000
03030000
10100000
00000000
10000000
00000000
,
00000000
10000000
00000000
01000000
,
00010000
00001000
00000100
00000001
,
00000000
00000001
00000000
00000100
,
00001000
01000000
01100000
00100000
,
00000000
00100000
00000000
00001000
,
00010000
00000000
00000010
00000000
00000110
00000000
00000000
00000001
,
00000000
00000000
00000110
00000000
00000000
00001000
00000000
00000000
,
00001001
00001001
00000110
00000000
,
00000001
00000100
00000010
00010000
,
00000100
00001000
00000010
00000000
,
00010000
00001000
00100000
00010000
,
01000000
00001000
00010000
00000000
,
00100000
10000000
01000000
00100000
,
00010000
00000000
01000000
00000000
01010000
00000000
00000000
00001000
,
00000000
00000000
00100000
00000000
00001000
00010000
00000000
00001000
,
00010000
00000100
00001100
00001000
,
00000001
00000100
00000010
00001000
,
00000100
00010000
00001000
01000000
,
00010000
00100000
01000000
10000000
,
00010000
01000000
00100000
10000000
,
00010000
10000000
01000000
00010000
,
00001000
00000000
00010000
00000000
00010100
00000000
00000000
00010000
,
00000000
00000000
01001000
00000000
00000000
00001000
00000000
00000000
,
00010000
00000000
00001000
00000000
00021000
00000000
00000000
00030200
,
00000000
00000000
00002300
00000000
00000000
00003020
00000000
00000000
,
00020030
00000000
00000000
00032000
00000000
00000000
00203000
00000000
,
00320000
02030000
03200000
20300000
,
32000000
03200000
00302000
00023000
,
00030020
00001000
00001030
00000201
,
00000000
00002300
00000000
00000000
00023000
00000000
00000000
00230000
,
00000000
00000000
02300000
00000000
00000000
03020000
00000000
00000000
,
20030000
32000000
03200000
00320000
,
02030000
03002000
00023000
00030200
,
00002300
00000000
00003002
00000000
00000000
00000203
00000000
00000000
,
00000320
00000000
00000000
00020030
00000000
00000000
00032000
00000000
,
00000000
00203000
00000000
00000000
02300000
00000000
00000000
23000000
,
00000000
00000000
30100000
00000000
00000000
10010000
00000000
00000000
,
01000000
00000000
00000000
00011000
00000000
00000000
00000110
00000000
,
00000000
00001001
00000000
00000000
00000110
00000000
00000110
00000000
,
00002002
00000000
00000000
00000000
,
00000000
00000000
00000000
00000000
,
00000000
00000000
00000000
00000000
,
00000000
00000000
00000000
00000000
,
00003003
00000110
00000001
00000100
,
00000010
00000000
00001000
00000000
00000100
00000000
00010000
00001000
,
00010000
00000010
00010000
00001000
,
00100000
00000000
01000000
10000000
01000000
00000000
00010000
00000000
,
00001000
02002000
03003000
00001000
,
00010000
00020200
00030300
00010000
,
00001000
00000000
01000000
00000000
00010000
00100000
00000000
00010000
,
00100000
01100000
01000000
10000000
,
00010000
00000000
10000000
00000000
00100000
00000000
00010000
00001000
,
00010000
00000100
00001000
00000010
,
00000100
00000000
00000001
00001000
00000001
00000000
00000010
00000000
,
00000100
00020200
00030300
00001000
,
01000000
02020000
03030000
00100000
,
10000000
00000000
10010000
00000000
00000000
01100000
00000000
00000000
,
10010000
20000000
32000000
03200000
,
00320000
00000000
01030000
00010000
01000000
00000000
00001000
00000000
,
00010000
00000000
00000100
00001000
00000100
00000000
00010000
00000000
,
00001000
00000000
00100000
00010000
00100000
00000000
00001000
00000000
,
00010000
00000020
00002030
00003002
,
00000023
00000000
00000130
00001000
00000100
00000000
00010000
00000000
,
00001000
00000000
01000000
00010000
01000000
00000000
00001000
00000000
,
00010000
00000000
00000010
00001000
00000010
00000000
00010000
00000000
,
00001000
00000000
00100000
00010000
00100000
00000000
01000000
10000000
,
01000000
10000000
00000000
00000000
00000000
00000000
00000000
00000000
,
00000000
02200000
00000000
00000000
,
00000000
00000000
03300000
20020000
,
00000000
00000000
00000000
00000000
,
00000000
00000000
00000000
00000000
,
00000000
00000000
00000000
00000000
,
00000000
30030000
00000000
00000000
;

//--------------- dance-double - forcednature ----------------
#NOTES:
     dance-double:
     forcednature:
     Medium:
     13:
     0,0,0,0,0:
00000000
00000000
00000000
00000000
,
00000000
00000000
00000000
00000000
,
00000000
00000000
00000000
00000000
00000000
00000000
00000000
00000000
00000000
00000000
00000000
00000000
00000000
00000000
00010000
00001000
,
00010000
00100000
01000000
00010000
,
10000000
00000000
01000000
00000000
00010000
00000000
00001000
00010000
,
00000010
00000000
00000100
00000001
00001000
00000100
00010000
00001000
,
01000000
00100000
20000000
32000000
,
03020000
00032000
00003200
00000302
,
00000023
00000000
00000230
00002300
00003002
00000000
00000203
00002300
,
00023000
00230000
02300000
03020000
20030000
00000000
00000000
00000000
,
00020000
00000000
00000000
30030000
10010000
00000000
10000000
01000000
,
00000000
01000000
00010000
00000000
00010000
00001000
00000000
00001000
,
00000010
00000000
00000100
00000000
00001001
00000000
00000001
00000100
,
00000000
00000100
00001000
00000000
00001000
00010000
00000000
00010000
,
00100000
00000000
01000000
00000000
10010000
00000000
10000000
00100000
,
00000000
00100000
00010000
00000000
00010000
00001000
00000000
00001000
,
00000100
00000000
00000010
00000000
00000110
00000000
00000100
00000001
,
00000000
00000100
00001000
00000000
00010000
01000000
00000000
00100000
,
00010000
01000000
00100000
10000000
01000000
00000000
00010000
00001000
,
00000000
00000010
00000100
00000000
00010000
00001000
00000000
00000100
,
00000001
00001000
00000001
00000010
00000100
00000000
00001000
00000010
,
00000000
00000100
00001000
00000000
00010000
01000000
00000000
00100000
,
00001000
00010000
00100000
01000000
00010000
00000000
10000000
01000000
,
00000000
00010000
00001000
00000000
00000100
00000001
00000000
00000010
,
00000100
00010000
00000010
00000100
00000001
00000000
00000010
00001000
,
00000000
00010000
00100000
00000000
01000000
01000000
10000000
01000000
,
01000000
00010000
00100000
00000000
01100000
00000000
01000000
00010000
,
00001000
00010000
00000010
00000000
00000100
00001000
00000000
00010000
,
00100000
00000000
00010000
00000000
00001000
00000000
00000100
00001000
,
00010000
00001000
00100000
00000000
01000000
00010000
00000000
00001000
,
00000010
00000000
00000100
00000000
00000110
00000000
00000010
00000001
,
00001000
00000001
00000100
00000000
00001000
00010000
00000000
00100000
,
01000000
00000000
00010000
00000000
10010000
00000000
10000000
01000000
,
00000000
00010000
00001000
00000000
00000100
00000001
00000000
00000010
,
00000100
00001000
00000010
00000100
00001000
00000000
00001000
00010000
,
00001000
00000000
00100000
00000000
00100000
00010000
00100000
00000000
,
01000000
00000000
01000000
10000000
01000000
00000000
00020000
00000000
,
00032000
00003020
00000230
00002300
,
00003002
00000000
00000203
00000000
00001300
00010000
00100000
01000000
,
00020000
00100000
01030000
10010000
,
10000000
01000000
00010000
00001000
00000010
00000000
00000001
00000100
,
00001000
00010000
00100000
00000000
10000000
01000000
00010000
00001000
,
00000020
00000230
00002300
00003002
,
00000203
00000000
00002300
00000000
00023000
00000000
00130000
10000000
,
00010000
10000000
01000000
00000000
01000000
00010000
00001000
00000000
,
00000100
00000000
00000100
00001000
00010000
00000000
00100000
00000000
,
00100000
00010000
00001000
00000000
00000010
00000000
00000010
00001000
,
00010000
00000000
00010100
00000000
00000000
01001000
00000000
00000000
,
00010010
00000000
00000000
00101000
00000000
00000000
10010000
00000000
,
00000000
00011000
00000000
00000000
00001001
00000000
00000110
00000000
,
00002002
00000000
00000000
00000000
,
00000000
00000000
00000000
00000000
,
00000000
00000000
00000000
00000000
,
00000000
00000000
00000000
00000000
,
00003003
00000000
00000101
00000000
00000100
00001000
00010000
00001000
,
00100000
00000000
00000000
00000000
01000000
00000000
00000000
00000000
10000000
00000000
00010000
00000000
01000000
00000000
00001000
00010000
,
00001000
00100000
00010000
00000000
01000000
00001000
00010000
00000000
,
00000100
00000000
00001000
00000000
00000010
00000000
00000100
00000001
00000100
00000000
00000010
00000000
00001000
00000100
00000000
00000000
,
00000100
00010000
00000000
00000000
00002000
00000000
00000000
00000000
01000000
00000000
00000000
00000000
00013000
00000000
00001000
00000000
,
00100000
00001000
00020000
00000000
00000100
00000000
00030010
00010000
,
00001000
00010000
00000010
00000100
00001000
00010000
00100000
01000000
,
00010000
00000000
10010000
00000000
10000000
01000000
00010000
01000000
,
00100000
00000000
00000000
00000000
00001000
00000000
00000000
00000000
00000010
00000000
00000100
00000000
00001000
00000000
00000001
00000100
,
00000001
00000010
00000100
00000000
00001000
00000010
00010000
00000000
,
00100000
00000000
01000000
00000000
00010000
00000000
10000000
01000000
10000000
00000000
00100000
00000000
01000000
00010000
00000000
00000000
,
00010000
00100000
00000000
00000000
00002000
00000000
00000000
00000000
00000100
00000000
00000000
00000000
00013000
00000000
00001000
00000000
,
00100000
00001000
00020000
00000000
01000000
00000000
00031000
00010000
,
00000010
00010000
00001000
00000100
00001000
00010000
01000000
00010000
,
00001000
00000000
00000100
00000001
00001000
00000001
00000010
00001000
,
00000010
00000000
00000001
00000100
00000010
00001000
00010000
01000000
,
00100000
10000000
10000000
01000000
00100000
00010000
00001000
00000100
,
00000010
00000001
00000001
00000100
00000010
00001000
00010000
01000000
,
00100000
10000000
10000000
01000000
00010000
00001000
00010000
00001000
,
00000100
00000000
00000001
00000000
00000100
00000001
00000100
00000000
00000010
00000000
00001000
00000000
00010000
00000000
01000000
00000000
,
00100000
00000000
10000000
00000000
01000000
10000000
01000000
00000000
00100000
00000000
00010000
00000000
00001000
00000000
00000100
00000000
,
00000010
00000000
00000001
00000000
00000100
00000001
00000100
00000000
00000010
00000000
00001000
00000000
00010000
00000000
01000000
00000000
,
00100000
10000000
01000000
00010000
00001000
00010000
00100000
10000000
,
01000000
01000000
00000000
00000000
00000000
00000000
00000000
00000000
,
00000000
02200000
00000000
00000000
,
00000000
00000000
03300000
00022000
,
00000000
00000000
00000000
00000000
,
00000000
00000000
00000000
00000000
,
00000000
00000000
00000000
00000000
,
00000000
00033000
00000000
00000000
;

//--------------- dance-double - forcednature ----------------
#NOTES:
     dance-double:
     forcednature:
     Hard:
     16:
     0,0,0,0,0:
00000000
00000000
00000000
00000000
,
00000000
00000000
00000000
00000000
,
00000000
00000000
00000000
00000000
00000000
00000000
00000000
00000000
00000000
00000000
00000000
00000000
00000000
00000000
00001000
00010000
,
00001000
00000010
00000001
00000100
,
00001000
00000000
00010000
00000000
01000000
00000000
10000000
00100000
,
00010000
00000000
00001000
00000010
00000100
00000010
00000001
00001000
,
00000010
00010100
01002000
00203000
,
02300000
23000000
30200000
00320000
,
00032000
00000000
00003020
00000230
00002300
00000000
00003002
00000203
,
00002300
00023000
02030000
23000000
30200000
00000000
00000000
00000000
,
02000000
00000000
00000000
03300000
10010000
00000000
10000000
01000000
,
00000000
00010000
01000000
00000000
00100000
00001000
00010000
00001000
,
00000100
00000000
00000110
00000000
00000001
00000000
00000100
00001000
,
00000000
00000100
00000001
00000000
00000010
00001000
00010000
00001000
,
01000000
00000000
01100000
00000000
10010000
00000000
00010000
00100000
,
00000000
10000000
00100000
00000000
00010000
00001000
00000010
00000100
,
00001000
00000000
00000110
00000000
00001001
00000000
00000001
00000100
,
00000000
00001000
00010000
00000000
01000000
10000000
00000000
00100000
,
00010000
00100000
10000000
00100000
01000000
00000000
00010000
00100000
,
01000000
00010000
00001000
00000010
00000100
00001000
00000001
00000100
,
00001000
00010000
00000100
00001000
00000010
00000000
00000100
00001000
,
00010000
01000000
00010000
00001000
00010000
00100000
10000000
00010000
,
10000000
01000000
00010000
00000000
00011000
00000000
00001000
00000010
,
00000100
00001000
00000001
00000100
00000010
00000100
00001000
00010000
,
01000000
00100000
00010000
00000000
01010000
00000000
01000000
10000000
,
00000000
00010000
00100000
00000000
10000000
10000000
01000000
00010000
,
00010000
00000000
00001000
00000000
00000010
00000000
00000100
00001000
00000001
00000000
00000000
00000000
00000100
00000000
00001000
00000000
,
00000100
00000001
00000010
00000100
00000001
00000100
00010000
00001000
,
00000100
00001000
00010000
01000000
00100000
00000000
00001000
00010000
,
01000000
10000000
00100000
01000000
00010000
00100000
01000000
00010000
,
00001000
00000100
00000010
00010000
00001000
00000000
00000010
00000100
,
00001000
00000001
00000100
00001000
00010000
01000000
00100000
00001000
,
00010000
00100000
10000000
00010000
00100000
00000000
01000000
00010000
,
00000000
00001000
00000100
00000000
00000010
00001000
00000000
00010000
,
01000000
00000000
00100000
10000000
00100000
00000000
10000000
01000000
10000000
00000000
00000000
00000000
10000000
00000000
01000000
00000000
,
00010000
00000000
00010000
00000000
00010000
00001000
00000100
00000000
,
00000100
00000000
00000100
00000001
00000010
00000000
00002000
00000000
,
00023000
00230000
02300000
03010000
,
10000000
00000000
01000000
00000000
00010000
00001000
00000010
00000100
,
00001000
00000000
00000000
00000000
00000000
00000000
00000000
00000000
00000001
00000100
00000000
00000000
00000000
00000000
00000000
00000000
00000001
00000100
00000000
00000000
00000000
00000000
00000000
00000000
00000110
00000000
00000000
00000000
00000000
00000000
00000000
00000000
,
00000010
00000000
00001000
00000000
00000001
00000000
00000010
00000100
00001000
00000000
00000100
00000000
00010000
00000000
00001000
00000000
,
01000000
00000000
00010000
10000000
00100000
00000000
01000000
00000000
00010000
00000000
10000000
00000000
01000000
00000000
00100000
00001000
,
00020000
00230000
20300000
32000000
,
03010000
00000000
00001000
00000000
00000010
00000000
00000100
00001000
,
00000001
00000100
00001000
00000000
00010000
00100000
01000000
00000000
,
00001000
00000000
00010000
01000000
00100000
00000000
00001000
00000000
,
00000010
00000100
00010000
00000000
00001000
00000000
00000100
00000010
,
00010000
00000000
00010100
00000000
00000000
01001000
00000000
00000000
,
00010010
00000000
00000000
00101000
00000000
00000000
01100000
00000000
,
00000000
00011000
00000000
00000000
00000110
00000000
00001001
00000000
,
00000220
00000000
00000000
00000000
,
00000000
00000000
00000000
00000000
,
00000000
00000000
00000000
00000000
,
00000000
00000000
00000000
00000000
,
00000330
00000000
00001001
00000000
00001000
00000100
00000010
00000100
,
00010000
00000000
00001000
00000000
00000100
00000000
00001000
00000000
00010000
00000000
00100000
00000000
01000000
00000000
00010000
10000000
,
01000000
00100000
00010000
00000000
01000000
00100000
00010000
00001000
,
00100000
00000000
00010000
00000000
10000000
00000000
01000000
00100000
00010000
00000000
01000000
00000000
00001000
00010000
00000100
00000000
,
00001000
00000100
00010000
00000000
00000010
00001000
00000010
00001000
00000001
00000000
00000000
00000000
00000010
00000000
00000100
00010000
,
00001000
00000000
01000000
00000000
00010000
10000000
00010000
10000000
00100000
00000000
00000000
00000000
10000000
00000000
01000000
00100000
,
00010000
01000000
00001000
00010000
00010000
00100000
00010000
00010000
,
00000100
00000000
00000110
00000000
00000010
00000001
00000100
00001000
,
00010000
00000000
00000100
00000000
00001000
00000000
00000010
00000000
00001000
00000000
00010000
00000000
01000000
00000000
00100000
10000000
,
00010000
00100000
01000000
00000000
00010000
00001000
00000100
00000010
,
00001000
00000000
00000001
00000000
00000010
00000000
00000100
00010000
00001000
00000000
01000000
00000000
00010000
00100000
01000000
00000000
,
10000000
01000000
00100000
00000000
00010000
01000000
00010000
01000000
00001000
00000000
00000000
00000000
00010000
00000000
00000100
00001000
,
00000100
00000000
00000010
00000000
00000001
00001000
00000001
00001000
00000010
00000000
00000000
00000000
00000100
00000000
00001000
00010000
,
00001000
01000000
00010000
00100000
10000000
00010000
01000000
10000000
,
00100000
00000000
00000000
00000000
10000000
00000000
00010000
01000000
00010000
00000000
01000000
00001000
01000000
00000000
00010000
00000000
,
00200000
00000000
00000000
00000000
01300000
00000000
00010000
00001000
00010000
00000000
00000100
00001000
00000100
00000000
00010000
00001000
,
00010000
00000000
00000010
00000000
00001000
00000000
00000001
00000010
00000001
00000000
00001000
00000100
00001000
00000000
00000001
00000010
,
00000001
00000000
00000100
00000000
00000010
00000000
00010000
00001000
00010000
00000000
00000010
00001000
00000010
00000000
00010000
00001000
,
00010000
01000000
00100000
00001000
00010000
00100000
10000000
01000000
,
00010000
00000000
00001000
00000000
00000010
00000000
00000100
00001000
00000001
00000000
00000010
00000001
00001000
00000000
00000100
00001000
,
00000001
00000000
00000100
00000000
00001000
00000000
01000000
00010000
00100000
00000000
01000000
10000000
00100000
00000000
01000000
00010000
,
00100000
00000000
01000000
00000000
00010000
00000000
00001000
00000010
00000100
00000000
00001000
00000001
00000010
00000000
00000100
00001000
,
00000001
00000000
00000100
00000000
00000010
00001000
00000001
00000000
00000010
00000100
00001000
00000000
00000010
00001000
00000100
00010000
,
00001000
01000000
00010000
00100000
00000000
00000000
00000000
00000000
00000000
00000000
00000000
00000000
00000000
00000000
00000000
00000000
,
00000000
02200000
00000000
00000000
,
00000000
00000000
03300000
20020000
,
00000000
00000000
00000000
00000000
,
00000000
00000000
00000000
00000000
,
00000000
00000000
00000000
00000000
,
00000000
30030000
00000000
00000000
;
