#VERSION:0.83;
#TITLE:Night is Falling;
#SUBTITLE:;
#ARTIST:Sunhiausa;
#TITLETRANSLIT:;
#SUBTITLETRANSLIT:;
#ARTISTTRANSLIT:;
#GENRE:;
#CREDIT:Braeden;
#MUSIC:Night is Falling.ogg;
#BANNER:Night is Falling-ban.png;
#JACKET:Night is Falling-jacket.png;
#BACKGROUND:Night is Falling-bg.png;
#CDTITLE:;
#SAMPLESTART:31.702;
#SAMPLELENGTH:12.000;
#SELECTABLE:YES;
#OFFSET:0.010;
#BPMS:0.000=106.001
,16.000=212.001
,144.000=106.001
,176.000=212.001
,240.000=106.001
,256.000=212.001
;
#STOPS:;
#BGCHANGES:;
#FGCHANGES:;

//--------------- dance-single - ----------------
#NOTEDATA:;
#STEPSTYPE:dance-single;
#CREDIT:Braeden;
#DESCRIPTION:;
#DIFFICULTY:Beginner;
#METER:5;
#RADARVALUES:0,0,0,0,0;
#NOTES:
0000
0000
0000
0000
,
0000
0000
0000
0000
,
0000
0000
0000
0000
,
0000
0000
0000
0000
,
1000
0000
0000
0000
,
0001
0000
0000
0000
,
1000
0000
0000
0000
,
0010
0000
0000
0000
,
0100
0000
0000
0000
,
0001
0000
0000
0000
,
1000
0000
0000
0000
,
0100
0000
0000
0000
,
0000
0010
0000
0001
,
0000
0100
0000
0010
,
0000
1000
0000
0001
,
0000
0100
0000
0001
,
0000
0010
0000
0100
,
0000
0010
0000
0001
,
0000
1000
0000
0010
,
0000
0100
0000
0001
,
0000
1000
0000
1000
,
0000
0010
0000
0010
,
0000
0100
0000
0100
,
0000
0001
0000
0001
,
0000
1000
0000
0010
,
0000
0100
0000
0001
,
0000
0010
0000
0100
,
0000
1000
0000
0001
,
0000
1000
0000
0010
,
0000
0100
0000
0001
,
0000
0010
0000
0100
,
0000
1000
0000
0001
,
0000
0100
0000
0010
,
0000
1000
0000
0001
,
0000
0010
0000
0100
,
0000
1000
0000
0001
,
0002
0000
0000
0003
,
0200
0000
0000
0300
,
0002
0000
0000
0003
,
2000
0000
0000
3000
,
0001
0000
0100
0000
,
0010
0000
1000
0000
,
0001
0000
0010
0000
,
0100
0000
0010
0000
,
0001
0001
0000
1000
,
0000
0001
0000
0100
,
0000
0010
0000
1000
,
0000
0001
0000
0100
,
0000
0010
0000
1000
,
0000
0001
0000
0010
,
0000
0100
0000
1000
,
0000
0001
0000
1000
,
0000
0001
0000
0100
,
0000
0010
0000
1000
,
0000
0001
0000
0010
,
0000
0100
0000
1000
,
0000
0001
0000
0100
,
0000
0010
0000
1000
,
0000
0001
0000
0010
,
0000
0100
0000
0010
,
0020
0000
0000
0030
,
0000
0000
0000
0000
,
0000
0000
0000
0000
,
0000
0000
0000
0000
,
0001
0000
0001
0000
,
1000
0000
0001
0000
,
0100
0000
0010
0000
,
1000
0000
0001
0000
,
0010
0000
0100
0000
,
1000
0000
0001
0000
,
0100
0000
0001
0000
,
1000
0000
0100
0000
,
0010
0000
0001
0000
,
0100
0000
0000
0000
,
0010
0000
0000
0000
,
1000
0000
0000
0000
,
0001
0000
0000
0000
,
0100
0000
0000
0000
,
0010
0000
0000
0000
,
0100
0000
0000
0000
,
0000
0001
0000
0100
,
0000
0010
0000
1000
,
0000
0001
0000
0010
,
0000
0100
0000
1000
,
0000
0001
0000
0100
,
0000
0001
0000
1000
,
0000
0010
0000
0100
,
0200
0000
0300
0000
,
0010
0010
0010
0000
,
1000
0000
0000
0000
,
0001
0000
0000
0000
,
0100
0000
0000
0000
,
0001
0001
0001
0000
,
1000
0000
0000
0000
,
0010
0000
0000
0000
,
0100
0000
0000
0000
,
0000
0100
0000
0010
,
0000
1000
0000
0001
,
0000
0010
0000
0100
,
0000
1000
0000
0001
,
0000
0100
0000
0010
,
0000
1000
0000
0001
,
0000
0010
0000
0100
,
0000
1000
0000
0001
,
0000
1000
0000
0001
,
0000
0100
0000
0001
,
0000
0010
0000
0001
,
0000
0100
0000
0010
,
0000
1000
0000
0001
,
0000
0010
0000
0100
,
0000
1000
0000
0001
,
2000
0000
3000
0000
,
1001
0000
0000
0000
;

//--------------- dance-single - ----------------
#NOTEDATA:;
#STEPSTYPE:dance-single;
#CREDIT:Braeden;
#DESCRIPTION:;
#DIFFICULTY:Easy;
#METER:10;
#RADARVALUES:0,0,0,0,0;
#NOTES:
0000
0000
0000
0000
,
0000
0000
0000
0000
,
0000
0000
0000
0000
,
0000
0000
0000
0000
,
1000
0000
0000
0001
0000
0100
0000
0001
,
0000
0100
0000
0010
0000
1000
0000
0100
,
0000
1000
0000
0001
0000
0010
0000
0100
,
0000
1000
0000
0010
0000
0100
0000
0001
,
0000
0010
0000
0100
0000
1000
0000
0010
,
0000
0100
0000
0001
0000
1000
0000
0100
,
0000
0010
0000
0001
0000
0100
0000
0010
,
0000
1000
0000
0001
0000
0010
0000
0010
,
0100
1000
0010
1000
,
0010
0100
0001
0010
,
0001
0100
0010
1000
,
0100
1000
0001
0010
,
0100
1000
0010
0100
,
0001
1000
0100
0010
,
0001
0010
0100
1000
,
0001
0000
0100
0000
0001
1000
0001
1000
,
0020
0130
0002
1003
,
0020
0130
0002
1003
,
0200
0310
0002
0103
,
0020
0000
1030
0000
0002
0000
1003
0010
,
2000
3100
0020
0031
,
0200
0310
2000
3001
,
0200
0310
2000
3001
,
0200
0000
0310
0000
1000
0100
0010
0001
,
2000
3001
0020
0130
,
2000
3100
0020
0031
,
0200
0310
2000
3010
,
0200
0000
0301
0000
1000
0000
0100
0010
,
0200
1300
0002
0103
,
0020
1030
0002
0103
,
0020
1030
0002
1003
,
0020
0000
1030
0000
0001
1000
0001
1000
,
0020
1000
1000
1000
,
2030
3001
0200
0301
,
2000
0001
0001
0001
,
3002
0103
0020
0130
,
0001
1000
0000
0000
0001
0000
0100
0000
,
0010
1000
0000
0000
0010
0000
0100
0000
,
0001
1000
0000
0000
0010
0000
0000
0000
,
2000
0000
3001
0100
,
0001
1001
1000
1001
,
0001
0110
0100
0110
,
0010
1010
1000
1001
,
0001
0000
1001
0000
2000
0000
3010
1000
,
0010
0110
0100
0101
,
0001
0011
0001
0101
,
0100
0110
0010
1010
,
1000
0000
0002
0000
1003
0010
0100
0001
,
1000
0100
1000
0000
0001
0010
0001
0000
,
1000
0010
1000
0000
0001
0100
0001
0000
,
1000
0010
1000
0000
0001
0100
0001
0000
,
1000
0100
0010
0000
0001
0010
0100
0000
,
1000
0001
1000
0001
1000
0001
1000
0001
,
0100
0010
0100
0010
0100
0010
0100
0010
,
0100
0001
0100
0001
0100
0001
0100
0001
,
1000
0010
1000
0010
1000
0010
2000
0000
,
3002
0000
0000
0003
,
0000
0000
0000
0000
,
0000
0000
0000
0000
,
0000
0000
0000
0000
0000
0000
0001
1000
,
0001
0100
0001
0010
,
0001
0100
0001
0010
,
0001
1000
0001
0000
0100
0010
0100
0000
,
0001
0010
0100
1000
,
0001
0100
0001
0100
,
0001
0000
0000
0100
0000
0000
0010
0000
,
1000
0100
1000
0000
0001
0000
0100
0000
,
0010
1000
0010
0000
1000
0000
0100
0000
,
0010
0001
0100
0010
,
1000
0000
0000
0001
0000
0000
1000
0000
,
0010
0100
0001
0010
,
0100
1000
0001
1000
,
0010
1000
0001
0010
,
0001
0000
0000
0100
0000
0000
0010
0000
,
1000
0001
0010
0100
,
1000
0001
0100
0001
,
1000
1010
0010
0110
,
0100
0000
0000
0001
0000
0000
1000
0000
,
0001
0100
0001
0000
1000
0000
0010
0000
,
0100
0001
0100
0000
0001
0000
0010
0000
,
0100
1100
1000
1001
,
0001
0000
0000
0100
0000
0000
0010
0000
,
1000
0010
1000
0000
0001
0000
0100
0000
,
0020
0000
1030
0001
,
1000
0010
0100
0001
,
0010
0000
0000
0001
0000
0000
0100
0000
,
0010
0000
1000
0000
0100
1000
0100
0000
,
1000
0000
0001
0000
0100
0001
0100
0000
,
0010
1000
0100
0010
,
0001
0000
0000
1000
0000
0000
0001
0000
,
0100
0000
0010
0000
0100
0001
1000
0000
,
0010
0000
0100
0000
0001
0010
0002
0000
,
1003
0000
1010
0000
0010
0100
0010
0100
,
0020
0000
0030
1000
,
0001
0100
0001
0000
1000
0000
0010
0000
,
0100
0001
0100
0000
0010
0000
1000
0000
,
0001
0000
1001
0000
1000
0010
0100
0001
,
0020
0000
0030
0001
,
1000
0010
1000
0000
0001
0000
0100
0000
,
0001
0010
0001
0200
,
0310
0000
1010
0000
1000
0100
0010
0001
,
0200
0000
0300
0010
,
0100
0001
0100
0000
0001
0000
0010
0000
,
0100
1000
0100
0000
0010
0000
0001
0000
,
1000
0000
1001
0000
0001
0010
0001
0100
,
0020
0000
0030
1000
,
0001
0010
0001
0000
0100
0000
0010
0000
,
2000
0000
3200
0000
0310
0001
1000
0010
,
0100
0000
0000
0000
;

//--------------- dance-single - XMOD ----------------
#NOTEDATA:;
#STEPSTYPE:dance-single;
#CREDIT:Braeden;
#DESCRIPTION:XMOD;
#DIFFICULTY:Medium;
#METER:14;
#RADARVALUES:0,0,0,0,0;
#NOTES:
0000
0000
0000
0000
,
0000
0000
0000
0000
,
0000
0000
0000
0000
,
0000
0000
0000
0000
,
1000
0001
0000
1000
0000
0010
0000
0100
,
0000
0001
0000
0010
0000
0001
0000
0100
,
0000
0010
0000
1000
0000
0100
0000
1000
,
0000
0001
0000
0010
0000
0100
0000
1000
,
0000
0010
0000
0100
0000
0001
0000
1000
,
0000
0100
0000
0010
0000
0001
0000
0100
,
0000
0010
0000
1000
0000
0001
0000
0010
,
0000
0100
0000
1000
0001
0010
0100
1000
,
0001
0100
0001
0000
1000
0100
1000
0000
,
0001
0100
0001
0000
0100
0010
0100
0000
,
0001
0010
0001
0000
1000
0100
1000
0000
,
0001
0010
0100
0000
1000
0010
0100
0000
,
0001
0010
0001
0000
1000
0100
0010
0000
,
0001
0100
0010
0000
1000
0001
0010
0000
,
0100
1000
0010
0000
0100
0001
0010
0000
,
0100
1000
0001
0000
1000
0100
0010
0001
,
1000
0100
2000
0000
3001
0100
0020
0000
,
1030
0100
2000
0000
3001
0100
0002
0000
,
1003
0100
0020
0000
0031
0100
0020
0000
,
1030
0001
2000
0000
3001
0010
0100
0010
,
0001
1000
0002
0000
0103
0010
2000
0000
,
3001
0010
0200
0000
1300
0001
2000
0000
,
3001
0010
0200
0000
0310
0001
2000
0000
,
3001
0010
0200
0000
1300
0001
0100
0001
,
1000
0100
0020
0000
0031
0010
0200
0000
,
0310
0001
2000
0000
3001
0010
0200
0000
,
0310
0001
2000
0000
3001
0100
0020
0030
,
1000
0100
0020
0000
0130
0010
0001
0100
,
0001
1000
0020
0000
1030
0100
0020
0000
,
0130
1000
0020
0000
0130
0001
2000
0000
,
3001
0010
0002
0000
0103
0010
2000
0000
,
3001
0010
0002
0000
1003
0100
0010
0001
,
2000
0001
0100
0001
,
3020
0000
0100
0000
2030
0000
3001
1000
,
0002
0100
1000
0100
,
2003
0000
0010
0000
3002
0000
0103
0010
,
1000
0000
0001
0000
0000
1000
0000
0000
0010
0000
0100
0000
0001
0000
0010
0000
,
0100
0000
1000
0000
0000
0010
0000
0000
0100
0000
0001
0000
0010
0000
0100
0000
,
1000
0000
0001
0000
0000
0100
0000
0000
0001
0000
1000
0000
0100
0000
0010
0000
,
0001
0000
1000
0000
0000
0010
0000
0000
0100
0000
0001
0000
0010
0000
0100
0000
,
1000
0010
0002
0000
0013
1000
0002
0000
,
1003
0100
0002
0000
0103
0010
0200
0000
,
1300
0001
0200
0000
1300
0100
0002
0000
,
1003
0010
0002
0000
0013
1000
0001
0100
,
0010
0001
0020
0000
0130
0001
0200
0000
,
1300
0100
0002
0000
1003
0010
0200
0000
,
0301
0010
0200
0000
1300
0010
0200
0000
,
0301
0010
0002
0000
1003
0010
0100
0001
,
1000
0100
1000
0010
0100
0001
1000
0100
,
0010
0001
0010
0001
0010
0001
0100
0010
,
1000
0001
1000
0010
1000
0001
0010
0001
,
1000
0100
0010
0001
0100
0010
1000
0001
,
0010
0100
1000
0010
0100
0001
0010
0100
,
1000
0001
1000
0001
1000
0010
0100
0001
,
1000
0100
0010
0001
1000
0010
0100
0001
,
0010
0100
1000
0010
0100
0001
0200
0000
,
0320
0000
0000
0000
,
0030
0000
0000
0000
,
0000
0000
0000
0000
,
0000
0000
0000
0000
0000
0000
0001
1000
,
0001
0100
0010
1000
,
0001
0010
0100
1000
,
0001
1000
0001
0010
0100
1000
0001
0100
,
0010
1000
0010
0100
0001
0010
0100
1000
,
0002
0000
2003
0000
3001
0100
0001
0010
,
0001
1000
0010
1000
0001
0010
0001
1000
,
0100
0010
0001
0010
0100
1000
0001
0100
,
0001
0010
0100
1000
0001
0100
0001
0010
,
0002
0000
0203
0000
0310
1000
0100
1000
,
0001
0100
0001
0010
0001
1000
0010
1000
,
0001
0100
0010
1000
,
0001
0010
0100
1000
,
0001
1000
0001
0100
,
0010
1000
0100
0010
,
0100
1000
0001
0100
,
0001
0010
0001
0100
,
0001
0000
0101
0000
0100
0010
0100
0001
,
0100
0010
1000
0100
1000
0001
0010
0100
,
1000
0001
1000
0010
1000
0100
1000
0001
,
0100
0010
0100
0001
0010
0100
1000
0001
,
2000
0000
3200
0000
0310
0100
0010
0100
,
1000
0010
1000
0001
0010
0001
0100
0010
,
1000
0001
0010
0100
1000
0001
0100
0010
,
1000
0100
0010
0001
1000
0010
0100
0001
,
2000
0000
3020
0000
0130
0001
0010
0001
,
1000
0100
0010
0001
1000
0010
1000
0001
,
0010
0100
1000
0010
0100
0001
1000
0100
,
0010
0001
0010
0100
1000
0001
1000
0010
,
0200
0000
0302
0000
1003
0100
1000
0001
,
0010
0100
1000
0010
0100
0001
1000
0100
,
0010
0001
0010
0001
0100
0010
0100
0001
,
1000
0100
0010
0001
1000
0010
0100
0001
,
1000
0000
1010
0000
0010
0100
0001
0100
,
0010
0000
1010
0000
1000
0000
0001
0100
,
0001
0100
0001
0010
0001
0100
0010
1000
,
0001
0010
0100
1000
0100
0010
0001
1000
,
0010
0000
1010
0000
1000
0001
0010
0001
,
1000
0000
0110
0000
0001
0000
0010
0100
,
0010
0001
1000
0010
0100
0001
0010
0100
,
1000
0001
0100
0001
0010
0001
1000
0100
,
0010
0000
0011
0000
0001
0100
0010
1000
,
0001
0000
1001
0000
1000
0000
0001
0010
,
0001
0100
0010
1000
0001
0010
0100
1000
,
0100
0010
0001
0010
0100
1000
0001
0100
,
0001
0000
1001
0000
1000
0010
0100
0001
,
1000
0000
0101
0000
1000
0000
0010
0100
,
0001
0010
0100
1000
0100
0010
0001
0100
,
0010
1000
0001
0010
0100
1000
0010
0100
,
0010
0000
0000
0000
;

//--------------- dance-single - XMOD XO+ BU FS+ ----------------
#NOTEDATA:;
#STEPSTYPE:dance-single;
#CREDIT:Braeden;
#DESCRIPTION:XMOD XO+ BU FS+;
#DIFFICULTY:Hard;
#METER:17;
#RADARVALUES:0,0,0,0,0;
#NOTES:
0000
0000
0000
0000
,
0000
0000
0000
0000
,
0000
0000
0000
0000
,
0000
0000
0000
0002
,
1003
0010
0100
0001
0010
0001
0100
0001
,
0100
1000
0100
1000
0100
0001
0010
0001
,
0100
0010
1000
0001
0100
0001
1000
0001
,
0010
0100
1000
0100
0010
0100
1000
0100
,
0010
0001
1000
0100
0010
0100
0001
0100
,
0010
0100
1000
0010
0001
0010
0100
0010
,
1000
0001
1000
0100
0010
0001
0100
0010
,
0100
0000
0010
0000
1000
0000
0001
0000
1000
0100
0010
0001
1000
0010
0100
0001
,
1000
0100
1000
0010
0M00
0010
0001
0100
,
00M0
0100
1000
0010
0000
0010
0001
1000
,
0000
1000
0001
0100
00M0
0100
1000
0010
,
0M00
0010
0001
1000
0000
1000
0010
0100
,
000M
0100
1000
0001
0000
0001
0100
0010
,
M000
0010
0001
1000
0000
1000
0100
0001
,
0000
0001
0100
1000
0000
0010
0100
0001
,
0100
0000
0010
0000
0100
0000
0000
0000
0001
0010
0100
1000
0001
0100
0010
1000
,
0001
0100
0001
0100
1000
0100
1000
0100
,
0001
0100
0001
0100
1000
0100
1000
0100
,
0001
0010
0001
0010
1000
0010
1000
0010
,
0001
0000
0010
0000
0001
0000
0010
0000
0100
0000
1000
0000
0100
0000
1000
0001
,
1000
0100
1000
0100
0001
0100
0001
0100
,
1000
0100
1000
0100
0001
0100
0001
0100
,
1000
0010
1000
0010
0001
0010
0001
0010
,
1000
0000
0010
0000
1000
0000
0100
0000
0010
0001
1000
0001
0040
0000
0000
0000
,
0031
0100
0010
0100
0001
1000
0100
1000
,
0001
0100
0010
0100
0001
1000
0100
1000
,
0001
1000
0100
0010
0001
1000
0010
1000
,
0001
0000
1000
0000
0100
0000
0010
0000
0001
0000
1000
0000
0001
0000
0100
0010
,
0100
0001
0100
1000
0100
0001
0100
1000
,
0001
0010
1000
0010
0001
0010
1000
0010
,
0001
0100
0001
0010
0001
1000
0100
1000
,
0001
0000
0010
0000
0001
0000
0100
0000
0001
0010
0100
1000
0004
0000
0000
0000
,
2003
0010
0100
0001
,
3020
0000
0130
0000
0002
0000
0103
0010
,
2000
0001
0010
0001
,
3200
0000
0310
0000
2000
0000
3100
0010
,
0100
0000
1000
0000
0000
0010
0000
0000
0100
0000
0001
0010
0001
0100
0010
0000
,
1000
0000
0001
0000
1000
0010
0000
1000
0010
0000
0100
0001
0100
0010
0100
0000
,
0001
0000
0001
0000
0010
0100
0000
1000
0100
0000
0010
0001
0010
0001
0100
0000
,
0010
0000
1000
0000
0000
0010
0000
0100
0001
0000
1000
0100
1000
0100
0010
0000
,
0001
0000
0100
00M0
0100
0000
1000
0000
0001
0000
0010
0M00
0010
0000
1000
0000
,
0001
0000
0100
00M0
0100
0000
1000
0000
0001
0000
0010
0M00
0010
0000
1000
0000
,
0001
0000
0100
00M0
0100
0000
1000
0000
0001
0000
0100
00M0
0100
0000
1000
0000
,
0001
0000
0010
0M00
0010
0000
1000
0000
0001
0000
0100
0000
0010
0000
1000
0001
,
1000
0000
0100
00M0
0100
0000
0001
0000
1000
0000
0010
0M00
0010
0000
0001
0000
,
1000
0000
0100
00M0
0100
0000
0001
0000
1000
0000
0010
0M00
0010
0000
0001
0000
,
1000
0000
0100
000M
0100
0000
0010
0000
1000
0000
0100
000M
0100
0000
0010
0000
,
1000
0000
0010
000M
0010
0000
0100
0000
1000
0001
0100
0010
4000
0000
0000
0000
,
3001
0100
0001
0100
0001
0000
0100
0000
0010
0000
0100
0000
0010
0000
0100
0000
,
0010
1000
0010
1000
0010
0000
1000
0000
0100
0000
1000
0000
0100
0000
1000
0000
,
0001
0100
0010
0100
0001
0000
0100
0000
0010
0000
0100
0000
0001
0000
0100
0000
,
0010
1000
0010
1000
0010
0000
1000
0000
0100
0000
0010
0000
0001
0000
1000
0000
,
0001
0010
0100
1000
0001
0100
0010
1000
0002
0000
0000
0000
1003
0000
0000
0000
,
0001
0010
0100
1000
0001
0100
0010
1000
0002
0000
0000
0000
2003
0000
0000
0000
,
3001
0100
0010
1000
0001
0010
0100
1000
0002
0000
0000
0000
0103
0000
0000
0000
,
0001
0010
0100
1000
0100
0010
0001
1000
0010
0100
0001
0100
0040
0000
0030
0000
,
2020
0000
0000
3030
,
0000
0000
0000
0000
,
0000
0000
0000
0000
,
0000
0000
0000
0000
0000
0000
0000
0000
0000
0000
0000
0000
1000
0100
0010
0001
,
1000
0100
1000
0010
1000
0100
0010
0001
,
0100
0000
0010
0000
1000
0000
0001
0000
1000
0000
0010
0000
0100
0000
0001
1000
,
0001
0000
1000
0000
0010
0000
0100
0000
0100
0000
0001
0010
0001
0000
0100
0000
,
0001
0000
0100
0000
1000
0000
0100
0000
0001
0000
1000
0010
0100
0000
0001
0000
,
2000
0000
3002
0000
1003
0010
1000
0001
,
1000
0000
0100
0000
0001
0000
0100
0000
1000
0000
0010
0000
1000
0000
0001
0100
,
0010
0000
0100
0000
0001
0000
0100
0000
0010
0000
1000
0100
1000
0000
0100
0000
,
0010
0000
0001
0000
0100
0000
0010
0000
1000
0000
0001
0100
0010
0000
1000
0000
,
0001
0000
0100
0000
0010
0100
0010
0100
,
0001
0000
0100
00M0
0100
0000
1000
0000
0010
0000
0100
0000
0001
0000
1000
0010
,
1000
0000
0001
0000
0100
0000
0010
0000
1000
0000
0001
0010
0001
0000
0100
0000
,
0010
0000
0100
0000
0010
0000
0100
0000
0001
0000
1000
0100
0010
0000
0001
0000
,
1000
0000
0001
0000
0100
0010
0100
0010
,
1000
0000
0100
0000
1000
0000
0010
0000
0100
0000
0001
0000
0100
0000
0010
1000
,
0010
0000
1000
0000
0100
0000
0010
0000
0001
0000
0010
0100
1000
0000
0010
0000
,
0100
0000
0001
0000
0001
0000
0100
0000
0010
0000
1000
0001
1000
0000
0010
0000
,
0100
0000
0101
0000
0001
0100
0010
0100
,
0001
0000
0100
00M0
0100
0000
1000
0000
0001
0000
0100
00M0
0100
0000
1000
0001
,
1000
0000
0001
0000
0010
0000
0100
0000
1000
0000
0010
0100
0010
0000
1000
0000
,
0001
0000
0100
0000
0001
0000
0100
0000
0001
0000
1000
0010
1000
0000
0001
0100
,
0010
0000
1010
0000
1000
0010
1000
0010
,
0100
0000
0010
0000
0M10
0000
0001
0000
1000
0000
0100
0000
0010
0000
0001
1000
,
0001
0000
0100
0000
1000
0000
0100
0000
0001
0000
1000
0010
0100
0000
0001
0000
,
2000
3020
0230
0302
2003
3010
0200
0301
,
1000
0000
1010
0000
0010
0100
0010
0100
,
0001
0000
0100
00M0
0100
0000
1000
0000
0001
0000
0010
0M00
0010
0000
1000
0001
,
1000
0000
0100
0000
0001
0000
0100
0000
1000
0000
0001
0100
0001
0000
1000
0000
,
0001
0000
0100
0000
1000
0000
0100
0000
0010
0000
1000
0001
1000
0000
0001
0100
,
0010
1000
0010
1000
0100
0010
0001
0010
,
0001
0000
0100
00M0
0100
0000
1000
0000
0001
0000
0100
00M0
0100
0000
1000
0001
,
1000
0000
0010
0000
0100
0000
0010
0000
1000
0000
0100
0010
0100
0000
1000
0000
,
0001
0000
0010
0000
0100
0000
1000
0000
0001
0010
0100
1000
0040
0000
0000
0000
,
1030
0010
0100
0001
1000
0100
1000
0001
,
0200
0000
0000
0000
0301
0000
0010
0000
0100
0000
1000
0000
0001
0000
1000
0100
,
0010
0000
0001
0000
0010
0000
0100
0000
0010
0000
0001
0100
0010
0000
1000
0000
,
0001
0000
0100
0000
1000
0000
0100
0000
0001
0000
1000
0100
0010
0000
0001
1000
,
0001
0000
1001
0000
1000
0010
0001
0010
,
2000
0000
0000
0000
3010
0000
0000
0000
1000
0000
0001
0000
0100
0000
0001
0010
,
0100
0000
1000
0000
0100
0000
0010
0000
0100
0000
1000
0001
1000
0000
0010
0000
,
0100
0000
0001
0000
0100
0000
0010
0000
1000
0100
0010
0001
0040
0000
0000
0000
,
0130
0010
0001
0010
0100
1000
0100
0010
,
0001
0000
0000
0000
0101
0000
0000
0000
0100
0000
0000
0000
0001
0000
1000
0010
,
0100
0000
0001
0000
0010
0000
0100
0000
0010
0000
0001
1000
0001
0000
1000
0000
,
0001
0000
0010
0000
0100
0000
1000
0000
0100
0000
1000
0010
1000
0000
0001
1000
,
0002
0000
1003
0000
0001
0010
0100
1000
,
0001
0000
0000
0000
1001
0000
0000
0000
0001
0000
0000
0000
0100
0000
0001
1000
,
0001
0000
0010
0000
0100
0000
0010
0000
0001
0000
0100
0010
0100
0000
0001
0000
,
0400
0000
0000
0000
0304
0000
0000
0000
0013
0000
0001
0100
0001
0000
1000
0001
,
0200
0000
0300
0000
;

//--------------- dance-single - XMOD STR 8 XO+ FS JA SJ ----------------
#NOTEDATA:;
#STEPSTYPE:dance-single;
#CREDIT:Braeden;
#DESCRIPTION:XMOD STR 8 XO+ FS JA SJ;
#DIFFICULTY:Challenge;
#METER:19;
#RADARVALUES:1,1,0,0.902,0.802;
#NOTES:
0000
0000
0000
0000
,
0000
0000
0000
0000
,
0000
0000
0000
0000
,
0000
0000
0000
0000
0000
0000
0000
0000
0000
0000
0000
0000
0000
0000
0000
0000
0000
0000
0000
0000
0000
0000
0000
0000
0001
0100
0010
1000
0010
0100
0001
1000
,
0001
0100
0001
0100
0010
1000
0010
1000
,
0001
1000
0100
1000
0001
1000
0010
0100
,
0001
0100
0010
0100
0001
1000
0100
0010
,
0001
1000
0010
0100
0001
1000
0100
0001
,
0100
1000
0100
0001
0100
1000
0010
0001
,
0010
1000
0010
0001
0010
1000
0100
0001
,
0100
0010
0001
0100
1000
0100
0010
1000
,
0001
0000
0010
0000
0100
0000
1000
0000
0001
0100
0001
1000
0100
0010
0001
1000
,
0001
0100
0101
0001
1000
0010
1010
1000
,
0001
0100
0110
0010
1000
0100
1100
1000
,
0001
0100
0110
0010
1000
0100
1100
1000
,
0001
1000
1010
0010
0100
0001
0011
0010
,
0100
1000
1100
0100
0010
0001
1001
1000
,
0010
0100
0101
0001
0010
0100
1100
1000
,
0001
0100
0110
0010
1000
0100
0001
0100
,
1000
0000
1000
0000
1000
0000
0000
0000
0001
0010
0100
1000
0001
0100
0010
1000
,
0001
0100
0001
0100
1000
0100
1000
0100
,
0001
0010
0001
0010
1000
0010
1000
0010
,
0001
0100
0010
0100
1000
0100
0010
0100
,
0001
0000
0010
0000
1000
0000
0010
0000
0001
0000
0010
0000
0100
0000
0010
0001
,
1000
0100
1000
0010
0100
0001
0100
0001
,
1000
0100
1000
0010
0100
0001
0100
0001
,
1000
0100
1000
0100
0010
0001
0010
0001
,
1000
0000
0010
0000
1000
0000
0010
0000
0100
0001
0100
0010
1000
0001
0010
0100
,
1000
0100
1000
0100
0001
0100
0001
0100
,
1000
0010
1000
0010
0001
0010
0001
0010
,
1000
0100
0001
0100
0010
0100
1000
0001
,
1000
0000
0010
0000
0001
0000
0010
0000
1000
0000
0100
0000
0010
0000
0001
0100
,
0001
0010
0001
0100
0001
0010
0001
1000
,
0010
0100
0010
1000
0010
0100
0010
1000
,
0001
0010
0001
0010
0100
1000
0100
1000
,
0001
0000
0010
0000
0100
0000
0010
0000
0001
0100
0001
0010
0100
1000
0001
1000
,
0002
1000
0010
1000
,
0203
0000
0010
0000
1000
0000
1300
0010
,
2000
0001
0100
0010
,
3200
0000
0001
0000
1000
0000
1300
0001
,
0100
0000
0000
0000
0100
0000
0000
0000
0100
0000
0000
0000
0001
1000
0001
1000
0001
0000
0000
0000
0100
0000
0100
0000
0010
1000
0010
1000
0001
0000
0000
0000
,
2000
0000
0000
0000
0001
0000
0000
0000
3000
0000
1000
0000
0000
0000
0010
0000
0100
0000
0000
0000
0001
0010
0100
1000
0001
0100
0010
1000
0002
0000
0000
0000
,
2003
0000
0000
0000
0001
0000
0000
0000
3000
0000
0100
0000
0000
0010
1000
0001
1000
0000
0000
0000
0100
0000
0010
0000
0001
0100
0010
0100
0001
0000
0000
0000
,
2000
0000
0000
0000
0001
0000
0000
0000
3000
0000
0100
0000
0000
0000
0010
0000
0100
0000
0000
0000
0001
0010
0100
1000
0001
0100
0010
1000
0010
0000
0000
0000
,
1000
0000
0100
00M0
0100
0000
0001
0000
1000
0000
0010
0M00
0010
0000
0001
0000
,
1000
0000
0100
00M0
0100
0000
0001
0000
1000
0000
0010
0M00
0010
0000
0001
0000
,
1000
0000
0100
00M0
0100
0000
0001
0000
1000
0000
0010
000M
0010
0000
0100
0000
,
1000
0000
0010
000M
0010
0000
0100
0000
1000
0000
0001
0000
0100
0000
0010
1000
,
0001
0000
0100
00M0
0100
0000
1000
0000
0001
0000
0010
0M00
0010
0000
1000
0000
,
0001
0000
0100
M000
0100
0000
0010
0000
0001
0000
0010
000M
0010
0000
0100
0000
,
0001
0000
0100
00M0
0100
0000
1000
0000
0001
0000
0010
0M00
0010
0000
1000
0000
,
0001
0000
0100
0000
0001
0000
1000
0000
0001
0010
0100
1000
0001
0100
0010
1000
,
0001
0100
0001
0100
0010
1000
0010
1000
0001
0010
0100
1000
0001
0100
0010
1000
,
0001
0010
0001
0100
0010
1000
0100
1000
0001
0010
0100
1000
0001
0100
0010
0100
,
0001
1000
0100
0010
0001
0100
0010
1000
0001
0010
0100
1000
0001
0100
0001
0010
,
0100
1000
0001
0100
0010
1000
0100
0010
0001
0100
0010
1000
0001
0010
0100
1000
,
0001
0100
0010
0100
0001
1000
0100
0010
0001
1000
0010
0100
0001
0010
0100
1000
,
0100
0010
0001
0100
0010
1000
0001
0010
0100
1000
0001
1000
0100
0010
0001
0100
,
0010
1000
0001
1000
0001
0010
0100
1000
0001
0100
0010
1000
0001
0010
0100
1000
,
0100
0010
0001
1000
0001
0100
0010
0100
0001
1000
0100
0010
0001
0100
0001
0100
,
0020
0000
0000
0030
,
2000
0000
3002
0000
,
0203
0000
0320
0000
,
2030
0000
0000
0000
0000
0000
0000
0000
0000
0000
0000
0000
0000
0000
0000
0000
3001
0000
0000
0000
0000
0000
0000
0000
0100
0010
0100
0001
1000
0100
0010
0001
,
1000
0100
1000
0010
1000
0100
0010
0001
,
0100
0000
0010
0000
1000
0000
0001
0000
1000
0000
0010
0000
0100
0000
0001
1000
,
0001
0000
1000
0000
0010
0000
0100
0000
0100
0000
0001
0010
0001
0000
0100
0000
,
0001
0000
0100
0000
1000
0000
0100
0000
0001
0000
1000
0010
0100
0000
0001
0000
,
0011
0000
0101
0000
0110
0010
1000
0001
,
1000
0000
0100
0000
0001
0000
0100
0000
1000
0000
0010
0000
1000
0000
0001
0100
,
0010
0000
0100
0000
0001
0000
0100
0000
0010
0000
1000
0100
1000
0000
0100
0000
,
0010
0000
0001
0000
0100
0000
0010
0000
1000
0000
0001
0100
0010
0000
1000
0000
,
0001
0000
0100
0000
0010
0100
0100
0100
,
0001
0000
0100
00M0
0100
0000
1000
0000
0010
0000
0100
0000
0001
0000
1000
0010
,
1000
0000
0001
0000
0100
0000
0010
0000
1000
0000
0001
0010
0001
0000
0100
0000
,
0010
0000
0100
0000
0010
0000
0100
0000
0001
0000
1000
0100
0010
0000
0001
0000
,
1000
0000
0001
0000
0100
0010
0010
0010
,
1000
0000
0100
0000
1000
0000
0010
0000
0100
0000
0001
0000
0100
0000
0010
1000
,
0010
0000
1000
0000
0100
0000
0010
0000
0001
0000
0010
0100
1000
0000
0010
0000
,
0100
0000
0001
0000
0001
0000
0100
0000
0010
0000
1000
0001
1000
0000
0010
0000
,
0100
0000
0101
0000
0001
0100
0100
0100
,
0001
0000
0100
00M0
0100
0000
1000
0000
0001
0000
0100
00M0
0100
0000
1000
0001
,
1000
0000
0100
0000
0001
0000
0100
0000
1000
0000
0010
0100
0010
0000
1000
0000
,
0001
0000
0100
0000
0001
0000
0100
0000
0001
0000
1000
0010
1000
0000
0001
0100
,
0010
0000
1010
0000
1000
0010
0010
0010
,
0100
0000
0010
0000
0M10
0000
0001
0000
1000
0000
0100
0000
0010
0000
0001
1000
,
0001
0000
0100
0000
1000
0000
0100
0000
0001
0000
1000
0010
0100
0000
0001
0000
,
2000
3020
0230
0302
2003
3010
0200
0301
,
1001
0000
1010
0000
0110
0100
0100
0100
,
0001
0000
0100
00M0
0100
0000
1000
0000
0001
0000
0010
0M00
0010
0000
1000
0001
,
1000
0000
0100
0000
0001
0000
0100
0000
1000
0000
0001
0100
0001
0000
1000
0000
,
0001
0000
0100
0000
1000
0000
0100
0000
0010
0000
1000
0001
1000
0000
0001
0100
,
0010
1000
1010
0010
0100
0001
0001
0001
,
1000
0000
0100
00M0
0100
0000
0001
0000
1000
0000
0100
00M0
0100
0000
0001
1000
,
0001
0000
0010
0000
1000
0000
0010
0000
0001
0000
0100
0010
0100
0000
0001
0000
,
1000
0000
0100
0000
0010
0000
0001
0000
1000
0010
0100
0001
1000
0010
1000
0001
,
1000
0010
1010
1000
0001
0001
0100
0100
,
0010
0000
1000
0000
1010
0000
0010
0000
0100
0000
0001
0000
1000
0000
0001
0100
,
0010
0000
1000
0000
0010
0000
0100
0000
0010
0000
1000
0100
0010
0000
0001
0000
,
1000
0000
0100
0000
0001
0000
0100
0000
1000
0000
0001
0100
0010
0000
1000
0001
,
1000
0000
0100
00M0
0100
0000
0010
0000
1000
0000
0010
0000
0001
0000
0010
0000
,
1000
0000
0100
0000
0010
0000
0001
0000
1000
0000
0001
0000
0100
0000
0001
0010
,
0100
0000
1000
0000
0100
0000
0001
0000
0100
0000
1000
0001
1000
0000
0010
0000
,
0100
0000
0001
0000
0100
0000
0010
0000
1000
0100
0010
0001
1000
0010
0100
0001
,
1000
0100
1000
0010
0100
0001
0100
0010
,
0001
0000
0010
0000
0100
0000
0010
0000
1000
0000
0001
0000
1000
0000
0001
0010
,
0100
0000
1000
0000
0010
0000
0001
0000
0010
0000
1000
0001
1000
0000
0001
0000
,
1000
0000
0010
0000
0100
0000
0001
0000
0100
0000
0001
0010
0100
0000
1000
0001
,
1000
0100
0001
0100
1000
0010
0100
1000
,
0100
0000
0010
0000
1000
0000
0001
0000
1000
0000
0010
0000
0100
0000
0001
1000
,
0001
0000
0010
0000
1000
0000
0010
0000
0001
0000
0100
0010
0100
0000
0001
0000
,
1000
0100
0010
0001
1000
0001
0100
0010
1000
0000
0001
0100
0001
0000
1000
0001
,
0200
0000
0300
0000
;

//--------------- dance-double - XMOD STR 4 XO+ FS ----------------
#NOTEDATA:;
#STEPSTYPE:dance-double;
#CREDIT:Braeden;
#DESCRIPTION:XMOD STR 4 XO+ FS;
#DIFFICULTY:Hard;
#METER:18;
#RADARVALUES:0,0,0,0,0;
#NOTES:
00000000
00000000
00000000
00000000
,
00000000
00000000
00000000
00000000
,
00000000
00000000
00000000
00000000
,
00000000
00000000
00000000
00000000
00000000
00000000
00000000
00000000
00000000
00000000
00000000
00000000
00010000
00001000
00010000
00001000
,
01000000
01000000
00100000
01000000
10000000
01000000
00100000
01000000
,
00010000
01000000
10000000
01000000
00010000
00001000
00000010
00000001
,
00000010
00000100
00000010
00000001
00000010
00001000
00000100
00000010
,
00000001
00000010
00000100
00001000
00000100
00010000
00001000
00010000
,
00001000
01000000
00010000
01000000
10000000
01000000
00100000
01000000
,
00100000
01000000
00010000
00100000
00001000
00010000
00000100
00001000
,
00010000
00001000
00000100
00001000
00000010
00000100
00001000
00000100
,
00000010
00000000
00000100
00000000
00000001
00000000
00001000
00000000
00000100
00001000
00000010
00001000
00000001
00000010
00000100
00001000
,
00000010
00010000
00011000
00000000
00001000
00100000
00110000
00000000
,
00010000
10000000
10100000
00000000
00100000
01000000
01010000
00000000
,
00010000
00100000
00101000
00000000
00001000
00010000
00010010
00000000
,
00000010
00000100
00001001
00000000
00000010
00000100
00001001
00000000
,
00000001
00001000
00000100
00001000
00010000
00001000
00000100
00001000
,
00000010
00000100
00000001
00000100
00000010
00010000
00001000
00010000
,
00001000
01000000
00010000
00100000
01000000
10000000
01000000
00100000
,
00010000
00000000
10000000
00000000
00010000
00000000
00000000
00000000
10000000
01000000
00100000
00010000
10000000
00100000
01000000
00010000
,
10000000
01000000
00010000
01000000
00100000
00001000
00010000
00000100
,
00001000
00000010
00000001
00000010
00001000
00000100
00010000
00001000
,
01000000
00100000
00010000
00100000
10000000
00010000
00100000
00001000
,
00010000
00000000
00000010
00000000
00001000
00000000
00000001
00000000
00001000
00000000
00000010
00000000
00010000
00000000
00001000
00010000
,
00001000
00010000
00000100
00010000
00001000
00000010
00000100
00000010
,
00000001
00001000
00000100
00000010
00000100
00010000
00001000
01000000
,
00100000
00010000
00100000
01000000
00010000
00100000
00001000
00010000
,
00001000
00000000
00010000
00000000
00000100
00000000
00010000
00000000
00000010
00001000
00000010
00000100
00000001
00000100
00000010
00001000
,
00000001
00000000
00000100
000000M0
00000100
00000000
00001000
00000000
00010000
00000000
00100000
00000000
01000000
00000000
10000000
00000000
,
00010000
00000000
01000000
00M00000
01000000
00000000
10000000
00000000
00010000
00000000
00100000
00000000
01000000
00000000
00100000
00000000
,
00000100
00000000
00001000
M0000000
00001000
00000000
00010000
00000000
00000010
00000000
00000100
00000000
00000001
00000000
00000100
00000000
,
00000001
00000000
00001000
00000000
00000010
0000000M
00000010
00000000
00000100
00000000
00001000
00000000
00000010
00000000
00010000
00001000
,
00010000
00000000
00000100
000000M0
00000100
00000000
00000001
00000000
00000010
00000000
00000100
00000000
00001000
00000000
00010000
00000000
,
00100000
00000000
01000000
M0000000
01000000
00000000
00010000
00000000
00100000
00000000
00001000
00000000
00010000
00000000
00000010
00000000
,
00001000
00000000
00000001
00000000
00000010
000M0000
00000010
00000000
00000100
00000000
00000001
00000000
00001000
00000000
00000010
00000000
,
00001000
00000000
00000010
00000M00
00000010
00000000
00000001
00000000
00001000
00000100
00010000
00001000
00010000
00000100
00001000
00000100
,
00020000
00000000
00032000
00000000
02003000
00000000
0320MMM0
0000M00M
,
2030MMMM
0000M00M
3002MMM0
00000000
0203M00M
0000M00M
03100MM0
10000MM0
,
00020MM0
00000000
2003MMMM
0000M000
3020MMMM
0000M000
0230MMMM
00000000
,
03020000
00000000
00130000
00000000
00001000
00000000
00010000
00000010
,
00001000
00000000
00000001
00000000
00001000
00000010
00001000
00000100
00001000
00000000
00000100
00010000
00001000
01000000
00100000
00000000
,
01000000
00000000
01000000
00000000
00100000
10000000
00000000
00010000
01000000
00000000
00100000
10000000
00010000
00100000
00001000
00000000
,
00010000
00000000
00010000
00000000
00001000
00100000
00010000
00100000
00010000
00000000
00100000
00001000
00010000
00000010
00000100
00000000
,
00000001
00000000
00001000
00000000
00000010
00001000
00000000
00000010
00001000
00000000
00000001
00001000
00000010
00001000
00000001
00000000
,
00010000
00001000
00100000
01000000
00100000
00001000
00010000
00000100
,
00000010
00000100
00010000
00001000
00010000
00000010
00000100
00000010
,
00001000
00000001
00000010
00000100
00001000
00010000
00100000
01000000
,
10000000
00000000
01000000
00000000
00100000
00000000
00010000
00000000
00001000
00000000
00000100
00000000
00000010
00000000
00000001
00001000
,
00000100
00000010
00000001
00000100
00001000
00010000
00100000
10000000
,
00010000
10000000
01000000
00010000
00001000
00000100
00000001
00001000
,
00000010
00000100
00001000
00000100
00000010
00010000
00001000
01000000
,
00100000
00000000
00010000
00000000
00100000
00000000
10000000
00000000
00010000
00100000
01000000
10000000
00010000
01000000
00100000
10000000
,
00010000
01000000
00010000
01000000
00010000
00000000
00000000
00000000
10000000
01000000
10000000
01000000
10000000
00000000
00000000
00000000
,
00010000
00100000
00010000
00100000
00010000
00000000
00000000
00000000
00100000
00001000
00100000
00001000
00100000
00000000
00000000
00000000
,
00001000
00010000
00000100
00010000
00001000
00000000
00000000
00000000
00010000
00000100
00001000
00000100
00001000
00000000
00000000
00000000
,
00000001
00000010
00000100
00001000
00000001
00000000
00000000
00000000
00001000
00000010
00000100
00000001
00001000
00000000
00000010
00000000
,
00001000
00000100
00000010
00000001
00000100
00000010
00001000
00000001
00000010
00000100
00001000
00000010
00000100
00000001
00000010
00000001
,
00000100
00000010
00001000
00000010
00000100
00000001
00000010
00000100
00001000
00000010
00000100
00000010
00010000
00000100
00001000
00000100
,
00010000
00001000
00100000
00010000
01000000
00010000
01000000
00100000
10000000
01000000
00100000
00010000
00100000
01000000
10000000
00010000
,
01000000
00100000
10000000
00010000
00100000
01000000
10000000
00010000
01000000
00010000
10000000
01000000
00100000
00010000
10000000
00100000
,
20000000
00000000
00000000
00000000
,
30000000
00000000
00000000
00000000
,
00000000
00000000
00000000
00000000
,
00000000
00000000
00000000
00000000
00000000
00000000
00000000
00000000
00000000
00000000
00000000
00000000
00000001
00001000
00000010
00001000
,
00000001
00000010
00000001
00000010
00000100
00001000
00000100
00001000
,
00000010
00010000
00001000
00010000
00000100
00100000
00010000
00100000
,
00010000
10000000
00100000
01000000
00010000
00100000
01000000
10000000
,
00100000
00000000
01000000
00000000
00100000
00000000
10000000
00000000
00010000
00000000
01000000
00100000
01000000
00000000
00100000
00000000
,
10100000
00000000
11000000
00000000
10000000
01000000
00100000
01000000
,
10000000
00000000
00100000
0M000000
00100000
00000000
00010000
00000000
01000000
00000000
00001000
00000000
00010000
00000000
00001000
00010000
,
00001000
00000000
00010000
00000000
00000010
00000000
00001000
00000000
00000100
00000000
00001000
00000001
00001000
00000000
00000010
00000000
,
00000100
00000000
00000001
00000000
00000100
00000000
00000010
00000000
00000100
00000000
00000010
00001000
00000010
00000000
00001000
00000000
,
00000010
00000000
00010010
00000000
00010000
00001000
00010000
00001000
,
10000000
00000000
00100000
00000M00
00100000
00000000
00010000
00000000
10000000
00000000
00010000
00000000
01000000
00000000
00001000
00010000
,
00001000
00000000
00010000
00000000
00000100
00000000
00001000
00000000
00000100
00000000
00001000
00000001
00001000
00000000
00000001
00000000
,
00000100
00000000
00000010
00000000
00001000
00000000
00000001
00000000
00000010
00000000
00000100
00001000
00000100
00000000
00000010
00000000
,
00000001
00000000
00001000
00000000
00000001
00001000
00000001
00001000
,
00000010
00000000
00001000
00000000
00000001
00000000
00000100
00000000
00000001
00000000
00000010
00000000
00000100
00000000
00001000
00000010
,
00001000
00000000
00000001
00000000
00000100
00000000
00000010
00000000
00001000
00000000
00000001
00000100
00000001
00000000
00001000
00000000
,
00000001
00000000
00000100
00000000
00000100
00000000
00000010
00000000
00001000
00000000
00000100
00010000
00000100
00000000
00010000
00000000
,
00001000
00000000
00101000
00000000
00100000
00010000
00100000
01000000
,
01000000
00000000
10000000
00000000
00010000
00000000
01000000
00000000
00100000
00000000
10000000
00000000
00100000
00000000
01000000
00010000
,
10000000
00000000
00100000
00000000
01000000
00000000
00001000
00000000
00010000
00000000
00000010
00001000
00000010
00000000
00000100
00000000
,
00000001
00000000
00000100
00000000
00001000
00000000
00010000
00000000
01000000
00000000
10000000
00010000
10000000
00000000
00010000
01000000
,
00010000
00000000
01010000
00000000
01000000
00001000
00010000
00001000
,
00010000
00000000
00010000
00000000
00001000
00000000
00010000
00000000
00000100
00000000
00001000
00000000
00001000
00000000
00000001
00000100
,
00000010
00000100
00000001
00000100
00001000
00000100
00000010
00010000
,
00002000
00023000
00032000
00203000
00302000
00013000
00001000
01000000
,
00010000
00000000
01010000
00000000
00100000
10000000
00100000
01000000
,
00010000
00000000
00100000
00000000
00100000
00000000
00010000
00000000
01000000
00000000
00100000
00000000
10000000
00000000
00010000
00100000
,
01000000
00000000
00100000
00000000
00001000
00000000
00010000
00000000
00000010
00000000
00000100
00000010
00000100
00000000
00000001
00000000
,
00001000
00000000
00000010
00000000
00000100
00000000
00000001
00000000
00001000
00000000
00000010
00010000
00000010
00000000
00010000
00001000
,
00010000
00000000
00011000
00000000
00001000
01000000
00100000
00010000
,
00100000
00000000
10000000
00000000
10000000
00000000
00010000
00000000
01000000
00000000
00100000
00000000
01000000
00000000
00010000
10000000
,
00100000
00000000
01000000
00000000
00010000
00000000
00100000
00000000
01000000
00000000
10000000
00010000
01000000
00000000
00001000
00000000
,
00010000
00000000
00001000
00000000
00100000
00000000
00001000
00000000
00010000
00000100
00010000
00000100
00001000
00000010
00001000
00000010
,
00000100
00000000
00000110
00000000
00000010
00001000
00000001
00001000
,
00000020
00000000
00000000
00000000
00001030
00000000
00000000
00000000
00000000
00000000
00000000
00000000
00001000
00000000
00000001
00001000
,
00000010
00000000
00000100
00000000
00000001
00000000
00000100
00000000
00000010
00000000
00001000
00000001
00001000
00000000
00000100
00000000
,
00010000
00000000
00001000
00000000
00010000
00000000
00001000
00000000
00100000
00000000
00010000
10000000
01000000
00000000
10000000
00010000
,
10000000
00000000
01010000
00000000
01000000
00001000
00010000
00001000
,
00200000
00000000
00000000
00000000
00301000
00000000
00000000
00000000
00000000
00000000
00000000
00000000
00010000
00000000
00000010
00000100
,
00000010
00000000
00000100
00000000
00000001
00000000
00001000
00000000
00000010
00000000
00010000
00001000
00010000
00000000
00001000
00000000
,
01000000
00000000
01000000
00000000
00100000
00000000
10000000
00000000
00010000
00100000
01000000
10000000
00010000
01000000
00100000
10000000
,
00010000
01000000
00100000
00010000
00100000
10000000
00010000
00100000
,
00002000
00000000
00000000
00000000
00013000
00000000
00000000
00000000
00000000
00000000
00000000
00000000
00000010
00000000
00001000
00000100
,
00001000
00000000
00000100
00000000
00000001
00000000
00000100
00000000
00001000
00000000
00000001
00000100
00000001
00000000
00000100
00000000
,
00000010
00000000
00001000
00000000
00000100
00000000
00010000
00000000
00001000
00000000
01000000
00100000
01000000
00000000
00001000
01000000
,
00010000
00000000
00110000
00000000
00100000
00001000
00010000
00000100
,
00200000
00000000
00000000
00000000
00301000
00000000
00000000
00000000
00000000
00000000
00000000
00000000
00010000
00000000
00000010
00000100
,
00000001
00000000
00000100
00000000
00000010
00000000
00000100
00000000
00000010
00000000
00001000
00000001
00001000
00000000
00000010
00000000
,
00001000
00000100
00010000
00001000
00010000
00001000
00010000
00000100
,
00002000
00000000
00003000
00000000
;
