#TITLE:ないない;
#SUBTITLE:;
#ARTIST:ReoNa;
#TITLETRANSLIT:Nainai;
#SUBTITLETRANSLIT:;
#ARTISTTRANSLIT:;
#GENRE:;
#CREDIT:;
#BANNER:Nainai-banner.avi;
#BACKGROUND:Nainai-bg.png;
#LYRICSPATH:Nainai.lrc;
#CDTITLE:;
#MUSIC:Nainai.ogg;
#OFFSET:-0.025000;
#SAMPLESTART:51.000000;
#SAMPLELENGTH:18.920000;
#SELECTABLE:YES;
#BPMS:0.000000=130.000000
;
#STOPS:46.000000=-6.461538,
60.000000=-4.614923,
246.000000=-2.769231,
252.000000=-1.384154
;
#BGCHANGES:0.000=Nainai.avi=1.000=0=0=0=StretchNoLoop====,
99999=-nosongbg-=1.000=0=0=0 // don't automatically add -songbackground-
;
#KEYSOUNDS:;
#ATTACKS:;

//---------------dance-single - ----------------
#NOTES:
     dance-single:
     :
     Beginner:
     2:
     0.104651,0.152416,0.038556,0.000000,0.000000,76.000000,72.000000,4.000000,0.000000,0.000000,0.000000,0.104651,0.152416,0.038556,0.000000,0.000000,76.000000,72.000000,4.000000,0.000000,0.000000,0.000000:
0000
0000
0000
0000
,
0000
0000
0000
0000
,
0000
0000
0000
0000
,
0000
0000
0000
0000
,
0001
0000
0000
0000
,
1000
0000
1000
0000
,
1000
0000
0000
0000
,
0010
0000
0000
0000
,
0100
0000
0100
0000
,
0100
0000
0000
0000
,
0001
0000
0001
0000
,
0001
0000
0000
0000
,
0000
0000
0000
0000
,
0000
0000
0000
0000
,
0000
0000
0000
0000
,
0000
M000
0000
0000
,
0000
00M0
0000
00M0
,
0000
00M0
0000
0000
,
1000
0000
0000
0000
,
0010
0000
0010
0000
,
0010
0000
0000
0000
,
0100
0000
0100
0000
,
0100
0000
0000
0000
,
0001
0000
0001
0000
,
0001
0000
0000
0000
,
1000
0000
0000
0000
,
1001
0000
0000
0000
,
0001
0000
0000
0000
,
0100
0000
0100
0000
,
0100
0000
0000
0000
,
0010
0000
0010
0000
,
0010
0000
0000
0000
,
1000
0000
0000
0000
,
0001
0000
0000
0000
,
1001
0000
0000
0000
,
1000
0000
0000
0000
,
0010
0000
0010
0000
,
0010
0000
0000
0000
,
1001
0000
0000
0000
,
0001
0000
0000
0000
,
0100
0000
0100
0000
,
0100
0000
0000
0000
,
0010
0010
0000
0000
,
0010
0000
0000
0000
,
1000
1000
0000
0000
,
1000
0000
0000
0000
,
0001
0000
0000
0000
,
1000
0000
0000
0000
,
0010
0000
0000
0000
,
0100
0000
0000
0000
,
0001
0000
0001
0000
,
0001
0000
0000
0000
,
1000
1000
1000
0000
,
1000
0000
0000
0000
,
0010
0010
0010
0000
,
0010
0000
0000
0000
,
0100
0000
0100
0000
,
0100
0000
0000
0000
,
0001
0000
0001
0000
,
0001
0000
0000
0000
,
1000
0000
0000
0000
,
0001
0000
1001
0000
,
0000
0000
0000
0000
,
1001
MMMM
0000
0000
;

//---------------dance-single - ----------------
#NOTES:
     dance-single:
     :
     Easy:
     4:
     0.221695,0.335314,0.125306,0.231334,0.000000,161.000000,148.000000,13.000000,24.000000,0.000000,0.000000,0.221695,0.335314,0.125306,0.231334,0.000000,161.000000,148.000000,13.000000,24.000000,0.000000,0.000000:
0000
0000
0000
0000
,
0000
0000
0000
0000
,
0000
0000
0000
0000
,
0000
0000
0000
0000
,
1000
0000
0010
0000
,
0100
0000
0001
1000
,
0001
0000
0010
0000
,
0100
0000
1000
0001
,
1000
0100
0100
0000
,
0010
0001
0001
0000
,
1000
0010
0100
0001
,
1000
0000
2002
3003
,
0000
0000
0000
0000
,
0000
0000
0000
0000
,
0000
0000
0000
0000
,
0000
000M
0000
M000
,
000M
0M00
0000
000M
,
0M00
00M0
0000
0000
,
0001
0000
1000
0001
,
0100
0000
0001
0100
,
0010
0000
1000
0010
,
0100
0000
0010
1000
,
0001
0000
1000
1000
,
0001
0001
0010
0000
,
0001
0010
0100
1000
,
0010
0000
0100
0000
,
0001
0001
0100
0010
,
2000
0000
3000
0000
,
1000
1000
0100
0010
,
0002
0000
0003
0000
,
2000
3000
0010
0010
,
0100
0100
0001
0000
,
2002
0000
0000
0000
,
3003
0001
0100
0110
,
2002
3003
0001
1000
,
0100
0100
0020
0030
,
0001
0010
0100
0000
,
1000
0010
0100
0000
,
2002
3003
1000
0001
,
0010
0010
0200
0300
,
1000
0100
0010
0001
,
0200
0000
0300
0010
,
1001
1001
1000
0000
,
1001
1001
0001
0000
,
1000
0010
0100
0001
,
1000
1000
0001
0000
,
0001
0010
0100
0000
,
1000
0010
0100
0000
,
0020
0030
0010
0000
,
0200
0300
0100
0001
,
2000
3000
0002
0003
,
2002
3003
0001
0100
,
0001
0100
0010
2002
,
3003
0000
1000
0100
,
1000
0100
0010
2002
,
3003
0000
0001
1000
,
0010
0010
0100
2002
,
3003
0000
0001
0001
,
1000
1000
0100
0010
,
0001
0000
1000
1000
,
0010
0000
0010
0010
,
0100
0000
1001
0000
,
0000
0000
0000
0000
,
1001
MMMM
0000
0000
;

//---------------dance-single - ----------------
#NOTES:
     dance-single:
     :
     Medium:
     7:
     0.327723,0.426763,0.163862,0.568697,0.043375,238.000000,221.000000,17.000000,59.000000,0.000000,0.000000,0.327723,0.426763,0.163862,0.568697,0.043375,238.000000,221.000000,17.000000,59.000000,0.000000,0.000000:
0000
0000
0000
0000
,
0000
0000
0000
0000
,
0000
0000
0000
0000
,
0000
0000
0000
0000
,
0002
0003
0200
0300
,
0020
0000
0030
0000
1000
0001
1000
0001
,
2000
3000
0200
0300
,
0020
0000
0030
0000
0001
1000
0001
1000
,
0002
0203
0320
1030
,
2000
3200
0320
0031
,
0002
2003
3020
0230
,
0310
0000
2002
3003
,
0000
0000
0000
0000
,
0000
0000
0000
0000
,
0000
0000
0000
0000
,
0000
0000
0000
0000
000M
0000
0M00
0M00
0M00
0M00
0M00
0M00
0M0M
0000
M000
M000
,
M000
M000
M000
0000
M00M
0000
00M0
00M0
00M0
00M0
00M0
0000
00MM
0000
00M0
0000
,
0M00
M000
0000
0000
,
0001
0200
0000
0300
0001
2000
0000
3000
,
0001
0020
0000
0030
0001
0010
0100
0000
,
1000
0020
0000
0030
1000
0002
0000
0003
,
1000
0200
0000
0300
1000
0100
0010
0000
,
0001
0100
0000
0100
0020
0000
2030
0000
,
3002
0000
0013
0100
1000
0000
0001
1000
,
0020
0000
0230
0000
0301
0010
0100
1000
,
0002
0000
1003
0000
,
0101
0000
1000
0100
1000
0000
0100
0010
,
0002
0003
1000
0010
,
1000
0000
0001
0010
0001
0000
0010
0100
,
2000
3000
0001
0100
,
0002
1003
2000
3100
,
1000
0001
0100
0010
0100
0010
2000
0000
,
3001
0000
0000
0000
,
0001
0000
0010
0100
0010
0000
0110
0000
,
2001
3100
1002
0103
,
2001
0000
3100
0000
1000
0001
1000
0000
,
0002
0103
0200
0310
,
1000
0010
0100
0000
0001
0000
0000
0000
,
1002
0013
2001
3010
,
1002
0000
0013
0000
0001
1000
0001
0000
,
2000
0000
3010
0000
0020
0000
0130
0001
,
1000
0000
0000
1001
,
0101
0000
1000
0100
1000
0000
0001
0100
,
0001
0000
1000
0010
1000
0000
0000
0000
,
0001
0010
0100
0100
,
1000
0010
0100
0000
,
0001
0000
1000
0010
1000
0000
0001
0010
,
0001
0000
1000
0100
1000
0000
0000
0000
,
0001
0000
1000
0020
0000
0000
0130
0000
,
0001
0000
1000
0200
0000
0000
0310
0000
,
0022
0033
2200
3300
,
2002
0000
3003
0000
0001
0100
0001
0100
,
0001
0100
0010
2001
,
3200
0000
0300
0000
1000
0010
1000
0010
,
1000
0010
0100
1002
,
0023
0000
0030
0000
0001
0010
0100
0010
,
0002
2003
3010
1002
,
0103
0000
0010
0000
1000
0010
1000
0000
,
0001
0010
0001
0000
1000
0100
0001
0100
,
2000
0000
3000
0000
0001
0010
0001
0010
,
0001
0000
0000
0000
1000
0010
1000
0010
,
1000
0001
2002
3003
,
0000
0000
0000
0000
,
1001
M00M
M00M
M00M
M00M
0000
0000
0000
0000
0000
0000
0000
0000
0000
0000
0000
;

//---------------dance-single - ----------------
#NOTES:
     dance-single:
     :
     Hard:
     12:
     0.542534,0.670628,0.240973,0.347001,0.212056,394.000000,369.000000,25.000000,36.000000,0.000000,0.000000,0.542534,0.670628,0.240973,0.347001,0.212056,394.000000,369.000000,25.000000,36.000000,0.000000,0.000000:
// measure 0
0000
0000
0000
0000
,  // measure 1
0000
0000
0000
0000
,  // measure 2
0000
0000
0000
0000
,  // measure 3
0000
0000
0000
0000
,  // measure 4
1002
0000
1003
0100
0020
0000
0030
0001
,  // measure 5
2000
0000
3000
0001
0100
0001
0010
0001
,  // measure 6
2000
0000
3001
0010
0200
0000
0300
1000
,  // measure 7
0002
0000
0003
1000
0010
1000
0100
1000
,  // measure 8
0020
0000
1030
0100
0001
0000
0001
0100
,  // measure 9
1000
0000
1000
0001
0100
0010
0100
0010
,  // measure 10
1000
0000
0001
0010
1000
0000
1000
0010
,  // measure 11
0002
0103
0220
0330
,  // measure 12
0000
0000
0000
0000
,  // measure 13
0000
0000
0000
0000
,  // measure 14
0000
0000
0000
0000
,  // measure 15
0110
0000
0000
0000
000M
000M
0M0M
000M
000M
000M
0M0M
0000
00M0
00M0
M0M0
00M0
,  // measure 16
00M0
00M0
M0M0
0000
0M00
0M00
0MM0
0M00
0M00
0M00
0MM0
0000
000M
0000
000M
0000
,  // measure 17
0M00
000M
M000
0000
0000
0000
0000
0000
,  // measure 18
0002
0100
0000
0103
0020
1000
0000
1030
,  // measure 19
0200
0010
0000
0310
0001
0001
0100
0001
,  // measure 20
2000
0010
0000
3010
0200
0001
0000
0301
,  // measure 21
0020
0100
0000
0130
1000
1000
0010
1000
,  // measure 22
0001
1000
0100
0010
0001
0100
0010
0100
,  // measure 23
0001
1000
0100
0001
0200
0000
1300
0010
,  // measure 24
0100
0000
0000
0000
0000
0000
0102
0000
0000
0000
0000
0000
1003
0000
0000
0010
1000
0010
1000
0000
0000
0001
0000
0000
,  // measure 25
0100
0000
1001
0000
,  // measure 26
1000
0000
0100
0000
1000
0001
1000
0001
1000
0000
0001
0000
0010
0000
0100
0000
,  // measure 27
1000
0000
0000
0001
0000
0000
0100
0000
0101
0000
0001
0000
2000
0000
0000
0000
,  // measure 28
3001
0000
0010
0000
0100
0010
0100
0010
0100
0000
1000
0000
0010
0000
0100
0000
,  // measure 29
0001
0000
0000
1000
0000
0000
0010
0000
1010
0000
1000
0000
0002
0000
0000
0000
,  // measure 30
1003
0100
2000
0000
3001
0100
0002
0000
,  // measure 31
1003
0000
0010
0000
0001
0000
1000
0000
0100
0000
0001
0013
0000
0010
0100
0000
,  // measure 32
2000
0000
3031
0001
0100
0010
1000
0001
,  // measure 33
0101
0000
0000
1000
0100
0010
0001
0000
0000
1001
0000
0000
,  // measure 34
0101
0000
0100
0000
0010
1000
0010
0000
0100
0000
0001
0000
1000
0100
1000
0000
,  // measure 35
0001
0000
0010
0000
0001
0100
0001
0000
1000
0000
0001
0000
0100
0000
0010
0000
,  // measure 36
1000
0100
0001
0001
0100
1000
0010
0010
,  // measure 37
1000
0100
0001
1000
0010
0001
1000
0100
,  // measure 38
1000
0000
0010
0000
0100
0001
0100
0000
0010
0000
1000
0000
0001
0010
0001
0000
,  // measure 39
1000
0000
0100
0000
1000
0010
1000
0000
0001
0000
1000
0000
0010
0000
0100
0000
,  // measure 40
0001
0010
1000
0000
1000
0010
0001
0000
,  // measure 41
1000
0000
0001
0100
0010
0000
1000
0000
0100
0000
2200
0000
0000
0000
3300
0000
,  // measure 42
1001
0000
1010
1010
0001
0000
0011
0011
,  // measure 43
1000
0000
0000
0000
1100
0000
1100
0000
0001
0000
1000
0010
1000
0000
0001
0000
,  // measure 44
1000
0010
0001
1000
0100
0001
1000
0001
,  // measure 45
0010
1000
0010
0100
0010
0001
1000
0001
,  // measure 46
0200
0000
0000
0000
0310
0000
1000
0100
0020
0000
0000
0000
0031
0000
1000
0001
,  // measure 47
0100
0010
1000
0001
0010
0100
1000
0010
,  // measure 48
1020
0000
0130
0100
1000
0100
0001
1000
,  // measure 49
0200
0000
0301
0001
0100
1000
0010
0100
,  // measure 50
0201
0000
0000
0000
0310
0000
0000
0000
1010
0000
1000
0100
0000
0010
0001
0000
,  // measure 51
2002
0000
0003
3001
0100
1000
0100
0010
,  // measure 52
0100
0001
0010
0100
1000
0010
2001
0000
,  // measure 53
3002
0100
0000
1003
0010
0001
0010
0100
,  // measure 54
0010
1000
0100
0010
0001
0100
1002
0000
,  // measure 55
0103
0000
0010
1000
0010
0000
0100
0000
0001
0000
1000
0100
1000
0000
0001
0000
,  // measure 56
1000
0010
0001
0010
1000
0100
1200
0000
,  // measure 57
1300
0000
0001
0100
0010
0000
1000
0000
0001
0000
1000
0100
1000
0000
0001
0000
,  // measure 58
1000
0000
0100
0010
0001
0000
1000
0000
0020
0000
0100
0000
0230
0000
0000
0000
,  // measure 59
0301
0000
0000
0000
0000
0000
0000
0000
0000
1000
0000
0000
0010
0000
0000
1000
0001
1000
0001
0000
0000
0010
0000
0000
,  // measure 60
0010
0000
0000
0000
0000
0000
0000
0000
0000
0001
0000
0000
0100
0000
0000
0001
1000
0001
1000
0000
0000
0100
0000
0000
,  // measure 61
0100
0000
2002
3003
,  // measure 62
0000
0000
0000
0000
,  // measure 63
1001
M00M
M00M
M00M
M00M
0000
0000
0000
0000
0000
0000
0000
0000
0000
0000
0000
;

//---------------dance-double - ----------------
#NOTES:
     dance-double:
     :
     Easy:
     4:
     0.202417,0.334651,0.067472,0.115667,0.000000,147.000000,140.000000,7.000000,12.000000,0.000000,0.000000,0.202417,0.334651,0.067472,0.115667,0.000000,147.000000,140.000000,7.000000,12.000000,0.000000,0.000000:
00000000
00000000
00000000
00000000
,
00000000
00000000
00000000
00000000
,
00000000
00000000
00000000
00000000
,
00000000
00000000
00000000
00000000
,
00010000
00000000
00000000
00000000
,
00001000
00000000
00100000
00000000
,
00010000
00000000
00000000
00000000
,
10000000
00000000
00100000
00000000
,
01000000
01000000
00010000
00000000
,
00010000
00010000
00100000
00000000
,
00100000
00100000
00001000
00000000
,
00010000
00000000
00011000
00000000
,
00000000
00000000
00000000
00000000
,
00000000
00000000
00000000
00000000
,
00000000
00000000
00000000
00000000
,
00000000
000M0000
00000M00
000M0000
,
00000M00
0000M000
00000000
0000000M
,
00000000
0000M000
00000000
00000000
,
00010000
00000100
00010000
00000100
,
00001000
00000000
00000001
00000000
,
00001000
00000010
00001000
00000010
,
00000100
00000000
00000001
00000000
,
00001000
00000100
00010000
00001000
,
00010000
00000000
00001000
00000000
,
00100000
00100000
00010000
10000000
,
00100000
00000000
00000000
00000000
,
10000000
01000000
10000000
01000000
,
00020000
00030000
00001000
00000000
,
00010000
00001000
00010000
00001000
,
00000200
00000300
00000001
00000000
,
00002000
00003000
00000001
00000100
,
00000010
00000010
00001000
00000100
,
00010000
00000000
00000000
00000000
,
00001000
00010000
00001000
00000000
,
00011000
00001000
00100000
00000000
,
00001000
00001000
00100000
00000000
,
00001000
00000000
00100000
00000000
,
00010000
01000000
00001000
00000000
,
00010000
00010000
00000010
00000000
,
00010000
00010000
00000010
00000000
,
00001000
00000000
00000001
00000010
,
00000100
00000000
00000000
00001000
,
00001001
00001001
00000100
00000000
,
00001001
00001001
00000100
00000000
,
00000001
00001000
00000100
00000000
,
00010000
00001000
00100000
00000000
,
00010000
00010000
10000000
00000000
,
10000000
10000000
00100000
00000000
,
20000000
30000000
01000000
00000000
,
00200000
00300000
00001000
00000000
,
00020000
00030000
00000020
00000030
,
00002002
00003003
00000001
00000100
,
00000001
00000100
00000010
00020000
,
00031000
00000000
00001000
00010000
,
00001000
00010000
00001000
00200000
,
00310000
00000000
10000000
00100000
,
10000000
00100000
10000000
00020000
,
01030000
00000000
00001000
00001000
,
00010000
00010000
00000100
00000010
,
00000001
00000000
00000000
00000000
,
00001000
00000000
00000000
00000000
,
00010000
00000000
10010000
00000000
,
00000000
00000000
00000000
00000000
,
10010000
MMMM0000
00000000
00000000
00000000
00000000
00000000
00000000
;

//---------------dance-double - ----------------
#NOTES:
     dance-double:
     :
     Medium:
     7:
     0.345624,0.487730,0.269890,0.607252,0.038556,251.000000,223.000000,28.000000,63.000000,0.000000,0.000000,0.345624,0.487730,0.269890,0.607252,0.038556,251.000000,223.000000,28.000000,63.000000,0.000000,0.000000:
00000000
00000000
00000000
00000000
,
00000000
00000000
00000000
00000000
,
00000000
00000000
00000000
00000000
,
00000000
00000000
00000000
00000000
,
00002000
00003000
00020000
00030000
,
00000200
00000000
00000300
00000000
00001000
00000001
00001000
00000000
,
00000002
00000003
00000200
00000300
,
00000020
00000000
00000030
00000000
00010000
00001000
00010000
00000000
,
00002000
00203000
00320000
20030000
,
30200000
02300000
03020000
00230000
,
00302000
00023000
00030020
00000230
,
00000301
00000000
00002002
00003003
,
00000000
00000000
00000000
00000000
,
00000000
00000000
00000000
00000000
,
00000000
00000000
00000000
00000000
,
00000000
00000000
00000000
00000000
0000000M
00000000
00000M00
00000M00
00000M00
00000M00
00000M00
00000000
0000000M
00000000
0000M000
0000M000
,
0000M000
0000M000
0000M000
00000000
0000000M
00000000
000000M0
000000M0
000000M0
000000M0
000000M0
00000000
0000000M
00000000
00000000
00000000
,
0000M000
00000000
00000000
00000000
,
00000001
00000200
00000000
00000300
00000001
00002000
00000000
00003000
,
00000001
00000020
00000000
00000030
00000001
00000000
00001000
00000100
,
00010000
00000200
00000000
00000300
00010000
00000020
00000000
00000030
,
00010000
00002000
00000000
00003000
00010000
00001000
00100000
00000000
,
00001000
00100000
00000000
00100000
00020000
00000000
20030000
00000000
,
30100000
01000000
00100000
00000000
10000000
00000000
00010000
00000000
,
00100000
00000000
00100000
00000000
00001000
00010000
00001000
00010000
,
00000200
00000000
00000310
00000000
,
00000001
00000100
00000001
00000000
00000100
00000010
00010000
00000000
,
00002000
00203000
00320000
00030000
,
10000000
00100000
10000000
00000000
00100000
01000000
00001000
00000000
,
00020000
00030200
00002300
00003000
,
00001002
00000000
00000103
00000000
00000001
00001000
00000100
00000000
,
00010000
00001000
00010000
00000000
00001000
00000000
00100000
00010000
,
10000000
00000000
00000000
00000000
,
00010000
00000000
10000000
00100000
01000000
00000000
01100000
00000000
,
20010000
31000000
10020000
01030000
,
20010000
30100000
10020000
00130000
,
00010000
01000000
00001000
00000000
00010000
00000100
00001000
00000000
,
00000100
00000010
00000100
00000010
00000001
00000000
00001000
00000000
,
00001002
00000013
00002001
00003010
,
00001002
00000103
00002001
00003100
,
00001000
00000010
00010000
00000000
00001000
00100000
00010000
01000000
,
00100000
00000000
00000000
00000000
00000000
01100000
00000000
00000000
,
10010000
11000000
10010000
01010000
,
10000000
01000000
00010000
00000000
00001000
00000100
00000001
00000000
,
00001000
00000100
00001000
00000000
00000100
00010000
00000100
00000000
,
00010000
00000000
00000010
00000000
00000100
00000001
00001000
00000000
,
00001001
00000011
00001001
00001010
,
00000001
00000010
00001000
00000000
00010000
00100000
10000000
00000000
,
20020000
00000000
30030000
00000000
10000000
00010000
01000000
00000000
,
02020000
00000000
03030000
00000000
01000000
00001000
00010000
00000000
,
00020200
00030300
00202000
00303000
,
00022000
00000000
00033000
00000000
00000100
00001000
00000100
00001000
,
00000010
00000100
00001000
00021000
,
00032000
00000000
00003000
00000000
00100000
00010000
00100000
00010000
,
01000000
00100000
00010000
00012000
,
00023000
00000000
00030000
00000000
00000100
00000010
00000100
00000010
,
00000002
00000203
00000310
00002001
,
00003100
00010000
00000100
00000000
00010000
00001000
00010000
00000000
,
00001000
00100000
00010000
01000000
00200000
00000000
20300000
00000000
,
30010000
00000000
00000000
00000000
10000000
01000000
00020000
00000000
,
00031000
00000000
00000000
00000000
00010000
00001000
00000200
00000000
,
00000301
00000000
00002002
00003003
,
00000000
00000000
00000000
00000000
,
00001001
0000M00M
0000M00M
0000M00M
0000M00M
00000000
00000000
00000000
00000000
00000000
00000000
00000000
00000000
00000000
00000000
00000000
;

//---------------dance-double - ----------------
#NOTES:
     dance-double:
     :
     Hard:
     12:
     0.541157,0.670628,0.260251,0.385557,0.173501,393.000000,366.000000,27.000000,40.000000,0.000000,0.000000,0.541157,0.670628,0.260251,0.385557,0.173501,393.000000,366.000000,27.000000,40.000000,0.000000,0.000000:
00000000
00000000
00000000
00000000
,
00000000
00000000
00000000
00000000
,
00000000
00000000
00000000
00000000
,
00000000
00000000
00000000
00000000
,
21000000
00000000
31000000
00100000
00020000
00000000
00000000
01030000
,
00200000
00000000
00000000
00310000
00001000
00010000
00001000
00000100
,
00000002
00000000
00000013
00000100
00002000
00000000
00000000
00003310
,
00000200
00000000
00000000
00001300
00010000
00001000
00010000
00100000
,
10000000
00000000
00010000
01000000
10000000
00000000
10000000
01000000
,
00020000
00000000
01030000
00001000
00010000
00010000
00000100
00000010
,
00000001
00000000
00001000
00000010
00000001
00000000
00000001
00000010
,
00002000
00003010
00022000
00033000
,
00000000
00000000
00000000
00000000
,
00000000
00000000
00000000
00000000
,
00000000
00000000
00000000
00000000
,
00011000
00000000
0000M000
00M00000
00000000
00M00000
000M0000
0M000000
,
00000000
0M000000
00M00000
M0000000
00000000
M0000000
0M000000
000M0000
,
0000M000
00000000
00000000
00000000
,
00002000
00100000
00000000
00103000
00020000
01000000
00000000
01030000
,
00200000
10000000
00000000
10300000
01000000
00010000
00001000
00001000
,
00020000
00000100
00000000
00030100
00002000
00000010
00000000
00003010
,
00000200
00000001
00000000
00000301
00000010
00001000
00010000
00010000
,
00001000
00100000
00001000
00100000
00010000
01000000
10000000
01000000
,
00010000
00100000
00001000
00000010
00000200
00000000
00001300
00000001
,
00000200
00000000
00000000
00000000
00000000
00000000
00000320
00000000
00000000
00000000
00000000
00000000
00001030
00000000
00000000
00000100
00010000
00000100
00010000
00000000
00000000
00001000
00000000
00000000
,
00010000
00000000
00011000
00000000
,
10010000
00000000
10000000
00000000
00010000
01000000
00010000
01000000
00010000
00000000
00100000
00000000
00001000
00000000
00010000
00000000
,
00000100
00000000
00000000
00001000
00000000
00000000
00000001
00000000
00000101
00000000
00000100
00000000
00000020
00000000
00000000
00000000
,
00001030
00000000
00000001
00000000
00000010
00000100
00000010
00000100
00000010
00000000
00000001
00000000
00001000
00000000
00000100
00000000
,
00010000
00000000
00000000
00001000
00000000
00000000
01000000
00000000
01010000
00000000
00010000
00000000
20000000
00000000
00000000
00000000
,
30010000
00100000
00020000
00000000
10030000
00100000
20000000
00000000
,
30010000
00000000
00100000
00000000
00001000
00000000
00010000
00000000
00100000
00000000
00000000
00010000
00000000
00000000
00001000
00000000
,
00000020
00000000
00000031
00000001
00001000
00000001
00000100
00000010
,
00001001
00000000
00000000
00000001
00000010
00000100
00001000
00000000
00000000
00010100
00000000
00000000
,
00011000
00000000
00001000
00000000
00100000
00010000
00100000
00000000
00001000
00000000
00010000
00000000
00000010
00001000
00000010
00000000
,
00010000
00000000
00001000
00000000
01000000
00010000
01000000
00000000
00001000
00000000
00010000
00000000
00100000
00000000
10000000
00000000
,
00010000
00100000
10000000
10000000
00010000
01000000
10000000
10000000
,
00100000
00010000
00100000
01000000
00010000
01000000
00001000
00100000
,
00001000
00000000
00010000
00000000
00000100
00001000
00000100
00000000
00010000
00000000
00001000
00000000
01000000
00010000
01000000
00000000
,
00001000
00000000
00010000
00000000
00000010
00001000
00000010
00000000
00010000
00000000
00001000
00000000
00000100
00000000
00000001
00000000
,
00001000
00000100
00000001
00000100
00001000
00000010
00000200
00000000
,
00001300
00000000
00010000
00000100
00010000
00000000
00001000
00000000
00100000
00000000
00220000
00000000
00000000
00000000
00330000
00000000
,
10010000
00000000
11000000
11000000
00010000
00000000
00101000
00101000
,
00010000
00000000
00000000
00000000
00010010
00000000
00010010
00000000
00001000
00000000
00000001
00000100
00000001
00000000
00001000
00000000
,
00000001
00000100
00001000
00000200
00000000
00000310
00001000
00000001
,
00001000
00000100
00001000
00000100
00010000
00001000
00100000
00000000
,
00201000
00000000
00000000
00000000
00310000
00000000
10000000
00100000
02000000
00000000
00000000
00000000
03010000
00000000
10000000
00010000
,
10000000
01000000
00100000
00010000
01000000
01000000
00001000
00010000
,
00012000
00000000
00033100
00000100
00000010
00001000
00000100
00010000
,
00021000
00000000
00133000
00100000
01000000
00010000
00100000
00001000
,
00202000
00000000
00000000
00000000
00303000
00000000
00000000
00000000
00011000
00000000
00010000
00000100
00000000
00000100
00000010
00000000
,
00002002
00000000
00000003
00003001
00000100
00000010
00000100
00001000
,
00000100
00000010
00001000
00000100
00010000
00001000
00102000
00000000
,
00023000
00000100
00000000
00031000
01000000
00010000
01000000
00100000
,
01000000
10000000
01000000
00010000
00100000
01000000
21000000
00000000
,
30010000
00000000
10000000
01000000
00100000
00000000
00010000
00000000
01000000
00000000
00001000
00010000
00001000
00000000
00010000
00000000
,
00000100
00000000
00001000
00000100
00000010
00000000
00000001
00000000
00001000
00000000
00000001
00000000
00000102
00003000
00000000
00000000
,
00001303
00000000
00000001
00000010
00000100
00000000
00001000
00000000
00000010
00000000
00010000
00001000
00010000
00000000
00001000
00000000
,
00100000
00000000
00010000
00100000
01000000
00000000
10000000
00000000
00020000
00000000
00100000
00000000
00230000
00000000
00000000
00000000
,
03301000
00000000
00000000
00000000
00000000
00000000
00000000
00000000
00000000
00100000
00000000
00000000
00100000
00000000
00000000
00001000
00010000
00001000
00010000
00000000
00000000
00000010
00000000
00000000
,
00010000
00000000
00000000
00000000
00000000
00000000
00000000
00000000
00000000
00000100
00000000
00000000
00000100
00000000
00000000
00010000
00001000
00010000
00001000
00000000
00000000
01000000
00000000
00000000
,
01000000
00000000
00022000
00033000
,
00000000
00000000
00000000
00000000
,
00011000
000MM000
000MM000
000MM000
000MM000
00000000
00000000
00000000
00000000
00000000
00000000
00000000
00000000
00000000
00000000
00000000
;
