#VERSION:0.83;
#TITLE:My Toilet is Haunted;
#SUBTITLE:;
#ARTIST:Jim Guthrie & JJ Ipsen;
#TITLETRANSLIT:;
#SUBTITLETRANSLIT:;
#ARTISTTRANSLIT:;
#GENRE:;
#ORIGIN:;
#CREDIT:;
#BANNER:My Toilet is Haunted.png;
#BACKGROUND:My Toilet is Haunted-bg.png;
#PREVIEWVID:;
#JACKET:My Toilet is Haunted-jacket.png;
#CDIMAGE:;
#DISCIMAGE:;
#LYRICSPATH:;
#CDTITLE:;
#MUSIC:My Toilet is Haunted.ogg;
#OFFSET:-0.482000;
#SAMPLESTART:61.962997;
#SAMPLELENGTH:12.000000;
#SELECTABLE:YES;
#DISPLAYBPM:140.000000;
#BPMS:0.000=140.000;
#STOPS:;
#DELAYS:;
#WARPS:;
#TIMESIGNATURES:0.000=4=4;
#TICKCOUNTS:0.000=4;
#COMBOS:0.000=1;
#SPEEDS:0.000=1.000=0.000=0;
#SCROLLS:0.000=1.000,
208.000=0.666,
240.000=1.000,
272.000=0.666;
#FAKES:;
#LABELS:0.000=Song Start;
#BGCHANGES:;
#KEYSOUNDS:;
#ATTACKS:
;

//---------------dance-single - ----------------
#NOTEDATA:;
#CHARTNAME:;
#STEPSTYPE:dance-single;
#DESCRIPTION:;
#CHARTSTYLE:;
#DIFFICULTY:Easy;
#METER:5;
#RADARVALUES:0.225901,0.255046,0.000000,0.379191,0.000000,196.000000,196.000000,0.000000,47.000000,3.000000,0.000000,0.000000,0.000000,0.000000,0.225901,0.255046,0.000000,0.379191,0.000000,196.000000,196.000000,0.000000,47.000000,3.000000,0.000000,0.000000,0.000000,0.000000;
#CREDIT:BGS's Ghost;
#DISPLAYBPM:95.000000:180.000000;
#NOTES:
0000
0000
0000
0000
,
0000
0000
0000
0000
,
0000
0000
0000
0000
,
0000
0000
0000
0000
,
1000
0010
1000
0010
,
1000
0001
1000
0001
,
0100
0010
0100
0010
,
0100
0001
0100
0001
,
1000
0100
0000
0100
,
0010
0010
0000
0010
,
0001
1000
0001
0100
,
0100
0010
0100
0000
,
0001
0010
0000
0010
,
0100
1000
0000
1000
,
0001
0010
0001
0100
,
0010
1000
0001
0000
,
2000
3000
0002
0003
,
0200
0300
0002
0003
,
2000
3000
0200
0300
,
0020
0030
0020
0030
,
0002
0003
0200
0300
,
0020
0030
2000
3000
,
0002
0003
0020
0030
,
0100
1000
0100
0000
,
1000
0000
0100
0100
,
1000
0000
0001
0001
,
0100
0000
0010
0010
,
0100
0000
0001
0001
,
1000
0010
1000
0100
,
1000
0010
1000
0100
,
0010
0001
0100
0001
,
0010
0001
0100
0001
,
1000
0100
0010
0100
,
1000
0100
0010
0100
,
1000
0001
0100
0001
,
1000
0001
0100
0001
,
1000
0100
0000
0100
,
1000
0001
0000
0001
,
0010
0001
0100
0001
,
0010
0100
0100
0000
,
1000
0001
0000
0100
,
0100
0001
0000
0010
,
0010
0100
1000
0001
,
0100
0010
0100
0000
,
0002
0003
0020
0030
,
0200
0300
0020
0030
,
0002
0003
2000
3000
,
0200
0300
2000
3000
,
0020
0030
0200
0300
,
0002
0003
2000
3000
,
0200
0300
0020
0030
,
0001
1000
0010
0000
,
2M00
3000
0020
0030
,
0200
0300
0002
0003
,
0200
0300
0020
0030
,
2000
3000
0002
0003
,
0020
0030
0200
0300
,
2000
3000
0002
0003
,
0200
0300
0020
0030
,
1000
0001
1000
0000
,
01M0
0100
0100
0100
,
1000
1000
1000
1000
,
0001
0001
0001
0001
,
0010
0010
0010
0010
,
0100
1000
0001
0000
,
0100
0001
1000
0000
,
0010
1000
0001
0000
,
0010
0001
1000
0000
,
02M0
0300
0020
0030
,
0002
0003
2000
3000
,
0020
0030
0000
0000
;

//---------------dance-single - ----------------
#NOTEDATA:;
#CHARTNAME:;
#STEPSTYPE:dance-single;
#DESCRIPTION:;
#CHARTSTYLE:;
#DIFFICULTY:Medium;
#METER:8;
#RADARVALUES:0.315801,0.369056,0.000000,0.153290,0.000000,274.000000,274.000000,0.000000,19.000000,3.000000,0.000000,0.000000,0.000000,0.000000,0.315801,0.369056,0.000000,0.153290,0.000000,274.000000,274.000000,0.000000,19.000000,3.000000,0.000000,0.000000,0.000000,0.000000;
#CREDIT:BGS's Ghost;
#DISPLAYBPM:140.000000;
#NOTES:
0000
0000
0000
0000
,
0000
0000
0000
0000
,
0000
0000
0000
0000
,
0000
0000
0000
0000
,
1000
0000
0000
1000
1000
0000
0010
0000
,
0100
0000
0000
0100
0100
0000
0001
0000
,
1000
0000
0000
1000
1000
0000
0100
0000
,
0010
0000
0000
0010
0010
0000
0001
0000
,
1000
0000
0000
0001
0001
0000
1000
0001
,
1000
0000
0000
0100
0100
0000
0010
0000
,
0001
0010
0001
0010
0001
0000
1000
0000
,
0100
0000
0000
1000
1000
0000
0000
0000
,
0001
0000
0000
1000
1000
0000
0001
1000
,
0001
0000
0000
0100
0100
0000
0010
0000
,
1000
0010
1000
0010
1000
0000
0001
0000
,
0100
0000
0100
0000
0100
0001
0100
0001
,
0000
0000
1000
0000
0000
0100
1000
0100
,
0000
0000
0010
0000
0000
0001
0010
0001
,
1000
0000
0000
1000
0010
0000
0000
0000
,
0100
0000
0100
0000
0000
0001
1000
0100
,
0000
0000
1000
0000
0000
1000
0001
0100
,
0000
0000
0010
0000
0000
1000
0010
0100
,
0001
0000
0000
1000
0100
0000
0000
0000
,
0010
0001
0010
0001
0000
1000
0010
1000
,
0001
0000
0000
0001
0100
0000
0010
1000
,
1000
0000
0000
0001
0010
0000
0100
1000
,
1000
0000
0000
0001
0100
0000
0010
0100
,
0100
0000
0000
0001
1000
0000
0100
1000
,
0001
0000
0000
0010
0001
0000
1000
0100
,
1000
0000
0000
0010
1000
0000
0001
0100
,
0001
0000
0000
0010
0001
0000
1000
0100
,
1000
0000
0000
0010
1000
0000
0001
0010
,
0100
0000
0000
1000
1000
0000
0010
0000
,
0100
0000
0000
0001
0001
0000
1000
0000
,
0100
0000
0000
0010
0010
0000
0001
0000
,
0100
0000
0000
0010
0010
0000
1000
0000
,
0100
0000
0000
0010
0001
0000
0001
0000
,
0100
0000
0000
0010
1000
0000
1000
0000
,
0100
0000
0000
1000
0010
0000
0010
0000
,
0100
0000
0000
0001
0010
0000
0010
0000
,
0100
0000
1000
0001
1000
0000
0001
1000
,
0001
0000
1000
0100
1000
0000
0001
0100
,
0001
0001
0001
0001
,
1000
0000
1000
0000
1000
0001
0010
0001
,
0000
0000
0100
0000
0000
0010
1000
0010
,
0000
0000
0100
0000
0000
0001
1000
0001
,
0010
0000
0000
0100
0010
0000
0001
0000
,
0100
0000
0010
0000
0000
1000
0100
1000
,
0000
0000
0001
0000
0000
0100
0010
0100
,
0000
0000
0001
0000
0000
0010
0100
0010
,
0001
0000
0000
0001
0100
0000
0000
0000
,
0010
1000
0010
0000
0000
1000
0010
1000
,
002M
0000
2030
0000
,
3200
0000
0320
0000
,
0032
0000
0203
0000
,
0302
0000
2003
0000
,
3200
0000
0320
0000
,
0032
0000
2003
0000
,
3020
0000
0230
0000
,
0301
1000
0001
1000
,
01M0
0100
0100
0010
,
0001
0001
0001
0100
,
0010
0010
0010
1000
,
0001
0000
1000
0000
0000
0001
0010
0001
,
0000
0000
1000
0000
0000
0100
1000
0100
,
0000
0000
0010
0000
0000
0001
0100
0001
,
1000
0000
0000
1000
0010
0000
0000
0000
,
0010
1000
0010
0000
0100
0001
0100
0000
,
M002
0000
2003
0000
,
3200
0000
0320
0000
,
0032
0000
0000
0003
0000
0000
0000
0000
;

//---------------dance-single - ----------------
#NOTEDATA:;
#CHARTNAME:;
#STEPSTYPE:dance-single;
#DESCRIPTION:;
#CHARTSTYLE:;
#DIFFICULTY:Hard;
#METER:11;
#RADARVALUES:0.516346,0.511001,0.072611,0.040339,0.000000,448.000000,439.000000,9.000000,5.000000,3.000000,0.000000,0.000000,0.000000,0.000000,0.516346,0.511001,0.072611,0.040339,0.000000,448.000000,439.000000,9.000000,5.000000,3.000000,0.000000,0.000000,0.000000,0.000000;
#CREDIT:BGS's Ghost;
#DISPLAYBPM:140.000000;
#NOTES:
0000
0000
0000
0000
,
0000
0000
0000
0000
,
0000
0000
0000
0000
,
0000
0000
0000
0000
,
1000
0000
0010
0100
0100
0000
0110
0000
,
0001
0000
0100
0001
0001
0010
0011
0000
,
0100
0000
1000
0100
0100
0000
0110
0000
,
1000
0000
0010
0100
0001
1000
1001
0000
,
1000
0000
0010
0100
0100
0010
1000
0001
,
0010
0000
0100
0010
0001
1000
0010
1000
,
0001
0010
0001
0010
0001
1000
0001
1000
,
0100
0000
1000
0010
0100
0001
0101
0000
,
1000
0000
0001
0010
0100
1000
0001
0100
,
0010
0000
0100
0001
1000
0100
1000
0001
,
1000
0010
1000
0010
1000
0001
0010
0100
,
1000
0000
1001
0000
1001
0001
0010
0001
,
0100
0000
0010
1000
0001
0100
0010
0100
,
0001
0000
1000
0100
0010
0100
1000
0001
,
0100
0000
0000
0010
0010
0000
1000
0000
,
0001
0000
0010
0000
0001
0100
0010
0100
,
0001
0000
0010
0100
1000
0001
0100
0001
,
1000
0000
0100
0010
0001
0100
0010
0100
,
0010
0000
1000
0100
0010
0000
0001
0000
,
0010
0001
1000
0100
0000
1000
0010
0100
,
0001
0000
0001
1000
0100
0000
0010
0001
,
1000
0000
1000
0010
0100
0000
0010
1000
,
0100
0000
0100
0010
0001
0000
1000
0001
,
0100
0000
0100
0010
1000
0001
0001
0001
,
1000
0000
0010
0100
0001
0000
0010
0100
,
1000
0000
0001
0100
0010
0000
1000
0100
,
0010
0000
0001
1000
0010
0000
1000
0001
,
0100
0000
0001
1000
0100
0000
0010
0001
,
1000
0000
0010
0100
0100
0000
0001
0010
,
0001
0000
1000
0100
0100
0010
0010
0001
,
1000
0000
0010
0100
0100
0000
0010
1000
,
0001
0000
0010
0100
0100
1000
1000
0000
,
0001
0000
0100
0010
0100
0001
1000
0010
,
1000
0000
0001
0010
0100
1000
0010
0100
,
0001
0000
0010
0001
0100
0010
1000
0001
,
0010
0000
0100
1000
0001
0100
0100
0100
,
0001
0000
1000
0100
1000
0100
0010
0001
,
0100
0000
0010
0100
0010
0100
0001
1000
,
0001
0000
0001
0000
0001
1000
1001
1000
,
1000
0000
1000
0000
1000
0001
1001
0001
,
0100
0001
1000
0100
0010
0100
1000
0001
,
0100
0010
1000
0001
0010
0001
1000
0010
,
0100
0001
0010
0100
1000
0100
0010
0001
,
0100
0010
1000
0001
1000
0100
0010
0100
,
1000
0001
0100
0010
0100
0001
0010
0100
,
1000
0001
0100
0010
0100
0001
0010
0001
,
1000
0100
1000
0001
0100
0010
1000
0001
,
0010
0001
1000
0100
1000
0010
0100
0001
,
10M0
0000
0010
0100
0100
0010
1000
0001
,
0100
0000
0001
0010
0001
1000
0100
1000
,
0001
0000
1000
0010
0010
1000
0100
1000
,
0010
0000
0100
0001
1000
0001
0100
0001
,
1000
0000
0100
0010
0100
0010
0100
1000
,
0001
0000
0100
0010
0100
0010
0100
0001
,
1000
0000
0100
0010
0010
0001
0010
0100
,
1000
0010
0100
0001
1000
0100
0010
0100
,
100M
0000
0010
0100
0010
1000
0001
0010
,
0001
0000
1000
0100
1000
0001
0100
0001
,
0010
0000
0100
1000
0100
1000
0001
0100
,
0010
0000
0100
0001
0010
0001
0100
0010
,
0100
0000
0001
1000
0100
1000
0001
0010
,
0100
0000
1000
0001
0100
0001
1000
0010
,
0100
0000
0001
0010
0100
1000
0001
0100
,
0010
1000
0001
0100
0001
1000
1000
1000
,
02M0
0000
2000
0300
,
0020
3000
0200
0030
,
0002
0000
0300
0003
0000
0000
0000
0000
;

//---------------dance-single - ----------------
#NOTEDATA:;
#CHARTNAME:;
#STEPSTYPE:dance-single;
#DESCRIPTION:;
#CHARTSTYLE:;
#DIFFICULTY:Beginner;
#METER:2;
#RADARVALUES:0.134849,0.141188,0.000000,0.000000,0.000000,117.000000,117.000000,0.000000,0.000000,3.000000,0.000000,0.000000,0.000000,0.000000,0.134849,0.141188,0.000000,0.000000,0.000000,117.000000,117.000000,0.000000,0.000000,3.000000,0.000000,0.000000,0.000000,0.000000;
#CREDIT:BGS's Ghost;
#DISPLAYBPM:140.000000;
#NOTES:
0000
0000
0000
0000
,
0000
0000
0000
0000
,
0000
0000
0000
0000
,
0000
0000
0000
0000
,
1000
1000
0000
0000
,
0001
0001
0000
0000
,
1000
1000
0000
0000
,
0001
0001
0000
0000
,
1000
0000
0000
0100
,
0100
0000
0000
0010
,
0010
0000
0000
0000
,
0010
0000
0000
0000
,
0001
0000
0000
0100
,
0100
0000
0000
0010
,
0010
0000
0000
0000
,
1000
1000
0000
0000
,
0001
0000
0001
0000
,
1000
0000
1000
0000
,
0100
0000
0100
0000
,
0010
0000
0010
0000
,
0100
0000
0100
0000
,
1000
0000
1000
0000
,
0001
0000
0001
0000
,
0100
0000
0100
0000
,
0001
0000
0001
0000
,
1000
0000
1000
0000
,
0001
0000
0001
0000
,
1000
0000
1000
0000
,
0100
0000
0000
0000
,
0010
0000
0000
0000
,
0001
0000
0000
0000
,
0100
0000
0000
0000
,
0010
0000
0010
0000
,
1000
0000
1000
0000
,
0100
0000
0100
0000
,
0010
0000
0010
0000
,
0010
0000
0000
0001
,
0001
0000
0000
1000
,
1000
0000
0000
0001
,
0001
0000
0000
0000
,
0100
0000
0000
0010
,
0010
0000
0000
1000
,
1000
0000
1000
0000
,
1000
0000
1000
0000
,
0001
0000
0001
0000
,
0010
0000
0010
0000
,
0001
0000
0001
0000
,
0100
0000
0100
0000
,
0010
0000
0010
0000
,
1000
0000
1000
0000
,
0100
0000
0100
0000
,
1000
0000
1000
0000
,
00M1
0000
0000
0000
,
1000
0000
0000
0000
,
0001
0000
0000
0000
,
0100
0000
0000
0000
,
0010
0000
0000
0000
,
1000
0000
0000
0000
,
0010
0000
0000
0000
,
0100
0000
0000
0000
,
M001
0000
0001
0000
,
1000
0000
1000
0000
,
0100
0000
0100
0000
,
1000
0000
1000
0000
,
0001
0000
0001
0000
,
0100
0000
0100
0000
,
0001
0000
0001
0000
,
1000
0000
1000
0000
,
01M0
0000
0100
0000
,
0100
0000
0100
0000
,
0100
0000
0000
0000
;

//---------------dance-single - ----------------
#NOTEDATA:;
#CHARTNAME:;
#STEPSTYPE:dance-single;
#DESCRIPTION:;
#CHARTSTYLE:;
#DIFFICULTY:Challenge;
#METER:12;
#RADARVALUES:0.577431,0.482612,0.000000,0.040339,0.000000,501.000000,501.000000,0.000000,5.000000,77.000000,0.000000,0.000000,0.000000,0.000000,0.577431,0.482612,0.000000,0.040339,0.000000,501.000000,501.000000,0.000000,5.000000,77.000000,0.000000,0.000000,0.000000,0.000000;
#CREDIT:;
#DISPLAYBPM:140.000000;
#NOTES:
0000
0000
0000
0000
,
0000
0000
0000
0000
,
0000
0000
0000
0000
,
0000
0000
0000
0000
,
1000
0001
01M0
0100
1000
0001
1000
0100
,
0010
0001
1000
0010
M010
0100
01M0
0001
,
0010
0001
M100
0100
1000
0010
0100
0001
,
1000
0100
0010
0001
00M1
0100
010M
0010
,
1000
0100
0010
0100
1000
0010
0001
0010
,
1000
0001
0010
0100
0010
0001
0100
1000
,
0001
0010
0001
0010
1000
0001
0010
0100
,
1000
0001
0100
0001
1000
01M0
0100
0001
,
0010
0001
0100
0010
1000
0100
0010
0001
,
1000
0010
0100
0001
0010
0100
1000
0001
,
0100
0010
0100
0001
0100
0010
0100
0001
,
1000
0100
0001
0100
1000
001M
M010
001M
,
1000
0001
0100
0001
0010
M001
00M1
M001
,
0100
0010
1000
0001
0010
M100
01M0
M100
,
1000
0001
0100
0001
1000
0100
0010
0100
,
1000
0001
0100
0001
1000
010M
M100
010M
,
0010
0001
0100
0010
1000
0M01
M001
0M01
,
0010
0100
1000
0010
0100
100M
1M00
100M
,
0100
0010
1000
0001
0010
0100
1000
0001
,
0100
0010
1000
0001
0100
M010
0M10
M010
,
0100
0000
0001
1000
0100
0010
0100
1000
,
0010
0000
0100
0001
0010
0100
1000
0001
,
0100
0000
0100
0001
1000
0010
1000
0100
,
0010
0000
0001
0100
0001
M010
0010
1000
,
0001
0100
0010
1000
0001
0010
0100
1000
,
0001
0100
0010
1000
0001
0010
0100
1000
,
0010
0100
0001
1000
0100
0010
0001
1000
,
0010
0100
0001
1000
0100
0010
0001
1000
,
0001
1000
01M0
0100
0001
1000
0001
0100
,
0010
1000
0001
0010
001M
0100
01M0
1000
,
0010
1000
010M
0100
0001
0010
0100
1000
,
0001
0100
0010
1000
10M0
0100
M100
0010
,
0001
0100
0010
0100
0001
0010
1000
0010
,
0001
1000
0010
0100
0010
1000
0100
0001
,
1000
0010
0100
1000
0010
1000
0001
0100
,
0001
1000
0100
1000
0001
01M0
0100
1000
,
0010
1000
0100
0010
0001
0100
0010
1000
,
0001
0010
0100
1000
0010
0100
0001
1000
,
0100
0010
0100
1000
0100
0010
0100
1000
,
0001
0100
1000
0100
0001
M010
001M
M010
,
0001
1000
0100
1000
0010
100M
10M0
100M
,
0100
0010
0001
1000
0010
010M
01M0
010M
,
0001
1000
0100
1000
0001
0100
0010
0100
,
0001
1000
0100
1000
0001
M100
010M
M100
,
0010
1000
0100
0010
0001
1M00
100M
1M00
,
0010
0100
0001
0010
0100
M001
0M01
M001
,
0100
0010
0001
1000
0010
0100
0001
1000
,
0100
0010
0001
1000
0100
001M
0M10
001M
,
0100
0000
1000
001M
0010
0001
0100
0010
,
1000
0000
0001
0M10
0010
1000
0001
0100
,
0010
0000
1000
010M
0100
0001
0010
0100
,
1000
0000
0001
01M0
0100
1000
0001
0100
,
0010
0000
1000
0M01
0001
0010
1000
0001
,
0010
0000
0100
100M
1000
0010
0001
1000
,
0010
0000
0100
001M
0010
0001
0100
0010
,
1000
0000
0100
1000
0001
0M10
0010
1000
,
0100
0000
1000
0001
0100
0010
0100
0001
,
0010
0000
0100
1000
0010
0100
0001
1000
,
0100
0000
0100
1000
0001
0010
0001
0100
,
0010
0000
1000
0100
1000
001M
M010
001M
,
1000
0100
0010
0001
1000
01M0
M100
01M0
,
1000
0010
0100
0001
1000
00M1
M001
00M1
,
0100
0010
1000
0001
0100
0010
1000
0001
,
0010
0100
1000
0001
0100
10M0
1M00
10M0
,
0002
0000
0000
0000
0020
0000
0000
0003
,
2000
0000
0000
0030
0200
0000
0000
3000
,
0002
0000
0300
0003
0000
0000
0000
0000
;

//---------------dance-double - ----------------
#NOTEDATA:;
#CHARTNAME:;
#STEPSTYPE:dance-double;
#DESCRIPTION:;
#CHARTSTYLE:;
#DIFFICULTY:Hard;
#METER:11;
#RADARVALUES:0.462175,0.510093,0.177494,0.338852,0.000000,401.000000,379.000000,22.000000,42.000000,30.000000,0.000000,0.000000,0.000000,0.000000,0.462175,0.510093,0.177494,0.338852,0.000000,401.000000,379.000000,22.000000,42.000000,30.000000,0.000000,0.000000,0.000000,0.000000;
#CREDIT:BGS's Ghost;
#DISPLAYBPM:140.000000;
#NOTES:
// measure 0
00000000
00000000
00000000
00000000
,  // measure 1
00000000
00000000
00000000
00000000
,  // measure 2
00000000
00000000
00000000
00000000
,  // measure 3
00000000
00000000
00000000
00000000
,  // measure 4
00110000
00000000
00011000
00000000
00010000
00000100
00000010
00000100
,  // measure 5
00001100
00000000
00011000
00000000
00001000
01000000
00010000
01000000
,  // measure 6
00100000
00000000
10000000
00000000
01000000
00010000
01000000
10000000
,  // measure 7
00010000
00000000
01000000
00000000
00100000
10000000
01000000
00000000
,  // measure 8
00100000
00000000
00001000
00010000
00010000
00000100
00000010
00000100
,  // measure 9
00001000
00000000
00000001
00000100
00000100
00000010
00000100
00001000
,  // measure 10
00010000
00001000
00010000
01000000
00010000
00001000
00010000
00100000
,  // measure 11
01000000
00000000
01010000
00000000
00010000
10000000
01000000
00000000
,  // measure 12
00100000
00000000
00110000
00000000
00010000
10000000
00001000
00010000
,  // measure 13
00000100
00000000
00000010
00000000
00000110
00000100
00001000
00000001
,  // measure 14
00000100
00000010
00000100
00000010
00001000
00000001
00000010
00000100
,  // measure 15
00001000
00000000
00000001
00000000
00000100
0M000010
00000M10
0M000010
,  // measure 16
00001000
00000000
00011000
00000000
00001000
M0100000
0010M000
M0100000
,  // measure 17
00010000
00000000
01010000
00000000
01000000
00100M00
0M100000
00100M00
,  // measure 18
10000000
00000000
10000000
01000000
00100000
00000000
00110000
00000000
,  // measure 19
00010000
01000000
00001000
01000000
00010000
0010000M
001M0000
0010000M
,  // measure 20
00010000
00000000
01000000
00000000
00001000
M0010000
0001M000
M0010000
,  // measure 21
00001000
00000000
00000010
00000000
00000001
000M0100
0000010M
000M0100
,  // measure 22
00000001
00000000
00000010
00000100
00001000
00000000
00011000
00000000
,  // measure 23
00001000
00100000
01000000
10000000
00100000
010000M0
01M00000
010000M0
,  // measure 24
00001000
00000000
00010000
00000100
00001000
00000000
00001100
00000000
,  // measure 25
00011000
00000000
00001000
01000000
00010000
00000000
01010000
00000000
,  // measure 26
00011000
00000000
00100000
00001000
00010000
00000000
00000100
00001000
,  // measure 27
00000010
00000000
00000100
00000001
00000010
00000100
00001000
00000001
,  // measure 28
00000200
00000302
00000023
00000230
,  // measure 29
00002300
00203000
20300000
32000000
,  // measure 30
03020000
20030000
30200000
00302000
,  // measure 31
02003000
03020000
00230000
02300000
,  // measure 32
13000000
00000000
00001000
00100000
00001000
00010000
00000010
00000000
,  // measure 33
00000100
00000000
00000001
00000010
00000001
00000100
00000101
00000000
,  // measure 34
00000010
00000000
00010000
00001000
00010000
00000000
01000000
00000000
,  // measure 35
10000000
00000000
00100000
01000000
00010000
10000000
01000000
00000000
,  // measure 36
10000000
01000000
00100000
01000000
10000000
00010000
01000000
00010000
,  // measure 37
00100000
00001000
00010000
00001000
00000010
00000001
00001000
00000010
,  // measure 38
00000100
00000001
00000010
00000001
00000100
00000010
00001000
00000010
,  // measure 39
00000100
00000001
00001000
00000001
00000010
00000100
00000110
00000000
,  // measure 40
00000001
00000100
00000010
00000100
00000001
00001000
00000100
00001000
,  // measure 41
00000010
00010000
00001000
00010000
01000000
00100000
00010000
00100000
,  // measure 42
01000000
10000000
00010000
10000000
00100000
01000000
00010000
01000000
,  // measure 43
00100000
10000000
00001000
20000000
00000000
01000000
01000000
31000000
,  // measure 44
00000000
00000000
00210000
00000000
00000000
00001000
00001000
00301000
,  // measure 45
00010000
00000000
00000000
00000100
00000020
00000001
00000001
00000031
,  // measure 46
00000100
00000000
00000000
00000010
00001000
00000000
00000100
00000000
,  // measure 47
00000010
00000001
00001000
00000001
00000200
00000001
00000001
00000301
,  // measure 48
00000000
00000000
00001002
00000000
00000000
00000010
00000010
00000013
,  // measure 49
00000000
00000000
00001200
00000000
00000000
00010000
00010000
00010300
,  // measure 50
00001000
00000000
00000000
00100000
01000000
00000000
11000000
00000000
,  // measure 51
10000000
01000000
00010000
00001000
00000200
00000010
00000010
00000310
,  // measure 52
00000200
00000300
00000002
00000003
,  // measure 53
00000020
00000030
00002000
00003000
,  // measure 54
00200000
00300000
02000000
03000000
,  // measure 55
20000000
30000000
00020000
00030000
,  // measure 56
00002000
00003000
00000200
00000300
,  // measure 57
00000020
00000030
00002000
00003000
,  // measure 58
00020000
00030000
00200000
00300000
,  // measure 59
10000000
01000000
00100000
00010000
00001000
00000100
00000010
00000001
,  // measure 60
00000100
00000001
00001000
00000100
00010000
00001000
01000000
00010000
,  // measure 61
00100000
01000000
10000000
00010000
01000000
00100000
00010000
00100000
,  // measure 62
01000000
00001000
00010000
00000100
00000010
00001000
00000010
00000100
,  // measure 63
00001000
00000001
00000100
00000010
00010000
0000100M
000M1000
0000100M
,  // measure 64
01000000
00010000
00100000
00010000
01000000
00100M00
0M100000
00100M00
,  // measure 65
10000000
01000000
00010000
01000000
10000000
0001M000
M0010000
0001M000
,  // measure 66
01000000
00000000
00000000
00001000
00010000
00000000
00010100
00000000
,  // measure 67
00000100
00000010
00000001
00000100
00000010
00010000
00001000
00100000
,  // measure 68
02000000
03000000
20000000
30000000
,  // measure 69
00200000
00300000
00002000
00003000
,  // measure 70
00000002
00000003
00000000
00000000
;
