#VERSION:0.83;
#TITLE:Mrs. Doriot;
#SUBTITLE:;
#ARTIST:バーバパパ;
#TITLETRANSLIT:;
#SUBTITLETRANSLIT:;
#ARTISTTRANSLIT:kakeru;
#GENRE:;
#ORIGIN:;
#CREDIT:;
#BANNER:Mrs Doriot.png;
#BACKGROUND:Mrs Doriot-bg.png;
#PREVIEWVID:;
#JACKET:Mrs Doriot-jacket.png;
#CDIMAGE:;
#DISCIMAGE:;
#LYRICSPATH:;
#CDTITLE:;
#MUSIC:Mrs Doriot.ogg;
#OFFSET:0.000000;
#SAMPLESTART:45.000000;
#SAMPLELENGTH:12.000000;
#SELECTABLE:YES;
#BPMS:0.000=128.000;
#STOPS:;
#DELAYS:;
#WARPS:;
#TIMESIGNATURES:0.000=4=4;
#TICKCOUNTS:0.000=4;
#COMBOS:0.000=1;
#SPEEDS:0.000=1.000=0.000=0;
#SCROLLS:0.000=1.000;
#FAKES:;
#LABELS:0.000=Song Start;
#BGCHANGES:0.000=Mrs Doriot.avi=1.000=0=0=1=====,
99999=-nosongbg-=1.000=0=0=0 // don't automatically add -songbackground-
;
#KEYSOUNDS:;
#ATTACKS:
;

//---------------dance-single - ----------------
#NOTEDATA:;
#CHARTNAME:;
#STEPSTYPE:dance-single;
#DESCRIPTION:;
#CHARTSTYLE:;
#DIFFICULTY:Hard;
#METER:10;
#RADARVALUES:0.412905,0.440961,0.240861,0.333500,0.018528,312.000000,286.000000,26.000000,36.000000,0.000000,0.000000,0.000000,0.000000,0.000000,0.412905,0.440961,0.240861,0.333500,0.018528,312.000000,286.000000,26.000000,36.000000,0.000000,0.000000,0.000000,0.000000,0.000000;
#CREDIT:Ben Speirs;
#NOTES:
0000
0000
0000
0000
,
0000
0000
0000
0000
,
0000
0000
0000
0000
,
0000
0000
0000
0000
,
1000
0010
0100
0010
0000
0100
0001
0100
,
0000
0001
1000
0001
0000
1000
0200
0000
,
0310
0001
1000
0001
0000
1000
0010
1000
,
0000
0001
0100
0001
2000
0000
3001
0000
,
1000
0100
1000
0020
0000
0130
0001
2000
,
0000
3100
0010
0002
0000
1003
0010
1000
,
0001
0010
0100
2000
0000
3001
0100
0002
,
0000
1003
0010
2000
0000
3001
0010
0000
,
0001
1000
0001
0100
0100
0010
1000
1200
,
0000
1300
0001
1000
0010
0100
0001
0000
,
1000
0001
1000
0010
0010
0100
0001
0021
,
0000
0031
1000
0001
0100
0100
0100
0000
,
0102
0000
0100
0100
0000
0100
0000
1000
,
0000
1000
0000
0010
0013
0000
0011
0000
,
2000
0000
0100
0100
0000
0100
0000
0001
,
0000
0001
0000
0010
3010
0000
1010
0000
,
1000
0000
0000
1000
0100
0000
0000
0000
0010
0000
0000
0010
0001
0000
0000
0000
,
1000
0000
0000
0001
0100
0000
0000
0000
0001
0000
0000
1000
0100
0000
0000
0000
,
1000
0001
1000
0001
0100
0010
0100
0010
,
1000
0100
0001
0010
1000
0000
1001
0000
,
0000
0001
0100
0001
1000
0100
1000
0020
,
0000
0130
0001
0020
0000
0130
1000
0001
,
0000
1000
0100
1000
0001
0100
0001
0020
,
0000
0130
1000
0020
0000
0130
0002
0000
,
1003
0100
1000
0001
0100
0020
0000
0130
,
0002
0000
0103
0020
0000
1030
0001
0010
,
0100
1000
0001
1000
0010
0200
0000
0301
,
2000
0000
3001
0100
0100
0010
1000
0000
,
1010
0000
1001
0000
0001
0001
0000
0100
,
0000
0100
0000
0001
1000
0000
1001
0000
,
0001
0000
0010
0000
0100
0100
0000
1001
,
0000
0000
0000
0000
,
1100
0000
0101
0000
1000
1000
0000
0001
,
0000
1000
0000
0010
0010
0000
0110
0000
,
1001
0000
0101
0000
1000
1000
0000
1001
,
0000
0000
0000
0000
0001
0010
0100
1000
,
0020
0000
0100
0000
0000
0130
0000
0000
,
0000
0010
0100
0001
0020
0000
0130
0000
,
0200
0000
0010
0000
0000
0310
0000
0000
,
0000
0010
0001
0100
0020
0000
0130
0000
,
0110
1010
0110
0101
,
1000
0100
0001
0000
0001
0100
1000
0000
,
1100
0000
0101
0000
1000
0000
0010
0010
,
0000
0110
0000
2002
0000
0000
3003
0000
,
0002
0000
0103
0010
0000
0010
1000
0100
,
0020
0000
0031
1000
0000
1000
0001
0100
,
0020
0000
1030
0100
0000
0100
1000
0001
,
0100
0010
1000
0001
0020
0000
0130
0000
,
2100
0000
3001
0100
0000
0100
0010
1000
,
0002
0000
0013
0100
0000
0100
1000
0001
,
0200
0000
0310
1000
0000
1000
0010
0100
,
0001
0010
0100
1000
0002
0000
1003
0000
,
1001
0000
0000
0000
;

//---------------dance-single - ----------------
#NOTEDATA:;
#CHARTNAME:;
#STEPSTYPE:dance-single;
#DESCRIPTION:;
#CHARTSTYLE:;
#DIFFICULTY:Medium;
#METER:8;
#RADARVALUES:0.332177,0.415022,0.185278,0.277917,0.000000,251.000000,231.000000,20.000000,30.000000,0.000000,0.000000,0.000000,0.000000,0.000000,0.332177,0.415022,0.185278,0.277917,0.000000,251.000000,231.000000,20.000000,30.000000,0.000000,0.000000,0.000000,0.000000,0.000000;
#CREDIT:Ben Speirs;
#NOTES:
0000
0000
0000
0000
,
0000
0000
0000
0000
,
0000
0000
0000
0000
,
0000
0000
0000
0000
,
0001
0000
0100
0010
0000
0000
1000
0100
,
0000
0000
0010
0001
0000
0000
1000
0000
,
0001
0000
1000
0010
0000
0000
0100
0001
,
0000
0000
1000
0000
0001
1000
0001
1000
,
0001
0101
1000
1100
,
0001
0000
0010
0000
0100
1000
0010
0000
,
1000
1010
0001
0011
,
0001
0000
1000
0000
0001
1000
0100
0000
,
2000
0000
3100
0010
0100
0000
0010
0001
,
0010
0000
0001
1000
0002
0000
0103
0000
,
0001
0000
0100
0010
0200
0000
0310
1000
,
0020
0000
1030
0001
2000
0000
3001
0000
,
2200
3300
0100
0100
,
0010
0000
0001
1000
0020
0000
0130
0000
,
0202
0303
0001
0100
,
0100
0000
0010
1000
0002
0000
0003
0000
,
1000
1100
0001
0101
,
1000
1010
0001
0011
,
1001
0110
1001
0110
,
2002
0000
3003
0000
0001
1000
0001
1000
,
0001
0000
0100
0000
0010
1000
0100
0000
,
1000
0000
0100
1000
0010
0000
1000
0000
,
0100
0000
0010
0000
0001
0010
0100
0000
,
0010
0000
0001
0100
0010
0000
0100
0000
,
0001
0000
1000
0000
0001
0100
0010
0000
,
1000
0100
0010
0000
0001
0100
0010
0000
,
1000
0000
0001
0000
1000
0100
0010
0000
,
0001
0010
0100
0000
1000
0010
0100
0000
,
0001
0000
0001
0000
0100
0100
0000
0100
,
0000
0100
0000
0010
0010
0000
0010
0000
,
1000
0000
1000
0000
0001
0001
0000
1001
,
0000
0000
0000
0000
,
1000
0000
0100
0000
1000
0010
0000
0100
,
0000
0100
0000
0001
1000
0000
0001
0000
,
0010
0000
0010
0000
0001
0100
0000
1001
,
0000
0000
0000
0000
0001
0010
0100
1000
,
0020
0000
0100
0000
0000
0130
0000
0000
,
0000
0000
0010
0100
0001
0000
1000
0000
,
0200
0000
0010
0000
0000
0310
0000
0000
,
0000
0000
0100
1000
0001
0000
0000
0000
,
1000
1000
0001
0001
,
0100
0100
0010
0010
,
1000
0010
1000
0000
0001
0000
0010
0010
,
0000
0100
0000
2002
0000
0000
3003
0000
,
0002
0000
0103
0000
0000
0001
0100
0001
,
2000
0000
3100
0000
0000
1000
0100
1000
,
0002
0000
0013
0000
0000
0001
0010
0001
,
2000
3020
0230
0300
,
2002
0000
3003
0000
0000
1000
0100
1000
,
0002
0000
0103
0000
0000
0001
0100
0001
,
2000
0000
3010
0000
0000
1000
0010
1000
,
0002
0000
0023
0000
0230
0000
1300
0001
,
1001
0000
0000
0000
;

//---------------dance-single - ----------------
#NOTEDATA:;
#CHARTNAME:;
#STEPSTYPE:dance-single;
#DESCRIPTION:;
#CHARTSTYLE:;
#DIFFICULTY:Easy;
#METER:5;
#RADARVALUES:0.213070,0.233450,0.009264,0.092639,0.000000,161.000000,160.000000,1.000000,10.000000,0.000000,0.000000,0.000000,0.000000,0.000000,0.213070,0.233450,0.009264,0.092639,0.000000,161.000000,160.000000,1.000000,10.000000,0.000000,0.000000,0.000000,0.000000,0.000000;
#CREDIT:Ben Speirs;
#NOTES:
0000
0000
0000
0000
,
0000
0000
0000
0000
,
0000
0000
0000
0000
,
0000
0000
0000
0000
,
1000
0001
0100
0100
,
0001
1000
0010
0000
,
1000
0001
0010
0010
,
0001
1000
0100
0000
,
1000
0010
0100
0100
,
0001
0010
0100
0000
,
0010
0001
1000
1000
,
0001
1000
0010
0000
,
1000
0001
0100
0100
,
0010
1000
0001
0000
,
1000
0100
0010
0010
,
0001
1000
0010
0000
,
2000
3000
1000
0000
,
0002
0003
0001
0000
,
0200
0300
0100
0000
,
0010
1000
0001
0000
,
1000
0100
1000
0000
,
0001
0100
0001
0000
,
1000
0010
0100
0001
,
0010
0100
1000
0000
,
0001
0010
0100
1000
,
0010
0100
0001
1000
,
0001
0010
0100
1000
,
0001
1000
0010
0000
,
1000
0010
0100
0001
,
0010
0100
0010
0001
,
1000
0001
0100
0010
,
1000
0001
1000
0000
,
0001
0001
0001
0000
,
0100
0000
0010
0010
,
0010
0000
1000
1000
,
1000
0000
0000
0000
,
1000
0100
1000
0000
,
0100
0000
0010
0010
,
0001
0100
0001
0000
,
0100
0000
0001
1000
,
0010
0000
0010
0000
0000
0010
0000
0000
,
0000
1000
0001
0000
,
0100
0000
0100
0000
0000
0100
0000
0000
,
0000
0001
1000
0000
,
0001
0010
0100
0000
,
1000
0010
0100
0000
,
0010
0000
0010
0000
0100
0000
0000
0001
,
0000
1000
0000
0001
0000
0000
0000
0000
,
0002
0003
0000
1000
,
0020
0030
0000
0100
,
0002
0003
0000
1000
,
0100
0100
0010
0000
,
0002
0003
0001
1000
,
0020
0030
0010
0100
,
0020
0030
1000
0001
,
1000
1000
0200
0300
,
1001
0000
0000
0000
;

//---------------dance-single - ----------------
#NOTEDATA:;
#CHARTNAME:;
#STEPSTYPE:dance-single;
#DESCRIPTION:;
#CHARTSTYLE:;
#DIFFICULTY:Beginner;
#METER:2;
#RADARVALUES:0.101903,0.155633,0.018528,0.000000,0.000000,77.000000,75.000000,2.000000,0.000000,0.000000,0.000000,0.000000,0.000000,0.000000,0.101903,0.155633,0.018528,0.000000,0.000000,77.000000,75.000000,2.000000,0.000000,0.000000,0.000000,0.000000,0.000000,0.000000;
#CREDIT:Ben Speirs;
#NOTES:
0000
0000
0000
0000
,
0000
0000
0000
0000
,
0000
0000
0000
0000
,
0000
0000
0000
0000
,
0001
0000
0000
0000
,
1000
0000
0000
0000
,
0010
0000
0000
0000
,
0010
0000
0000
0000
,
1000
0000
1000
0000
,
1000
0000
0000
0000
,
0001
0000
0001
0000
,
0001
0000
0000
0000
,
0100
0000
0100
0000
,
0100
0000
0000
0000
,
0010
0000
0010
0000
,
0010
0000
0000
0000
,
1000
0000
0000
0000
,
0001
0000
0000
0000
,
0010
0000
0000
0000
,
0100
0000
0000
0000
,
1000
0000
1000
0000
,
1000
0000
0000
0000
,
0001
0000
0001
0000
,
0001
0000
0000
0000
,
1001
0000
0000
0000
,
1000
1000
0000
1000
,
1000
0000
0000
0000
,
0010
0010
0000
0010
,
0010
0000
0000
0000
,
0100
0100
0000
0100
,
0100
0000
0000
0000
,
0001
0000
0001
0000
,
0001
0000
0000
0000
,
1000
0000
0000
0000
,
0010
0000
0010
0000
,
0010
0000
0000
0000
,
1000
0000
0000
0000
,
0001
0000
0000
0000
,
0100
0000
0100
0000
,
0100
0000
0000
0000
,
0001
0001
0000
0000
,
0001
0000
0000
0000
,
1000
1000
0000
0000
,
1000
0000
0000
0000
,
0010
0000
0010
0000
,
0010
0000
0000
0000
,
0010
0000
0010
0000
,
0000
0000
0000
0000
,
1001
0000
0000
0000
,
1000
0000
0000
0000
,
0100
0000
0000
0000
,
0010
0000
0000
0000
,
0001
0000
0000
0001
,
0001
0000
0000
0100
,
0100
0000
0000
0010
,
0010
0000
0010
0000
,
0010
0000
0000
0000
;

//---------------dance-double - ----------------
#NOTEDATA:;
#CHARTNAME:;
#STEPSTYPE:dance-double;
#DESCRIPTION:;
#CHARTSTYLE:;
#DIFFICULTY:Hard;
#METER:11;
#RADARVALUES:0.439373,0.466900,0.287181,0.463195,0.023160,332.000000,301.000000,31.000000,50.000000,0.000000,0.000000,0.000000,0.000000,0.000000,0.439373,0.466900,0.287181,0.463195,0.023160,332.000000,301.000000,31.000000,50.000000,0.000000,0.000000,0.000000,0.000000,0.000000;
#CREDIT:Ben Speirs;
#NOTES:
// measure 0
00000000
00000000
00000000
00000000
,  // measure 1
00000000
00000000
00000000
00000000
,  // measure 2
00000000
00000000
00000000
00000000
,  // measure 3
00000000
00000000
00000000
00000000
,  // measure 4
00021000
00000000
00001000
00001000
00000000
00001000
00000000
01000000
,  // measure 5
00000000
01000000
00000000
00001000
00031000
00000000
00011000
00000000
,  // measure 6
00002000
00000000
00010000
00010000
00000000
00010000
00000000
00000100
,  // measure 7
00000000
00000100
00000000
00010000
00013000
00000100
00000010
00000001
,  // measure 8
00001000
00000010
00001000
00000002
00000000
00000103
00000010
00000200
,  // measure 9
00000000
00000310
00001000
00000020
00000000
00001030
00000100
00010000
,  // measure 10
00001000
00100000
00010000
00200000
00000000
00310000
01000000
00020000
,  // measure 11
00000000
10030000
00100000
20000000
00000000
30010000
00200000
00000000
,  // measure 12
00310000
10000000
00010000
01000000
01000000
00001000
00010000
00010200
,  // measure 13
00000000
00001300
00000010
00001000
00000001
00001000
00000200
00000000
,  // measure 14
00001300
00000001
00001000
00000010
00000010
00010000
00001000
00201000
,  // measure 15
00000000
00310000
01000000
00010000
10000000
01000000
00100000
00010000
,  // measure 16
20000000
00000000
01000000
01000000
00000000
00010000
00000000
30002000
,  // measure 17
00000000
02003000
00000000
03000100
00000200
00000000
00001300
00000000
,  // measure 18
00000002
00000000
00000010
00000010
00000000
00001000
00000000
00020003
,  // measure 19
00000000
00030020
00000000
00100030
00200000
00000000
00310000
10000000
,  // measure 20
00010000
00000000
00000000
10000000
01000000
00000000
00000000
00000000
00100000
00000000
00000000
00001000
00010000
00000000
00000000
00000000
,  // measure 21
00000100
00000000
00000000
00001000
00000010
00000000
00000000
00000000
00000100
00000000
00000000
00000001
00001000
00000000
00000000
00000000
,  // measure 22
00000001
00000100
00000010
00000100
00001000
00000100
00000001
00000010
,  // measure 23
00001000
00010000
01000000
10000000
00100000
00000000
10010000
00000000
,  // measure 24
00000000
00010000
01000000
00010000
10000000
01000000
10000000
00200000
,  // measure 25
00000000
00310000
00001000
00020000
00000000
00031000
00000010
00000001
,  // measure 26
00000030
00001000
00000010
00001000
00000001
00000010
00000001
00000200
,  // measure 27
00000000
00001300
00010000
00002000
00000000
00013000
02000000
00000000
,  // measure 28
13000000
00100000
01000000
00100000
10000000
00020000
00000000
00130000
,  // measure 29
00002000
00000000
00013000
00000020
00000000
00000130
00000001
00001000
,  // measure 30
00000031
00000100
00000010
00000100
00000001
00002000
00000000
00003100
,  // measure 31
00020000
00000000
00031000
01000000
01000000
03100000
10000000
00000000
,  // measure 32
10010000
00000000
01001000
00000000
00001000
00011000
00000000
00010100
,  // measure 33
00000000
00000110
00000000
00000001
00000011
00000000
00001001
00000000
,  // measure 34
00000101
00000000
00000110
00000000
00001000
00001010
00000000
00001001
,  // measure 35
00000000
00000001
00000010
00000100
00002000
00000000
00003010
00000000
,  // measure 36
00001001
00000000
00010010
00000000
00010000
00011000
00000000
00101000
,  // measure 37
00000000
01100000
00000000
10000000
11000000
00000000
10010000
00000000
,  // measure 38
10100000
00000000
01100000
00000000
00010000
01010000
00000000
10010000
,  // measure 39
00000000
00000000
10000000
00000000
01000000
00000000
00100000
00000000
00010000
10000000
00010000
00000000
01030000
00000000
00000000
00000000
,  // measure 40
00002000
00000000
00100000
00000000
00000000
00023000
00000000
00030200
,  // measure 41
00000000
00001300
00000010
00000100
00000001
00000000
00001000
00000010
,  // measure 42
00020000
00000000
00000100
00000000
00000000
00032000
00000000
00203000
,  // measure 43
00000000
00310000
01000000
00100000
10000000
00000000
10010000
00000000
,  // measure 44
00010000
00000000
01000000
00000000
00100000
00000000
00010000
00020000
,  // measure 45
00000000
00032000
00000000
00003010
00000001
00001000
00000001
00000000
,  // measure 46
00001000
00000000
00000001
00000000
00000100
00000000
00001000
00002000
,  // measure 47
00000000
00023000
00000000
00230000
00000000
01000000
01300000
00000000
,  // measure 48
20010000
00000000
31000000
00100000
00000000
00100000
00010000
01000000
,  // measure 49
00002000
00000000
00013000
00000010
00000000
00000010
00000100
00000001
,  // measure 50
00002000
00000000
00003001
00000100
00000000
00000100
00000001
00001000
,  // measure 51
00000100
00000001
00000100
00001000
00000020
00000000
00010030
00001000
,  // measure 52
00021000
00000000
00031000
00100000
00001000
00100000
00010000
01000000
,  // measure 53
00200000
00000000
10300000
01000000
10000000
01000000
00100000
00001000
,  // measure 54
00020000
00000000
00030100
00001000
00000100
00001000
00000001
00000100
,  // measure 55
00000001
00000010
00001000
00010000
02000000
00000000
03100000
00000000
,  // measure 56
10010000
00000000
00000000
00000000
;

//---------------dance-single - ----------------
#NOTEDATA:;
#CHARTNAME:;
#STEPSTYPE:dance-single;
#DESCRIPTION:;
#CHARTSTYLE:;
#DIFFICULTY:Challenge;
#METER:13;
#RADARVALUES:0.608770,0.596595,0.444667,0.259389,0.379820,460.000000,412.000000,48.000000,28.000000,0.000000,0.000000,0.000000,0.000000,0.000000,0.608770,0.596595,0.444667,0.259389,0.379820,460.000000,412.000000,48.000000,28.000000,0.000000,0.000000,0.000000,0.000000,0.000000;
#CREDIT:Ben Speirs;
#NOTES:
0000
0000
0000
0000
,
0000
0000
0000
0000
,
0000
0000
0000
0000
,
0000
0000
0000
0000
,
1000
0100
0001
0100
0000
1000
0100
1000
,
0000
0001
0100
0001
0000
1000
0010
1000
,
0001
0010
1000
0010
0000
0001
0010
0001
,
0000
0000
1000
0000
0010
0000
1000
0000
0002
0003
0200
0300
2000
3000
0200
0300
,
0001
0010
0100
2000
0010
3001
1000
0002
,
0010
1003
0001
0200
0001
0310
1000
0001
,
1000
0100
0010
0002
0100
1003
0001
2000
,
0100
3001
1000
0020
1000
0130
0001
1000
,
0001
0000
0010
0000
0100
0000
1000
0100
0000
0100
0000
0100
0010
0000
0001
0000
,
1000
0000
0001
0000
0100
0000
0010
1000
0000
1000
0000
1000
0001
0000
0100
0000
,
0001
0000
1000
0000
0100
0000
0010
0001
0000
1000
0000
0001
0010
0000
0100
0000
,
1000
0001
1000
0001
0000
1000
0100
1000
0000
0001
0100
0001
1000
0000
0001
0000
,
0200
0000
0001
0001
0000
1000
0000
0010
,
0000
0301
0010
0100
1100
0000
1001
1000
,
0020
0000
1000
1000
0000
0001
0000
0100
,
0000
0000
0000
1030
0000
0000
0100
0000
0000
0010
0000
0000
0001
0000
0100
0000
0001
0000
1000
0000
0100
0000
1000
0000
,
0001
0000
0000
1000
0010
0000
1000
0000
0001
0000
0000
0001
0010
0000
0001
0000
,
1000
0000
0000
1000
0100
0000
1000
0000
0001
0000
0000
0001
0100
0000
0001
0000
,
1000
0100
1000
0000
0100
0000
0010
0000
0001
0100
0001
0000
0100
0000
0010
0000
,
1000
0010
1000
0000
0001
0010
0100
1000
0001
0000
0000
0000
1001
0000
0000
0000
,
1000
0000
0100
0000
0001
0000
0100
0000
0010
0000
0001
0010
0100
0000
1000
0000
,
0001
0100
0010
0000
1000
0000
0001
1000
0001
0000
0100
0000
0010
0000
1000
0000
,
0001
0000
0010
0000
1000
0000
0010
0000
0100
0000
1000
0100
0010
0000
0001
0000
,
1000
0010
0100
0000
0001
0000
1000
0001
1000
0000
0010
0000
0110
0000
0000
0000
,
0001
0000
0100
0000
0010
0000
1000
0100
0000
0100
0000
1000
0001
0000
1000
0000
,
0001
0100
0001
0000
1000
0000
0001
0010
0100
0000
1000
0000
0002
0000
0000
0000
,
1003
0000
0010
0000
0100
0000
0001
0010
0000
0010
0000
0001
1000
0000
0001
0000
,
1000
0010
1000
0000
0001
0000
1000
0100
0010
0100
0010
0001
1000
0000
0000
0000
,
1001
0000
1100
0000
0101
0101
0000
1010
,
0000
1001
0000
0011
0011
0000
0110
0000
,
1001
0000
1100
0000
0101
0101
0000
1001
,
0000
1000
0100
0010
0002
0000
1003
0000
,
0101
0001
0110
0000
1010
1100
0100
0110
,
0000
0011
0001
1100
1001
0000
0101
0000
,
1010
0010
0101
0000
0011
0110
0100
1001
,
0000
0000
0001
0000
0010
0000
0100
0000
1000
0010
0100
0001
1000
0000
0001
0000
,
0100
0000
0101
0100
0000
2010
0000
3001
,
0000
1000
1100
0100
0010
0000
2001
0000
,
3010
0000
1010
0010
0000
0102
0000
1003
,
0000
0001
0011
0010
0100
0000
1002
0000
,
1003
0000
0100
0000
1100
0000
1000
0010
0000
0010
0100
0000
0101
0000
0001
0000
,
1000
0000
0200
0000
0301
0300
0200
0000
1300
0000
0001
0000
0101
0000
0000
0000
,
3001
0000
0010
0000
0011
0000
0001
0100
0000
0100
0010
0000
1010
0000
1100
0000
,
0000
0110
0000
1001
0000
0001
0100
0010
,
2000
0000
3001
0100
0001
0000
1000
0100
0000
0000
1000
0000
0100
0000
0010
0000
,
0002
0000
1003
0010
1000
0000
0001
0010
0000
0000
0001
0000
0010
0000
0100
1000
,
0020
0000
0130
0001
0100
0000
0010
1000
0000
0000
0001
0000
0010
0000
1000
0000
,
0010
0000
0001
1000
0001
0000
1000
0100
2000
0000
0300
0000
3001
0010
0100
1000
,
0020
0000
1030
0001
1000
0000
0001
0010
0000
0010
0001
0000
0010
0000
0100
0000
,
2000
0000
3001
0100
0001
0000
1000
0010
0000
0010
1000
0000
0010
0000
0100
0001
,
2000
0000
3001
0010
0001
0000
1000
0100
0000
0100
1000
0000
0001
0000
0100
0000
,
0010
0000
1000
0100
0010
0000
0001
0100
0020
0000
0000
0000
1030
0100
0010
0001
,
1000
0000
0000
0000
;
