#TITLE:Monster;
#SUBTITLE:;
#ARTIST:The Automatic;
#TITLETRANSLIT:;
#SUBTITLETRANSLIT:;
#ARTISTTRANSLIT:;
#GENRE:;
#CREDIT:;
#BANNER:Monster.png;
#BACKGROUND:Monster-bg.png;
#LYRICSPATH:;
#CDTITLE:;
#MUSIC:Monster.ogg;
#OFFSET:0.017000;
#SAMPLESTART:40.748802;
#SAMPLELENGTH:12.000000;
#SELECTABLE:YES;
#BPMS:0.000000=141.330002
;
#STOPS:248.000000=5.931000
;
#BGCHANGES:0.000=Monster.avi=1.000=0=0=1=====,
99999=-nosongbg-=1.000=0=0=0 // don't automatically add -songbackground-
;
#KEYSOUNDS:;
#ATTACKS:;

//---------------dance-single - ----------------
#NOTES:
     dance-single:
     :
     Hard:
     11:
     0.577062,0.578749,0.535442,0.346462,0.106301,513.000000,445.000000,68.000000,44.000000,0.000000,0.000000,0.577062,0.578749,0.535442,0.346462,0.106301,513.000000,445.000000,68.000000,44.000000,0.000000,0.000000:
// measure 0
0000
0000
0000
0000
,  // measure 1
0000
0000
0000
0000
,  // measure 2
0000
0000
0000
0000
,  // measure 3
0000
0000
0000
0000
,  // measure 4
1000
0001
0100
0001
0000
1000
0100
1000
,  // measure 5
0000
0001
0010
0001
0000
1000
0010
1000
,  // measure 6
0000
0001
0100
0010
0000
1000
0100
0010
,  // measure 7
0000
0000
0001
0000
1000
0000
0000
0000
0001
1000
0001
1000
0001
1000
0001
1000
,  // measure 8
0001
0100
0010
0100
0001
0100
0010
0100
,  // measure 9
0001
1000
0010
1000
0001
1000
0010
1000
,  // measure 10
0001
0011
0110
2100
,  // measure 11
3001
1010
0110
0102
,  // measure 12
1003
0010
0100
0010
1000
0010
0100
0010
,  // measure 13
1000
0001
0100
0001
1000
0001
0100
0001
,  // measure 14
1000
0100
1100
0012
,  // measure 15
0103
0000
0000
0000
0001
0000
0000
0000
0101
0000
0000
0000
1010
0000
1000
0001
,  // measure 16
1000
0100
0010
0100
0001
0100
0010
0100
,  // measure 17
1000
0100
0001
0100
1000
0100
0020
0000
,  // measure 18
0031
0100
0101
0000
0110
0000
1010
0000
,  // measure 19
1000
0100
1100
0000
0110
0000
1001
0000
,  // measure 20
0001
0010
0100
0010
1000
0010
0100
0100
,  // measure 21
1000
0010
0001
0010
1000
0001
1000
0000
,  // measure 22
0001
0100
0101
0000
1100
0000
1002
0000
,  // measure 23
1003
0100
0001
0100
0010
0100
2000
0000
,  // measure 24
3031
0000
0102
0000
2003
0000
3010
0100
,  // measure 25
0010
0100
0001
0010
1000
0010
0001
0100
,  // measure 26
0101
0000
0101
0000
0101
0100
0010
1000
,  // measure 27
1100
0000
0000
0000
1100
0000
0000
0000
1100
0000
1000
0000
0001
0000
1000
0001
,  // measure 28
1303
0000
2010
0000
3002
0000
0103
0010
,  // measure 29
0100
0010
1000
0100
0001
0100
1000
0010
,  // measure 30
1010
0000
1010
0000
1010
0010
0100
0001
,  // measure 31
0011
0000
0000
0000
0011
0000
0000
0000
0011
0000
0001
0000
1000
0000
0001
1000
,  // measure 32
0002
0103
0020
1030
0200
0310
2000
3010
,  // measure 33
0002
1003
0000
0201
0000
0010
0310
0000
,  // measure 34
2000
3010
0200
0301
0020
0130
0002
0103
,  // measure 35
2000
0000
3001
0000
0000
0000
1000
0000
0001
0100
0001
0100
0031
0100
0001
0100
,  // measure 36
0002
1003
0200
0310
0002
0103
2000
3100
,  // measure 37
0020
1030
0001
0020
0000
0100
0130
0000
,  // measure 38
0020
0031
0200
0301
2000
3001
0200
0301
,  // measure 39
0020
0000
0130
0000
2000
0000
3130
0000
0002
0000
3103
0000
1000
0001
1000
0001
,  // measure 40
1000
0000
0000
0000
,  // measure 41
0000
0000
0000
0000
0000
0000
0000
0000
0000
0000
0000
0000
0001
0100
0001
0100
,  // measure 42
0001
0000
1000
1010
0000
0110
0000
1001
,  // measure 43
0000
0001
0010
0100
0010
0001
1000
0000
,  // measure 44
0001
0000
1000
0100
1000
0100
1000
0000
0000
0000
1010
0000
0000
0000
0001
0000
,  // measure 45
0200
0000
0000
0000
0310
0000
1000
0000
0200
0000
0000
0000
0310
0000
0001
1000
,  // measure 46
0001
1000
0100
1000
0000
1100
0000
1001
,  // measure 47
0000
0001
0100
0001
0000
0101
0000
1001
,  // measure 48
0000
1000
0010
1000
0000
1010
0000
1001
,  // measure 49
0000
0000
0001
0000
0010
0000
0100
0000
1000
0000
0010
0000
1000
0001
1000
0001
,  // measure 50
1000
0001
0010
0001
0000
0011
0000
1001
,  // measure 51
1000
0001
1000
0010
0000
1010
0000
1001
,  // measure 52
0001
1000
0001
0100
0000
0101
0000
1001
,  // measure 53
0001
0000
1000
0000
0100
0000
0010
0000
0001
0000
0100
0000
0001
1000
0001
1000
,  // measure 54
0031
0100
0010
1000
0001
0010
0100
2100
,  // measure 55
0000
3001
0100
0010
1000
0100
0010
0012
,  // measure 56
0000
1003
0010
0100
0001
0010
0001
2001
,  // measure 57
0000
0000
3010
0000
0200
0000
0000
0000
0302
0000
0000
0000
1003
0100
1000
0100
,  // measure 58
1000
0001
0100
0010
1000
0100
0010
0011
,  // measure 59
0001
1000
0010
0100
0001
0010
0100
1100
,  // measure 60
0100
1000
0010
0100
0001
1000
0010
1010
,  // measure 61
1000
0000
0001
0000
0011
0000
0000
0000
0110
0000
0000
0000
1000
0001
1000
0001
,  // measure 62
1000
0010
1001
0101
,  // measure 63
2010
0000
3001
0010
0100
0010
1000
0010
,  // measure 64
0001
0100
0010
1000
1100
0000
1001
0000
,  // measure 65
1100
0100
1000
0001
0101
0000
1001
0000
,  // measure 66
0101
0000
0100
0000
0010
0000
1000
0001
2000
0000
0000
0000
3200
0000
0000
0000
,  // measure 67
0310
0001
1000
0000
0001
0100
0010
1000
,  // measure 68
0100
0010
0001
0000
1000
0100
1000
0100
,  // measure 69
0001
0100
0001
0100
0010
0001
0100
0010
,  // measure 70
1001
0000
0000
0000
;

//---------------dance-single - ----------------
#NOTES:
     dance-single:
     :
     Medium:
     8:
     0.372334,0.413392,0.377959,0.543316,0.000000,331.000000,283.000000,48.000000,69.000000,0.000000,0.000000,0.372334,0.413392,0.377959,0.543316,0.000000,331.000000,283.000000,48.000000,69.000000,0.000000,0.000000:
0000
0000
0000
0000
,
0000
0000
0000
0000
,
0000
0000
0000
0000
,
0000
0000
0000
0000
,
1000
0001
0100
0000
,
0001
1000
0100
0000
,
1000
1000
0001
0001
,
0100
0010
2002
3003
,
0001
0100
0001
0000
1000
0100
1000
0000
,
0001
0010
0001
0000
1000
0010
1000
0000
,
0000
1010
0110
0101
,
0000
0011
0110
1100
,
1000
0100
1000
0000
0001
0100
0001
0000
,
1000
0010
1000
0000
0001
0010
0001
0000
,
0000
0001
0011
0110
,
0000
1000
1010
0110
,
0001
1000
0020
0000
1030
0001
0020
0000
,
0031
1000
0200
0000
1300
0001
0200
0000
,
0300
0001
0101
1001
,
0000
1000
1100
1001
,
1000
0001
0200
0000
0301
1000
0200
0000
,
1300
0001
0020
0000
0031
1000
0020
0000
,
0030
1000
1010
1001
,
0000
0001
0011
1001
,
2100
3002
0203
0310
,
1000
0001
1000
0002
0000
0000
0013
0000
,
0011
2002
3003
1000
,
1010
2002
3003
0001
,
0012
2003
3020
0130
,
0001
1000
0001
2000
0000
0000
3100
0000
,
1100
2002
3003
0001
,
0101
2002
3003
1000
,
0001
0100
0001
0000
0100
0010
0100
0000
,
0010
0000
1000
0200
0000
0000
0300
0000
,
1000
0100
1000
0000
0100
0010
0100
0000
,
0010
0000
0001
0200
0000
0000
0300
0000
,
0001
0100
0001
0000
1000
0010
1000
0000
,
0001
0000
1000
0200
0000
0000
0300
0000
,
2000
3200
0302
0203
,
2300
0000
3020
0000
0230
0000
0301
1000
,
0001
0000
0000
0000
,
0000
0000
0000
0110
,
2001
0000
3000
0100
0000
0100
0000
0010
,
0000
0010
0000
0001
2000
0000
3002
0000
,
0103
0000
0100
0010
0000
0010
0000
1000
,
0002
0013
0200
1300
,
0001
1000
0010
1000
0000
0010
0000
0010
,
0000
0100
0001
0100
0000
0001
0000
0001
,
0000
1000
0100
1000
0000
0100
0000
0100
,
0000
1100
0110
1001
,
0000
0001
0100
0001
0000
0100
0000
0100
,
0000
0010
1000
0010
0000
1000
0000
1000
,
0000
0001
0010
0001
0000
0010
0000
0010
,
0000
0011
0110
1001
,
0000
1000
0100
0020
0000
0032
0000
2003
,
0000
3001
0100
0020
0000
2030
0000
3002
,
0000
1003
0100
0020
0000
0032
0000
2003
,
0000
3000
1001
0000
0110
0000
1001
0000
,
0000
0001
1000
0200
0000
0320
0000
0032
,
0000
1003
0010
0200
0000
0302
0000
0023
,
0000
0130
1000
0002
0000
2003
0000
3020
,
0000
0130
0002
0000
2003
0000
3010
0000
,
1001
0010
1010
0101
,
1001
0000
0001
0100
0001
0100
0010
2000
,
0000
3001
0101
2002
,
3003
1000
1100
2002
,
3003
0000
0001
1000
0020
0000
0230
0000
,
0301
0000
1000
0000
0001
0010
0100
0000
,
2000
0000
3100
0000
1000
0100
1000
0000
,
0001
0100
0001
0000
1000
0100
0010
0001
,
1000
0000
0000
0000
;

//---------------dance-single - ----------------
#NOTES:
     dance-single:
     :
     Easy:
     5:
     0.245223,0.303154,0.125986,0.181105,0.000000,218.000000,202.000000,16.000000,23.000000,0.000000,0.000000,0.245223,0.303154,0.125986,0.181105,0.000000,218.000000,202.000000,16.000000,23.000000,0.000000,0.000000:
0000
0000
0000
0000
,
0000
0000
0000
0000
,
0000
0000
0000
0000
,
0000
0000
0000
0000
,
0001
0000
0100
0000
,
0010
0000
0010
0000
,
1000
0000
0100
0000
,
0010
0000
0010
0000
,
0001
0100
0001
0100
,
0010
1000
0010
1000
,
0000
1000
1000
1000
,
0000
0001
0001
0001
,
1000
0100
1000
0100
,
0010
0001
0010
0001
,
0000
0001
0001
0001
,
0000
1000
1000
1000
,
0000
0001
0001
0100
,
0100
0010
0010
1000
,
0000
1000
0100
1000
,
0000
0001
0100
0001
,
1000
1000
0100
0100
,
0010
0010
0001
1000
,
0000
0001
0100
0001
,
0000
1000
0010
1000
,
0000
0010
0010
0100
,
0001
1000
0001
0000
,
1001
1001
0000
0010
,
1001
1001
0000
0000
,
0001
0010
0001
1000
,
0100
1000
0010
0000
,
1001
1001
0000
0010
,
1001
1001
0000
0000
,
2000
3000
0200
0300
,
0010
0001
0200
0300
,
0002
0003
0020
0030
,
0100
1000
0020
0030
,
2000
3000
0002
0003
,
0100
0100
0002
0003
,
0002
0023
0230
2300
,
3020
0230
0302
2003
,
3001
0000
0000
0000
,
0000
0000
0000
0110
,
2002
3003
1000
1000
,
0001
0001
0100
0000
,
0002
0003
0100
0100
,
0020
0030
2000
3000
,
0001
0010
0100
0000
,
1000
0010
0100
0000
,
0001
0100
0010
0000
,
1000
0001
1000
0000
,
0001
0010
0100
0000
,
1000
0010
0100
0000
,
0010
1000
0010
0000
,
1000
0100
0010
0000
,
0001
0010
0001
1000
,
0001
0100
0001
0000
,
1000
0100
1000
0001
,
1000
0010
1000
0000
,
0001
0001
1000
1000
,
0100
0100
0010
0010
,
0001
0001
1000
1000
,
0001
0100
0010
1000
,
1001
0000
1000
0100
,
0100
0010
0010
0001
,
1000
0000
1001
1001
,
0000
0010
1001
1001
,
0000
0001
0100
0200
,
0000
0300
0010
0010
,
1000
0000
0001
0100
,
0001
0100
0010
1000
,
1001
0000
0000
0000
;

//---------------dance-single - ----------------
#NOTES:
     dance-single:
     :
     Beginner:
     2:
     0.114737,0.165357,0.015748,0.000000,0.000000,102.000000,100.000000,2.000000,0.000000,0.000000,0.000000,0.114737,0.165357,0.015748,0.000000,0.000000,102.000000,100.000000,2.000000,0.000000,0.000000,0.000000:
0000
0000
0000
0000
,
0000
0000
0000
0000
,
0000
0000
0000
0000
,
0000
0000
0000
0000
,
1000
0000
0000
0000
,
0001
0000
0000
0000
,
0100
0000
0000
0000
,
0100
0000
0000
0000
,
0010
0000
0010
0000
,
0010
0000
0010
0000
,
0000
0000
0010
0010
,
0000
0000
0000
0000
,
0100
0000
0100
0000
,
0100
0000
0100
0000
,
0000
0000
0100
0100
,
0000
0000
0000
0000
,
0001
0000
0001
0000
,
0001
0000
0001
0000
,
0000
0000
0001
0001
,
0000
0000
0000
0000
,
1000
0000
1000
0000
,
1000
0000
1000
0000
,
0000
0000
1000
1000
,
0000
0000
0000
0000
,
1001
0000
0000
0000
,
0001
0000
0001
0000
,
0100
0100
0000
0000
,
0100
0100
0000
0000
,
1001
0000
0000
0000
,
1000
0000
1000
0000
,
0100
0100
0000
0000
,
0100
0100
0000
0000
,
1000
0000
1000
0000
,
1000
0000
0000
0000
,
0001
0000
0001
0000
,
0001
0000
0000
0000
,
0100
0000
0100
0000
,
0100
0000
0000
0000
,
0010
0000
0010
0000
,
0010
0000
0010
0000
,
0010
0000
0000
0000
,
0000
0000
0000
0000
,
1000
0000
0000
0000
,
0001
0000
0000
0000
,
0100
0000
0100
0000
,
0100
0000
0000
0000
,
0001
0000
0000
0000
,
1000
0000
0000
0000
,
0010
0000
0000
0000
,
0000
0010
0010
0010
,
0010
0000
0000
0000
,
1000
0000
0000
0000
,
0001
0000
0000
0000
,
0000
0100
0100
0100
,
0100
0000
0000
0000
,
0001
0000
0000
0000
,
1000
0000
0000
0000
,
0000
0001
0001
0001
,
0001
0000
0000
0000
,
0010
0000
0000
0000
,
0100
0000
0000
0000
,
0000
1000
1000
1000
,
1000
0000
0000
0001
,
0001
0000
0001
0000
,
0000
0000
0100
0100
,
0000
0000
0100
0100
,
0000
0000
0010
0010
,
0000
0000
1000
0000
,
0000
0000
0001
0000
,
0001
0000
0001
0000
,
0001
0000
0000
0000
;
