#VERSION:0.83;
#TITLE:Monster;
#SUBTITLE:;
#ARTIST:LIVVIA;
#TITLETRANSLIT:;
#SUBTITLETRANSLIT:;
#ARTISTTRANSLIT:;
#GENRE:;
#CREDIT:NOWHERE Dance Club;
#MUSIC:Monster.ogg;
#BANNER:Monster-bn.png;
#BACKGROUND:Monster-bg.png;
#CDTITLE:;
#SAMPLESTART:75.825;
#SAMPLELENGTH:23.996;
#SELECTABLE:YES;
#OFFSET:0.161;
#BPMS:0.000=180.034;
#STOPS:;
#BGCHANGES:0.483=Monster.avi=1.000=0=0=0=StretchNoLoop====,
99999=-nosongbg-=1.000=0=0=0 // don't automatically add -songbackground-
#FGCHANGES:;

//--------------- dance-single - NOWHERE Dance Club ----------------
#NOTEDATA:;
#STEPSTYPE:dance-single;
#DESCRIPTION:NOWHERE Dance Club;
#DIFFICULTY:Beginner;
#METER:3;
#RADARVALUES:0,0,0,0,0;
#NOTES:
0000
0000
0000
0000
,
0000
0000
0000
0000
,
0000
0000
0000
0000
,
1000
0000
0000
0000
,
0000
0000
0000
0000
,
0001
0000
0000
0000
,
0000
0000
0000
0000
,
1000
0000
0000
0000
,
0000
0000
0000
0000
,
0100
0000
0000
0000
,
0000
0000
0000
0000
,
0010
0000
0000
0000
,
0001
0000
0000
0000
,
1000
0000
0000
0000
,
0001
0000
0000
0000
,
0100
0000
0000
0000
,
0010
0000
0000
0000
,
1000
0000
0000
0000
,
0001
0000
0000
0000
,
0010
0000
0000
0000
,
0010
0000
0000
0000
,
0001
0000
0000
0000
,
0100
0000
0000
0000
,
0010
0000
0000
0000
,
0010
0000
0000
0000
,
1000
0000
0000
0000
,
0001
0000
0000
0000
,
0010
0000
0100
0000
,
0010
0000
0100
0000
,
0010
0000
0000
0000
,
0001
0000
0000
0000
,
1000
0000
0001
0000
,
1000
0000
0001
0000
,
1000
0000
0000
0000
,
0010
0000
0000
0000
,
0100
0000
0000
0000
,
0010
0000
0000
0000
,
1000
0000
0000
0000
,
0001
0000
0000
0000
,
0010
0000
0100
0000
,
0010
0000
0100
0000
,
0010
0000
0000
0000
,
0001
0000
0000
0000
,
1000
0000
0000
0000
,
0010
0000
0000
0000
,
0100
0000
0000
0000
,
0001
0000
0000
0000
,
0001
0000
0000
0000
,
0100
0000
0000
0000
,
0010
0000
0000
0000
,
0010
0000
0000
0000
,
1000
0000
0000
0000
,
0100
0000
0000
0000
,
0010
0000
0000
0000
,
0010
0000
0000
0000
,
0001
0000
0000
0000
,
0100
0000
0000
0000
,
0110
0000
0000
0000
,
1001
0000
0000
0000
,
0001
0000
0001
0000
,
0100
0000
0010
0000
,
1000
0000
0000
0000
,
1000
0000
0000
0000
,
0100
0000
0010
0000
,
0001
0000
0001
0000
,
1000
0000
0000
0000
,
0001
0000
0000
0000
,
0100
0000
0000
0000
,
0010
0000
0000
0000
,
0100
0000
0000
0000
,
0001
0000
0000
0000
,
1000
0000
1000
0000
,
0100
0000
0100
0000
,
0010
0000
0010
0000
,
0001
0000
0000
0000
,
1000
0000
0000
0000
,
0010
0000
0000
0000
,
0100
0000
0000
0000
,
0001
0000
0000
0000
,
1000
0000
0000
0000
,
0001
0000
0000
0000
,
0010
0000
0000
0000
,
0100
0000
0010
0000
,
0100
0000
0000
0000
;

//--------------- dance-single - NOWHERE Dance Club ----------------
#NOTEDATA:;
#STEPSTYPE:dance-single;
#DESCRIPTION:NOWHERE Dance Club;
#DIFFICULTY:Easy;
#METER:5;
#RADARVALUES:0,0,0,0,0;
#NOTES:
0000
0000
0000
0000
,
0000
0000
0000
0000
,
0000
0000
0000
0000
,
0001
0000
0000
0000
,
0100
0000
0000
0000
,
0001
0000
0000
0000
,
1000
0000
0000
0000
,
1000
0000
0000
0000
,
0001
0000
0000
0000
,
0010
0000
0000
0000
,
0001
0000
0001
0000
,
1000
0000
0000
0000
,
0100
0000
0000
0000
,
0010
0000
0000
0000
,
0001
0000
0000
0000
,
0001
0000
1000
0000
,
0001
0000
0000
0000
,
0100
0000
0001
0000
,
0100
0000
0000
0000
,
0010
0000
0000
0000
,
0100
0000
0000
0000
,
0100
0000
0000
0000
,
0010
0000
0000
0000
,
1000
0000
0000
0000
,
0010
0000
0000
0000
,
1000
0000
0000
0000
,
0001
0000
0000
0000
,
0010
0000
0001
0000
,
0010
0000
0001
0000
,
0100
0000
0010
0000
,
1000
0000
0000
0000
,
0100
0000
0010
0000
,
0100
0000
0010
0000
,
0001
0000
1000
0000
,
0001
0000
0000
0000
,
0100
0000
0010
0000
,
0010
0000
1000
0000
,
0100
0000
0010
0000
,
0010
0000
0001
0000
,
0100
0000
0001
0000
,
0100
0000
0010
0000
,
1000
0000
0100
0000
,
1000
0000
0000
0000
,
0001
0000
0000
0000
,
0010
0000
0000
0000
,
0001
0000
1000
0000
,
0001
0000
0100
0000
,
0010
0000
0000
0000
,
0100
0000
0000
0000
,
0010
0000
1000
0000
,
0010
0000
1000
0000
,
0100
0000
0000
0000
,
0010
0000
0000
0000
,
0100
0000
0010
0000
,
0100
0000
0010
0000
,
0001
0000
0000
0000
,
1000
0000
0000
0000
,
2002
0000
0000
0000
,
0000
0000
3003
0000
,
0001
0000
0100
0000
,
0001
0000
0100
0000
,
0010
0000
0100
0000
,
0010
0000
1000
0000
,
0100
0000
0010
0000
,
0100
0000
0010
0000
,
0001
0000
0100
0000
,
0001
0000
0000
1000
,
0001
0000
0000
0000
,
0100
0000
0000
0000
,
0001
0000
0000
0000
,
0100
0000
0000
0000
,
0010
0000
1000
0000
,
1000
0000
0010
0000
,
0010
0000
0100
0000
,
0100
0000
0110
0000
,
1001
0000
1000
0000
,
0100
0000
0010
0000
,
0001
0000
0100
0000
,
0010
0000
1000
0000
,
0001
0000
0010
0000
,
0100
0000
1000
0000
,
0001
0000
0100
0000
,
0010
0000
1000
0000
,
1001
0000
0000
0000
;

//--------------- dance-single - NOWHERE Dance Club ----------------
#NOTEDATA:;
#STEPSTYPE:dance-single;
#DESCRIPTION:NOWHERE Dance Club;
#DIFFICULTY:Medium;
#METER:8;
#RADARVALUES:0,0,0,0,0;
#NOTES:
0000
0000
0000
0000
,
0000
0000
0000
0000
,
0000
0000
0000
0000
,
0001
0000
0100
0000
,
0010
0000
0100
0000
,
0001
0000
0010
0000
,
0001
0000
0100
0000
,
0010
0000
1000
0000
,
0100
0000
1000
0000
,
0010
0000
0100
0000
,
0001
0000
1000
0100
,
0002
0000
0103
0000
,
1000
0000
0001
0010
,
2000
0000
3010
0000
,
0001
0000
1000
0010
,
0100
0000
0010
0000
,
1000
0000
0010
0100
,
0010
0000
0100
0000
,
0001
0000
0010
0000
,
0100
0010
0001
0010
,
0100
0000
0010
0001
,
1000
0000
1000
0010
,
0100
0000
0001
0100
,
0001
0000
1000
0100
,
1000
0000
0001
1000
,
0002
0000
0000
0000
,
2003
0000
0000
3000
,
0001
0100
1000
0001
,
0010
1000
0001
1000
,
0001
0000
1000
1000
,
0001
0000
1001
0000
,
1000
0100
0001
1000
,
0010
0001
1000
0001
,
1000
0000
0001
0001
,
1000
0000
1000
0001
,
1000
0000
0100
0010
,
0001
0000
2000
0000
,
3001
0000
1000
0010
,
0100
0000
0002
0000
,
1003
0000
0010
0000
,
0001
0000
0010
0000
,
1000
0000
0001
0001
,
1000
0000
1001
0000
,
0001
0000
0010
0000
,
0001
0000
0100
0001
,
1000
0000
1000
0000
,
1000
0000
1010
0000
,
1000
0000
0100
0000
,
1000
0000
0001
1000
,
0001
0000
0001
0000
,
0001
0000
0011
0000
,
0002
0000
0103
0010
,
2000
0000
3010
0100
,
0020
0000
1000
0000
,
1030
0000
1001
0000
,
2000
0000
3100
0010
,
0002
0000
0103
0010
,
1000
0000
1000
0000
,
2000
0000
0000
0000
,
3001
0010
1000
0001
,
0100
1000
0001
1000
,
0001
0000
1000
1000
,
0001
0000
0010
0100
0010
0000
0001
0000
,
1000
0010
0001
1000
,
0100
0001
1000
0001
,
1000
0000
0001
0001
,
0100
0000
0010
0200
,
0001
0000
0301
0100
,
0010
0000
0020
0000
,
2030
0000
3001
0001
,
0010
0000
0100
0000
,
1000
0000
0100
0000
,
0001
0000
0100
0000
,
1000
0000
0010
0000
,
2000
0000
0001
0000
,
3001
0100
0001
1000
,
0010
1000
0002
0000
,
1003
0001
0010
0001
,
0100
0001
0020
0100
,
0130
0010
0001
1000
,
0010
0000
0100
0000
0010
0000
0010
1000
,
0000
0001
1000
0001
,
0100
0000
0010
0000
2000
0000
0000
3100
;

//--------------- dance-single - NOWHERE Dance Club ----------------
#NOTEDATA:;
#STEPSTYPE:dance-single;
#DESCRIPTION:NOWHERE Dance Club;
#DIFFICULTY:Hard;
#METER:10;
#RADARVALUES:0,0,0,0,0;
#NOTES:
0000
0000
0000
0000
,
0000
0000
0000
0000
,
0000
0000
0000
0000
,
0001
0000
0010
0000
,
0100
0000
1000
0000
,
0001
0000
0100
0000
,
0010
1000
0001
0000
,
0100
0000
0010
0000
,
1000
0000
0100
0000
,
0010
0000
0001
0000
,
1000
0010
0100
0001
,
1000
0000
1000
0100
,
0010
0000
0001
0100
,
1000
0000
1000
0100
,
0001
0000
1000
0001
,
1000
0100
0010
0000
,
0001
0000
0001
0010
,
0001
0000
0100
0000
0001
0000
0100
0010
,
2000
0000
3010
0000
,
1000
0001
0001
1000
,
0100
0000
1000
0100
,
0010
0000
0001
0100
,
0010
0000
1000
1000
,
0010
0000
0100
0100
,
0001
0000
0010
0100
,
1000
0001
1000
0000
,
2002
0000
0000
3003
,
1000
0100
0001
1000
,
0001
0100
1000
0001
,
1000
0000
0001
0001
,
0010
0000
2002
3003
,
1000
0010
0001
1000
,
0001
0010
1000
0001
,
1000
0000
0001
0010
,
0010
0000
2001
0000
,
3100
0000
0000
0000
1000
0100
0010
0001
,
1000
0001
0002
0000
,
0103
0000
0000
0000
0001
0100
0010
1000
,
0001
1000
0002
0103
,
0010
1000
0010
0100
,
0010
1000
0001
0010
,
0110
0000
1000
0001
,
2002
0000
0000
0000
0000
0000
0000
00M0
0M00
00M0
0M00
00M0
3003
0000
0000
0000
,
1000
0000
0001
0100
0010
0000
1000
0000
,
0001
0000
0001
0020
0000
0000
0031
0000
,
0002
1000
0000
0100
,
0000
1003
0000
1000
,
0001
0000
1000
0100
0010
0001
1000
0000
,
0010
1000
2000
3001
,
0002
0100
0000
1000
,
0000
0103
0000
1000
,
0001
0000
0100
0010
0100
0010
1000
0000
,
0010
0100
0010
2000
0000
0000
3200
0000
,
0000
0010
0000
0001
,
0000
0310
0000
0001
,
0100
0000
0010
1000
0010
0000
1000
0000
,
0100
0010
0001
1000
,
0002
0000
1000
0000
,
2000
0000
0000
3003
,
0001
0100
1000
0001
,
1000
0100
0001
1000
,
0010
0000
1000
0001
,
0020
0100
0130
0010
,
0001
0010
1000
0001
,
1000
0010
0001
1000
,
0100
0000
1000
1000
,
0200
0300
0M02
1003
,
1001
0000
0000
0000
1000
0100
0010
0001
,
1000
0020
0230
0000
,
0320
0000
1000
1030
,
0001
1000
0010
0100
,
0001
0000
0010
0000
0001
0100
0001
0200
,
0000
0000
0000
0000
0310
1000
0010
2000
,
0000
0000
0000
0000
3001
1000
0001
0020
,
0000
0000
0031
0100
,
0200
0310
1000
0010
,
1000
0200
0310
0001
,
0200
0310
1000
0010
,
0200
0301
1000
1001
,
0001
0020
0130
1000
,
0010
0200
0310
1010
,
1000
0100
0010
0001
,
1000
0000
0010
0100
0001
0000
0010
0100
;
