#TITLE:Modern;
#SUBTITLE:;
#ARTIST:bignic;
#TITLETRANSLIT:;
#SUBTITLETRANSLIT:;
#ARTISTTRANSLIT:;
#GENRE:;
#CREDIT:DrJusticeTX;
#MUSIC:Modern.ogg;
#BANNER:Modern Banner.png;
#BACKGROUND:Modern BG.png;
#CDTITLE:Modern Jacket.png;
#SAMPLESTART:49.881;
#SAMPLELENGTH:15.667;
#SELECTABLE:YES;
#OFFSET:0.065;
#BPMS:0.000=103.000;
#STOPS:;
#BGCHANGES:;
#FGCHANGES:;

//--------------- dance-single - DrJusticeTX ----------------
#NOTES:
     dance-single:
     DrJusticeTX:
     Easy:
     6:
     0,0,0,0,0:
0000
0000
0000
0000
,
0000
0000
0000
0000
,
0000
0000
0000
0000
,
1000
0000
0001
1000
0001
0000
1000
0000
,
0001
0000
0010
0100
1000
0000
0001
0000
,
1000
0000
0010
0100
0001
0000
1000
0000
,
0100
0000
0001
0100
0001
0000
1000
0000
,
0001
0000
1000
0100
1000
0000
0010
0000
,
0100
0000
0001
0100
0010
0000
1000
0000
,
0020
0000
0000
0030
2000
0000
0000
3000
,
0002
0000
0000
0003
2002
0000
0000
0000
,
0000
0000
0000
3003
0000
0000
MMMM
0000
,
1001
0000
0001
0100
0001
0000
0101
0000
,
1001
0000
1000
0100
1000
0000
1100
0000
,
1001
0000
0001
0100
0010
0000
0110
0000
,
0001
1000
0001
0000
2002
3003
0010
0000
,
0110
0000
1000
0100
0010
0000
1000
0000
,
0110
0000
0001
0100
0010
0000
0001
0000
,
0110
0000
1000
0001
1000
0000
0001
0000
,
0100
0010
0000
0000
2002
3003
0110
0000
,
0000
1000
0001
0000
0100
0001
0100
0000
,
0000
1000
0000
0001
0100
0010
0100
0000
,
0000
0001
0100
0001
1000
0000
0001
0000
,
2020
0000
0000
0000
0000
0000
0000
0M00
303M
0M00
0000
0000
0000
0000
0000
0000
0101
0000
0000
0000
0000
0000
0000
0000
0001
0000
0000
0000
0100
0000
0000
0000
,
0000
0001
1000
0000
1000
0100
1000
0000
,
0000
0001
0000
1000
0100
0010
0100
0000
,
0000
1000
0100
1000
0001
0000
1000
0000
,
0010
0100
0000
0000
0001
0010
0000
0001
,
0000
0010
0100
0000
1000
0010
0100
0000
,
0000
0001
0010
0000
0001
0010
0100
1000
,
0000
0100
0010
0001
1000
0000
0001
0000
,
1001
0000
0000
0000
0001
0000
1000
0000
0010
0000
0100
0000
1001
0000
00M0
00M0
,
0101
0000
0001
1000
0010
0000
1010
0000
,
1100
0000
0100
0010
0001
0000
0011
0000
,
1001
0000
0001
0100
0010
0000
0110
0000
,
0100
0001
0000
0000
0110
0000
1010
0000
,
0011
0000
1000
0100
0010
0000
0110
0000
,
0011
0000
0001
0100
0010
0000
0110
0000
,
1001
0000
1000
0100
0001
0000
0100
0000
,
1000
0001
0000
0000
2002
3003
0110
0000
,
0000
0100
0001
0000
1000
0100
0010
0000
,
0000
0100
0000
1000
0001
0100
0010
0000
,
0000
0100
0001
0100
0010
0000
1000
0000
,
0001
0010
0000
0000
0100
1000
0000
0001
,
0000
1000
0001
0000
1000
0010
1000
0000
,
0000
0010
0000
0001
0010
0100
0010
0000
,
0000
0100
0001
1000
0010
0000
1000
0000
,
0001
0000
0010
0000
0001
0000
0100
0000
0010
0000
1000
0000
0001
00M0
0M00
0MM0
,
1001
0000
0001
0100
0001
0000
0101
0000
,
1001
0000
1000
0100
1000
0000
1100
0000
,
1001
0000
0001
0100
0010
0000
0110
0000
,
0010
0000
1000
0000
0001
0000
0000
0000
2002
0000
3003
0000
1001
0000
0M00
00M0
;

//--------------- dance-single - DrJusticeTX ----------------
#NOTES:
     dance-single:
     DrJusticeTX:
     Medium:
     9:
     0,0,0,0,0:
0000
0000
0000
0000
,
0000
0000
0000
0000
,
0000
0000
0000
0000
,
0000
0002
0003
0000
0010
0000
0100
0000
1000
0000
0000
0010
0000
0000
1000
0001
,
0000
2000
3000
0000
0010
0000
1000
0000
0001
0000
0000
0100
0000
0000
0001
1000
,
0000
0200
0300
0000
0001
0000
0100
0000
1000
0000
0000
0001
0000
0000
0100
0010
,
0000
0200
0300
0000
0001
0000
1000
0000
0001
0000
0000
0010
0000
0000
0100
1000
,
0000
0200
0300
0000
1000
0000
0001
0000
1000
0000
0000
0010
0000
0000
0001
0100
,
0000
0002
0003
0000
1000
0000
0100
0000
0010
0000
0000
0100
0000
0000
1000
0001
,
0000
2000
3000
0000
0200
0000
0000
0300
0020
0000
0000
0030
0002
0000
0000
0003
,
0200
0000
0000
0300
0020
0000
0000
0030
2000
0000
0000
3000
0002
0000
0000
0000
,
2000
0000
0000
0000
0000
0000
0000
0000
0000
3003
0000
0000
MMMM
0000
0000
0000
,
2001
0000
3000
0000
1000
0000
0010
0000
1000
0000
0100
1000
0000
0001
1000
0001
,
0000
0000
1000
0000
0100
0000
0010
0000
0001
0000
0100
0001
0000
1000
0001
1000
,
0000
0000
0010
0000
1000
0000
0100
0000
0010
0000
0001
0100
0000
0010
0100
0010
,
0000
0000
1000
0000
0010
0000
1000
0000
2002
0000
3003
0000
0100
0000
0000
1001
,
0000
0000
0001
0000
1000
0000
0100
0000
0010
0000
0001
0010
0000
0001
0010
0001
,
0000
0000
1000
0000
0001
0000
0100
0000
0010
0000
1000
0010
0000
1000
0010
1000
,
0000
0000
0001
0000
0100
0000
0010
0000
0100
0000
0001
0100
0000
0010
0100
0010
,
0000
0000
1000
0000
0010
0000
1000
0000
2002
0000
3003
0220
0330
0000
1001
0000
,
0000
0000
1000
0000
0001
0000
0000
0100
0010
0000
0100
0002
0000
0000
0003
0000
,
0000
0000
0001
0000
1000
0000
0000
0100
1000
0000
0001
0100
0000
0001
0000
0000
,
0000
0000
1000
0000
0001
0000
1000
0001
1000
0001
0000
0100
0000
0000
0000
0010
,
0000
0000
1000
0000
0000
0000
0000
0M00
000M
0M00
0000
0000
0000
0000
0001
0000
0000
0000
0020
0000
0030
0000
0000
0000
0001
0000
0000
0000
0000
0000
0100
0000
,
0000
0000
1000
0000
0010
0000
0000
1000
0010
0000
0100
0001
0000
0000
0000
0000
,
0000
0000
1000
0000
0001
0000
0000
1000
0010
0000
0100
0001
0000
0100
0000
0000
,
0000
0000
0001
0000
1000
0000
0001
0100
0001
0100
0000
0010
0000
0000
0000
0010
,
0000
2000
3000
0000
0000
0000
0000
0001
0000
0200
0300
0000
0010
0000
0000
0100
,
0000
0000
0001
0000
0010
0000
0000
0100
0010
0000
0100
2000
3000
0000
0000
0000
,
0000
0000
0001
0000
0100
0000
0000
0001
1000
0000
0010
1000
0000
0010
0000
0000
,
0000
0000
1000
0000
0001
0000
1000
0100
1000
0100
0000
0010
0000
0000
0000
0001
,
0000
0010
0000
0000
0001
0000
1000
0000
0010
0000
0100
0001
0000
0100
000M
M000
,
0110
0000
0000
0000
1000
0000
0010
0000
0100
0000
0001
1000
0000
0001
0010
0001
,
0000
0000
0010
0000
0100
0000
1000
0000
0010
0000
1000
0001
0000
1000
0010
1000
,
0000
0000
0100
0000
0001
0000
0100
0000
1000
0000
0010
1000
0000
0001
1000
0001
,
0000
0000
0100
0000
0010
0000
0100
0000
2002
0000
3003
0000
0010
0000
0000
0110
,
0000
0000
0000
0000
0001
0000
1000
0000
0010
0000
0100
0010
0000
1000
0010
1000
,
0000
0000
0001
0000
0010
0000
0100
0000
1000
0000
0001
1000
0000
0001
0010
0001
,
0000
0000
0100
0000
1000
0000
0100
0000
0001
0000
0010
0001
0000
1000
0001
1000
,
0000
0000
0010
0000
0100
0000
1000
0000
2002
0000
3003
2002
3003
0000
1001
0000
,
0000
0000
0001
0000
1000
0000
0000
0010
1000
0000
0010
0200
0000
0000
0300
0000
,
0000
0000
0001
0000
0100
0000
0000
0001
1000
0000
0010
1000
0000
0010
0000
0000
,
0000
0000
1000
0000
0001
0000
0100
1000
0100
0001
0000
0100
0000
0000
0000
0101
,
0000
0202
0000
0303
0000
0000
0000
1100
0000
2200
0000
3300
0000
0000
0000
0000
,
0000
0000
0001
0000
1000
0000
0000
0100
0010
0000
0001
0020
0000
0030
0000
0000
,
0000
0000
0010
0000
0100
0000
0000
1000
0100
0000
1000
0001
0000
1000
0000
0000
,
0000
0000
0010
0000
0100
0000
0010
0001
0010
1000
0000
0010
0000
0000
0000
0000
,
1010
0000
0100
0000
0001
0000
0100
0000
1000
0000
0100
0000
0010
000M
M000
M00M
,
0110
0000
0000
0000
0001
0000
0100
0000
0010
0000
1000
0010
0000
0100
0010
0100
,
0000
0000
0001
0000
1000
0000
0100
0000
0010
0000
0001
0010
0000
0100
0010
0100
,
0000
0000
0001
0000
0100
0000
0010
0000
0001
0000
0100
0001
0000
1000
0001
1000
,
0000
0000
0100
0000
1000
0000
0001
0000
2002
0000
3003
2002
0000
3003
M000
000M
;

//--------------- dance-single - DrJusticeTX ----------------
#NOTES:
     dance-single:
     DrJusticeTX:
     Hard:
     14:
     0,0,0,0,0:
0000
0000
0000
0000
,
0000
0000
0000
0000
,
0000
0000
0000
0000
,
0000
0001
0000
0000
0010
0000
0100
0000
1000
0000
0000
0010
0000
0000
1000
0001
,
0000
0200
0000
0000
0301
0000
1000
0000
0100
0000
0000
0010
0000
0001
0100
0001
,
0000
0200
0000
0000
0301
0000
1000
0000
0100
0000
0000
0010
0000
0001
0010
0001
,
0000
0200
0000
0000
0310
0000
1000
0000
0010
0000
0000
0100
0000
0001
0010
0100
,
0000
0020
0000
0000
0130
0000
0001
0000
0100
0000
0000
1000
0000
0001
0100
0010
,
0000
1000
0000
0000
0100
0000
0010
0000
0100
0000
0000
1000
0000
0001
0100
0010
,
0000
2000
0000
0000
3200
0000
2000
0300
0020
3000
0200
0030
0002
0300
0020
0003
,
0200
0030
2000
0300
0020
3000
0002
0030
0020
0003
2000
0030
0002
3000
0000
0000
,
2000
0000
0000
0000
0000
0000
0000
0000
0000
3003
0000
0000
MMMM
0000
0000
0000
,
1001
0000
0001
0010
0001
1000
0100
1000
0100
1000
0010
0100
0000
0001
1000
0001
,
0000
1000
0001
0010
0001
1000
0100
1000
0100
1000
0010
0100
0000
0001
1000
0001
,
0000
1000
0100
0001
0100
0010
0100
1000
0001
0010
0100
1000
0000
0001
0100
0001
,
0000
1000
0001
0100
0010
1000
0001
1000
2002
0000
3003
0000
1000
0001
0000
1001
,
0000
0000
1000
0010
1000
0001
0100
0001
0100
0001
0010
0100
0000
1000
0001
1000
,
0000
1000
0001
0010
0001
1000
0100
1000
0100
1000
0010
0100
0000
0001
1000
0001
,
0000
1000
0100
1000
0001
1000
0010
1000
0001
0010
0100
1000
0000
0001
1000
0100
,
0000
1000
0001
0100
0010
1000
0001
1000
2002
0000
3003
0202
0303
0000
1010
0000
,
0000
0000
1000
0000
0100
0000
0001
0100
1000
0001
0010
0002
0000
0000
0003
0000
,
0000
1000
0001
0100
1000
0100
0001
0010
0100
1000
0001
0010
0000
0100
0000
0000
,
0000
0000
0001
0000
0001
0000
1000
0100
0010
0100
1000
0100
0000
1000
0001
0020
,
0030
0000
0100
0000
0000
0000
0000
M000
000M
0M00
0000
0000
2000
0000
3001
0000
0000
0000
0100
0000
0000
0000
0010
0000
1000
0000
0001
0000
0000
0000
0001
0000
,
0000
1000
0001
0000
1000
0000
0010
1000
0001
1000
0010
0200
0000
0300
0000
0000
,
0000
0001
1000
0100
1000
0001
0010
0001
0100
0010
1000
0001
0000
2000
0000
3000
,
0000
1000
0001
0000
1000
0100
0010
0001
0010
0001
1000
0100
0000
1000
0010
0100
,
0000
0002
0000
0003
0000
1000
0100
0010
0000
0200
0300
1000
0001
0001
0000
1000
,
0000
0000
0010
0000
1000
0000
0001
1000
0001
0010
0100
2000
0000
0000
3000
0000
,
0000
1000
0001
0010
0001
1000
0010
1000
0100
0001
0100
0010
0000
0001
0000
0000
,
0000
0000
1000
0000
0100
1000
0001
1000
0010
0100
0010
0100
0000
1000
0001
0200
,
0300
0010
0000
0000
0100
0100
0001
0001
0010
0100
1000
0020
0030
0100
000M
M000
,
0110
0000
1000
0100
1000
0001
0100
0001
0100
0001
0010
0100
0000
1000
0001
1000
,
0000
1000
0001
0010
0001
1000
0100
1000
0100
1000
0010
0100
0000
0001
1000
0001
,
0000
1000
0100
0001
0100
0010
0100
1000
0001
0010
0100
1000
0000
0001
1000
0100
,
0000
1000
0001
0100
0010
1000
0001
1000
2002
0000
3003
0000
0001
1000
0000
1001
,
0000
0000
0001
0010
0001
1000
0100
1000
0100
1000
0010
0100
0000
0001
1000
0001
,
0000
0001
1000
0010
1000
0001
0100
0001
0100
0001
0010
0100
0000
1000
0001
1000
,
0000
0001
0100
1000
0100
0010
0100
0001
1000
0010
0100
0001
0000
1000
0001
0100
,
0000
0001
1000
0100
0010
0001
1000
0001
2002
0000
3003
2200
3300
0000
0011
0000
,
0000
0000
1000
0000
0100
0000
0001
0100
0010
0100
1000
0020
0000
0000
0030
0000
,
0000
1000
0100
1000
0100
1000
0001
0100
0010
1000
0100
0010
0000
0200
0000
0300
,
0000
0000
0001
0000
1000
0001
0100
1000
0100
0010
0100
0001
0000
0001
1000
0020
,
0030
0200
0000
0300
0000
1000
0001
0200
0300
0001
0000
0001
1000
1000
0000
0001
,
0000
0000
0010
0000
0100
0000
1000
0010
1000
0001
0100
0002
0000
0003
0000
0000
,
0000
1000
0010
1000
0001
1000
0001
0010
0100
0010
0001
1000
0000
0010
0000
0000
,
0000
0000
0001
0000
0010
0001
0010
0001
0010
0100
1000
0010
0000
1000
0001
1000
,
0000
0000
0001
0000
0101
0000
1000
0010
0000
2200
3300
1000
0010
010M
M000
M00M
,
0220
0330
1000
0010
1000
0001
0100
0001
0100
0001
0010
0100
0000
1000
0001
1000
,
0000
1000
0001
0010
0001
1000
0100
1000
0100
1000
0010
0100
0000
0001
1000
0001
,
0000
1000
0100
0001
0100
0010
0100
1000
0001
0010
0100
1000
0000
0001
0100
0001
,
0000
1000
0001
0100
0010
1000
0001
1000
2002
0000
3003
2002
0000
3003
M000
000M
;
