#VERSION:0.83;
#TITLE:Mitternacht;
#SUBTITLE:;
#ARTIST:E Nomine;
#TITLETRANSLIT:;
#SUBTITLETRANSLIT:;
#ARTISTTRANSLIT:;
#GENRE:Trance;
#CREDIT:;
#MUSIC:Mitternacht.ogg;
#BANNER:Mitternacht-bn.png;
#BACKGROUND:Mitternacht-bg.png;
#CDTITLE:;
#SAMPLESTART:64.122;
#SAMPLELENGTH:15.000;
#SELECTABLE:YES;
#OFFSET:0.000;
#BPMS:0.000=131.000;
#STOPS:172.000=2.748;
#SPEEDS:0.000=1.000=0.000=0;
#SCROLLS:0.000=1.000;
#TICKCOUNTS:0.000=4;
#TIMESIGNATURES:0.000=4=4;
#LABELS:0.000=Song Start;
#COMBOS:0.000=1;
#ORIGIN:Germany;
#TAGS:;
#PREVIEWVID:;
#JACKET:Mitternacht-jacket.png;
#CDIMAGE:;
#DISCIMAGE:;
#BGCHANGES:2.750=Mitternacht.mp4=1.000=0=0=1,
317.500=Mitternacht-bg.png=1.000=0=0=1,
99999.000=-nosongbg-=1.000=0=0=0=StretchNoLoop====,
99999.000=-nosongbg-=1.000=0=0=0=StretchNoLoop====
;
#FGCHANGES:;

//--------------- dance-single - RaverAce ----------------
#NOTEDATA:;
#STEPSTYPE:dance-single;
#DESCRIPTION:RaverAce;
#DIFFICULTY:Beginner;
#METER:2;
#RADARVALUES:0,0,0,0,0,0,0,0,0,0,0,0,0,0,0,0,0,0,0,0,0,0,0,0,0,0,0,0;
#CHARTNAME:;
#CHARTHASH:3168436767;
#BANNER:;
#CHARTSTYLE:;
#METERF:2.000000;
#LASTSECONDHINT:141.068604;
#CREDIT:RaverAce;
#NOTES:
0000
0000
0000
0000
,
0000
0000
0000
0000
,
0000
0000
0000
0000
,
0000
0000
0000
0000
,
0000
0000
0000
0000
,
0001
0000
0000
0000
,
0000
0000
0000
0000
,
1000
0000
0000
0000
,
0000
0000
0000
0000
,
0001
0000
0000
0000
,
0000
0000
0000
0000
,
1000
0000
0000
0000
,
0000
0000
0000
0000
,
0010
0000
0000
0000
,
0000
0000
0000
0000
,
0100
0000
0000
0000
,
0000
0000
0000
0000
,
0001
0000
0000
0000
,
0000
0000
0000
0000
,
1000
0000
0000
0000
,
0100
0000
0000
0000
,
0010
0000
0000
0000
,
0001
0000
0000
0000
,
0100
0000
0000
0000
,
0010
0000
0000
0000
,
1000
0000
0000
0000
,
0001
0000
0000
0000
,
0100
0000
0100
0000
,
0100
0000
0000
0000
,
0100
0000
0100
0000
,
0100
0000
0000
0000
,
0010
0000
0010
0000
,
0010
0000
0010
0000
,
0010
0000
0000
0000
,
0000
0000
0000
0000
,
1001
0000
0000
0000
,
0000
0000
0000
0000
,
0100
0000
0000
0000
,
0000
0000
0000
0000
,
0010
0000
0000
0000
,
0001
0000
0000
0000
,
1000
0000
0001
0000
,
1000
0000
0001
0000
,
1000
0000
0000
0000
,
0000
0000
0000
0000
,
0000
0000
0000
0000
,
0000
0000
0000
0000
,
0000
0000
0000
0000
,
0000
0000
0000
0000
,
0000
0000
0000
0000
,
0000
0000
0000
0000
,
0000
0000
0001
0000
,
0000
0000
0000
0000
,
0000
0000
1000
0000
,
0010
0000
0000
0000
,
0000
0000
1000
0000
,
0000
0000
0000
0000
,
0000
0000
0001
0000
,
0010
0000
0000
0000
,
0000
0000
1001
0000
,
0000
0000
0100
0000
,
0000
0000
0010
0000
,
0000
0000
0100
0000
,
0000
0000
1000
0000
,
0000
0000
0001
0000
,
0000
0000
0100
0000
,
0010
0000
0100
0000
,
0010
0000
1001
0000
,
1000
0000
0001
0000
,
0000
0000
0001
0000
,
1000
0000
0001
0000
,
0000
0000
0010
0000
,
0100
0000
0010
0000
,
0100
0000
1000
0000
,
0001
0000
0100
0000
,
0010
0000
1001
0000
;

//--------------- dance-single - RaverAce ----------------
#NOTEDATA:;
#STEPSTYPE:dance-single;
#DESCRIPTION:RaverAce;
#DIFFICULTY:Easy;
#METER:5;
#RADARVALUES:0,0,0,0,0,0,0,0,0,0,0,0,0,0,0,0,0,0,0,0,0,0,0,0,0,0,0,0;
#CHARTNAME:;
#CHARTHASH:3030261114;
#BANNER:;
#CHARTSTYLE:;
#METERF:5.000000;
#LASTSECONDHINT:141.068604;
#CREDIT:RaverAce;
#NOTES:
0000
0000
0000
0000
,
0000
0000
0000
0000
,
0000
0000
0000
0000
,
0000
0000
0000
0000
,
0000
0000
0000
0000
,
1000
0000
0000
0000
,
0000
0000
0000
0000
,
0001
0000
1000
0000
,
0001
0000
0000
0000
,
1001
0000
0000
0000
,
0000
0000
0000
0000
,
1001
0000
1000
0000
,
0010
0000
0100
0000
,
0010
0000
1000
0000
,
0100
0000
0010
0000
,
0001
0000
0100
0000
,
0010
0000
0100
0000
,
0001
0010
0100
0000
,
0100
0000
0100
0000
,
2001
0000
3200
0000
,
0320
0000
0032
0000
,
0203
0000
0320
0000
,
2030
0000
3200
0000
,
2300
0000
3020
0000
,
0032
0000
0023
0000
,
0230
0000
0302
0000
,
1003
0100
0010
0001
,
1001
0000
1000
0000
,
0100
0000
0100
0000
,
1000
0000
0010
0000
,
0100
0000
0100
0000
,
0001
0000
0010
0000
,
0100
0000
0010
0000
,
0001
0001
0001
0001
,
1000
0001
1000
0001
,
1001
0000
1000
0000
,
0010
0100
0001
1000
,
0100
0000
1000
0000
,
0010
0100
0001
0010
,
0001
0000
1000
0100
,
0010
0000
0001
0010
,
0200
0000
2300
0000
,
3002
0000
2000
3003
,
2002
3003
1000
0000
,
0000
0000
0000
0000
,
0000
0000
0001
0000
,
0000
0000
0000
0000
,
0000
0000
0110
0000
,
0000
0000
0000
0000
,
0000
0000
1001
0000
,
0000
0000
0000
0000
,
0000
0000
2001
0000
,
0000
0000
0000
3200
,
0320
0032
2003
0000
,
3020
0000
0000
1030
,
0100
0010
0002
0000
,
0000
0000
0000
0203
,
0320
2030
3002
0000
,
0023
0000
0230
0000
,
0020
0330
1001
0001
,
0100
0010
0100
0000
,
0001
0000
1000
0100
,
0010
0100
1000
0000
,
0001
0100
0010
0000
,
0010
1000
0100
0000
,
0100
1000
0002
0000
,
0203
0000
2300
0000
,
3100
0010
0110
0100
,
0001
1000
0100
0001
,
0100
0010
0001
0100
,
0010
1000
0010
0001
,
0010
0100
0001
0001
,
1000
0000
1000
0100
,
0010
0000
0020
0130
,
0200
1300
2000
3001
,
0002
1003
1001
0000
;

//--------------- dance-single - RaverAce ----------------
#NOTEDATA:;
#STEPSTYPE:dance-single;
#DESCRIPTION:RaverAce;
#DIFFICULTY:Medium;
#METER:9;
#RADARVALUES:0,0,0,0,0,0,0,0,0,0,0,0,0,0,0,0,0,0,0,0,0,0,0,0,0,0,0,0;
#CHARTNAME:;
#CHARTHASH:3728251405;
#BANNER:;
#CHARTSTYLE:;
#METERF:0.000000;
#LASTSECONDHINT:141.068604;
#CREDIT:RaverAce;
#NOTES:
0000
0000
0000
0000
,
0000
0000
0000
0000
,
0000
0000
0000
0000
,
0000
0000
0000
0000
,
0000
0000
0000
0000
,
0001
0000
0000
0100
0000
0000
0002
0000
0000
0000
0000
0010
,
0000
0000
0010
0000
0000
1000
0000
0000
0103
0000
0000
0001
,
2000
0000
3200
0000
,
0320
0000
0000
0000
0000
0000
0002
0000
0000
0033
0000
0001
,
2000
0100
0100
3002
,
0100
0000
0000
0100
0000
0000
0100
0000
0000
1003
0000
2000
,
0001
0001
0001
0001
,
0001
0000
0000
0001
0000
0000
0001
0000
0000
3001
0000
0001
,
0200
0001
0001
0001
,
0001
0000
0000
0001
0000
0000
0001
0000
0000
0301
0000
0010
,
0002
1000
1000
1000
,
1000
1000
1000
1003
,
0001
0010
1000
0010
,
0002
0000
0000
1000
0000
0000
1000
0000
0000
1003
0000
0001
,
1000
0010
0100
0001
,
0010
0000
0000
0100
0000
0000
1000
0000
0000
0001
0000
0100
,
0001
0010
0100
1000
,
0010
0000
0000
0100
0000
0000
0001
0000
0010
0001
0000
0001
,
2000
3100
2000
3010
,
0020
0130
0200
0301
,
0020
0031
0002
0103
,
1000
0000
0000
0100
0000
0000
0001
0000
0001
1000
0000
1000
,
0001
0010
1000
0010
,
0001
0000
0100
0000
0000
0010
0000
0000
0100
0001
0000
0000
,
1000
0010
0001
0010
,
1000
0000
0100
0000
0000
0010
0000
0000
0100
1000
0000
1000
,
0001
0100
1000
0100
,
0001
0000
0000
1000
0000
0000
0100
0000
0000
0010
0000
0001
,
0100
0000
0100
0010
0000
0010
1000
0000
1000
0001
0000
0000
,
1001
0101
1001
1100
,
1001
1000
0010
0001
,
0020
1000
0100
1030
,
0001
0010
1000
0010
,
0200
1000
0010
1300
,
0002
0103
0002
0013
,
0020
0031
0002
0103
,
0110
1000
0110
0001
,
1000
0100
0010
0002
,
2000
3003
0001
0100
,
0020
0000
0000
0000
0000
0100
0000
0000
1000
0000
0000
0230
,
0000
0000
0302
0000
0000
0013
0001
0000
0000
1000
0000
0000
,
0200
0000
0000
0000
0000
0001
0000
0000
0010
0000
0000
2300
,
0000
0000
3010
0000
0000
0010
1000
0000
0000
0100
0000
0000
,
0020
0000
0000
0000
0000
0100
0000
0000
0001
0000
0000
0230
,
0000
0000
2300
0000
0000
3010
1000
0000
0000
0001
0000
0000
,
0200
0000
0000
0000
0000
1000
0000
0000
0010
0000
0000
0302
,
0000
0000
0013
0000
0000
0010
0002
0000
0000
0100
0000
0000
,
1000
0100
1000
0100
,
1000
0103
0002
0013
,
0020
0100
1000
0100
,
1000
0230
2300
0100
,
0001
0100
0001
0100
,
0001
3100
2000
3010
,
0020
0100
0001
0100
,
0001
0000
0000
0130
0000
0001
1000
0000
0000
0100
0000
0000
,
0010
0000
0000
0001
0000
1000
0001
0000
0000
0100
0000
0000
,
0010
0000
0000
0100
0000
0100
0001
0000
0000
0100
0000
0000
,
0010
0000
0000
1000
0000
0001
1000
0000
0000
0100
0000
0000
,
0010
0000
0000
0100
0000
0100
1000
0000
0000
0010
0000
0000
,
0100
0000
0001
0010
0000
0002
0000
0000
0203
0000
0000
0301
,
0010
0000
0100
0010
0000
0010
0002
0000
0000
0103
0000
0000
,
2000
3100
0001
0010
,
0100
0000
0000
1000
0000
0000
1001
0000
0000
0001
0000
0001
,
0100
0000
0100
0010
0000
0010
2000
0000
0000
3200
0000
0000
,
0320
0000
0000
0032
0000
0000
1003
0000
0000
0001
0000
0001
,
0010
0000
0010
0100
0000
0100
2000
0000
0000
3020
0000
0000
,
0230
0000
0000
0301
0000
1000
0001
0000
0000
1000
0000
0000
,
0100
0000
0010
0100
0000
2000
0000
0000
3020
0000
0000
1030
,
0100
0000
0010
0001
0000
0001
2000
0000
0000
3100
0000
0000
,
0002
0103
1000
0010
,
0100
0001
1001
0000
;

//--------------- dance-single - RaverAce ----------------
#NOTEDATA:;
#STEPSTYPE:dance-single;
#DESCRIPTION:RaverAce;
#DIFFICULTY:Hard;
#METER:12;
#RADARVALUES:0.445689,0.56332,0.047168,0.485156,0.764794,463,456,7,72,8,0,0,0,0,0.445689,0.56332,0.047168,0.485156,0.764794,463,456,7,72,8,0,0,0,0;
#CHARTNAME:;
#CHARTHASH:2577240677;
#BANNER:;
#CHARTSTYLE:;
#METERF:0.000000;
#LASTSECONDHINT:141.984634;
#CREDIT:RaverAce;
#NOTES:
0000
0000
0000
0000
,
0000
0000
0000
0000
,
0000
0000
0000
0000
,
0000
0000
0000
0000
,
0000
0000
0000
0000
,
1000
0000
0000
0100
0000
0000
2000
0000
0000
0000
0000
0010
,
0000
0000
0001
0000
0000
0100
0000
0000
3001
0000
0000
1000
,
0001
0000
0000
0100
0000
0000
0001
0000
0000
0010
0000
0002
,
0000
0000
0100
0000
0000
1000
0000
0000
0013
0000
0000
0001
,
2000
0000
0000
0100
0000
0000
0100
0000
0000
3100
0000
1000
,
0002
0000
0000
0100
0000
0000
0100
0000
0000
0103
0000
0001
,
1000
0000
0000
1000
0000
0100
0010
0000
0002
0000
0000
0103
,
0010
0000
2000
0000
0000
3010
0100
0000
0002
0000
0000
0013
,
0001
0000
0000
0001
0000
0100
0010
0000
0010
1000
0000
0001
,
0020
0000
0000
2030
0000
0000
3010
0000
0010
0001
0100
0010
,
2000
0000
0000
0100
0000
0000
0001
0000
0000
3010
0000
1000
,
0002
0000
0000
0100
0000
0000
1000
0000
0000
0013
0000
0001
,
1000
0010
0100
0001
0010
0100
2000
0000
0000
3010
0000
2000
,
0002
0000
0000
0000
0000
0000
3003
0000
0000
0001
0000
1000
,
1001
0000
0001
0010
0000
0001
0200
0000
0000
1300
0000
0100
,
0002
0000
0000
0023
0000
0000
0130
0000
0010
0001
0100
0010
,
1000
0000
1000
0010
0000
1000
0200
0000
0000
0301
0000
0100
,
2000
0000
0000
3010
0000
0010
0100
0000
0001
1000
0100
1000
,
0001
0000
0010
0100
0000
0100
1000
0000
0010
0100
0000
0100
,
0001
0000
1000
0100
0000
0100
0010
0000
0010
0001
0100
0001
,
1000
0000
1000
0010
0000
0100
0001
0000
0001
0010
0000
0010
,
0001
0100
0010
1000
0100
0010
0001
0000
0001
1000
0000
0010
,
1000
M100
0200
0302
,
0013
0000
0001
0200
0000
0310
0000
0000
0010
1000
0001
0010
,
0001
010M
0200
2300
,
3010
0000
1000
0200
0000
0310
0000
0000
0010
0001
1000
0010
,
0200
1000
0301
1000
,
M100
0000
0000
0100
0000
0000
0002
0000
0000
0013
0000
0001
,
1000
0000
1000
0010
0000
0010
0100
0000
0100
0001
0000
0001
,
1001
0000
0000
0110
0000
0000
1001
1000
0010
0100
0001
1000
,
1001
0000
0001
0010
0000
0010
1000
0000
1000
0001
0000
0001
,
0200
0000
0000
2300
0000
0000
3010
M000
0000
0010
0000
0001
,
1000
0000
1000
0010
0000
0010
0001
0000
0001
1000
0000
1000
,
0200
0000
0000
0302
0000
0000
0013
000M
0000
0010
0000
1000
,
0200
0000
0000
0001
0000
0000
1300
0000
1000
0001
0000
010M
,
0000
0000
0200
0000
0000
1300
0010
0100
0010
1000
0000
1000
,
0001
0000
0010
0001
0000
0001
1000
0000
0010
1000
0000
0001
,
0010
1000
0010
0100
1000
0001
0100
1000
0100
0010
1000
0002
,
2000
3003
0000
0000
0000
0000
2000
0000
0000
3200
0000
0000
,
0302
0000
0000
0000
0000
2003
0000
0000
3020
0000
0000
0032
,
0000
0000
1003
0010
0000
1000
0002
0000
0000
0203
0000
0000
,
2300
0000
0000
0000
0000
3002
0000
0000
0023
0000
0000
2030
,
0000
0000
3001
0100
0000
0100
0002
0000
0000
0023
0000
0000
,
2030
0000
0000
0000
0000
3002
0000
0000
0203
0000
0000
2300
,
0000
0000
3001
0100
0000
0001
2000
0000
0000
3020
0000
0000
,
0032
0000
0000
0000
0000
2003
0000
0000
3200
0000
0000
0320
,
0000
0000
1030
0001
0000
0001
0020
0000
0000
1000
0000
0000
,
0100
0000
0000
0001
0000
0001
0000
0000
0100
0000
0000
1000
,
0000
0000
0130
1000
0000
0001
0200
0000
0000
0010
0000
0000
,
1000
0000
0000
0010
0000
0010
0000
0000
0001
0000
0000
0320
,
0000
0000
1030
0100
0000
1000
0020
0000
0000
0001
0000
0000
,
0100
0000
0000
1000
0000
1000
0000
0000
0100
0000
0000
0001
,
0000
0000
0130
0001
0000
1000
0200
0000
0000
0010
0000
0000
,
0001
0000
0000
0010
0000
0010
0000
0000
1000
0000
0000
0310
,
0000
0000
0010
0100
0000
1000
1001
0000
0001
0100
0000
0100
,
0010
0000
0010
1000
0000
1000
0001
0000
0010
0001
0000
1000
,
0001
0000
0100
0001
1000
0010
1000
0000
1000
0100
0000
0100
,
0010
0000
0010
0001
0000
0001
1000
0000
0010
1000
0000
0001
,
1000
0000
0100
1000
0010
0100
0001
0000
0010
0002
0000
0000
,
1003
0000
0100
1000
0000
M010
0000
0000
0020
0000
0000
0031
,
1000
0100
1000
0001
0000
0001
0200
0000
0000
0310
0000
1000
,
0200
0000
0000
0310
0000
0001
1000
0010
0100
0001
0010
0100
,
1000
0010
0001
0010
0100
0001
1001
0000
1000
0100
0000
0100
,
0001
0000
0001
1000
0000
1000
0010
0000
0010
0001
0000
0001
,
0100
0000
0001
0010
0100
1000
0001
0000
0001
0100
0000
0100
,
1000
0000
1000
0001
0000
0001
0010
0000
0010
1000
0000
1000
,
0100
0000
1000
0010
0100
0001
1000
0000
1000
0100
0000
0010
,
0001
0000
0100
0001
0000
001M
0000
0000
0020
0000
0000
1030
,
0100
0010
0001
0100
0001
1000
0010
0000
0010
1000
0000
0100
,
0010
0000
0010
0001
0000
1000
0010
0001
0010
0100
0001
1000
,
0100
0001
0100
0010
0001
1000
2002
0000
0000
0000
0000
0000
,
3003
0000
0000
0000
;
