#TITLE:Mienaikara ne!?;
#SUBTITLE:(I Can't See Them, Okay!?);
#ARTIST:Mieruko-chan;
#TITLETRANSLIT:;
#SUBTITLETRANSLIT:;
#ARTISTTRANSLIT:;
#GENRE:;
#CREDIT:;
#BANNER:Mienaikara ne-banner.png;
#BACKGROUND:Mienaikara ne-bg.png;
#LYRICSPATH:Mienaikara ne.lrc;
#CDTITLE:;
#MUSIC:Mienaikara ne.ogg;
#OFFSET:0.010969;
#SAMPLESTART:48.627277;
#SAMPLELENGTH:16.080000;
#SELECTABLE:YES;
#BPMS:0.000000=148.000000
;
#STOPS:
;
#BGCHANGES:0.000=Mienaikara ne.avi=1.000=0=0=0=StretchNoLoop====,
99999=-nosongbg-=1.000=0=0=0 // don't automatically add -songbackground-
;
#KEYSOUNDS:;
#ATTACKS:;

//---------------dance-single - ----------------
#NOTES:
     dance-single:
     :
     Hard:
     11:
     0.537699,0.512879,0.380269,0.388030,0.100888,485.000000,436.000000,49.000000,50.000000,0.000000,0.000000,0.537699,0.512879,0.380269,0.388030,0.100888,485.000000,436.000000,49.000000,50.000000,0.000000,0.000000:
0000
0000
0000
0000
,
0000
0000
0000
0000
,
0000
0000
0000
0000
,
0000
0000
0000
0000
,
1010
0000
0000
1000
0010
0000
0000
0010
0100
0000
0000
0100
0001
0000
2000
0000
,
0000
3001
0100
0001
1000
0100
0010
0001
,
0100
0000
0000
0100
0001
0000
0000
0001
1000
0000
0000
1000
0010
0000
0200
0000
,
0000
0301
1000
0001
0100
0010
1000
0100
,
1100
0110
2002
3003
,
0001
0100
0001
1000
0010
1000
0001
0010
,
0000
0011
0000
0011
0000
1100
0000
1100
,
0000
0101
0000
0101
0000
1000
0020
0000
,
0130
0000
0001
0000
1000
0100
1000
0000
,
0001
0100
0000
0100
0010
0000
1000
0000
,
0001
0010
0001
1000
0010
1000
0001
0000
,
1000
0100
0001
0100
1000
0010
0200
0000
,
0301
0000
1000
0000
0001
0100
0001
0100
,
0010
1000
0000
1000
0001
0000
1000
0200
,
0000
0000
0310
0002
0000
0000
1003
0020
,
0100
0100
0130
1031
,
0001
0100
0001
0100
0010
1000
0002
0000
,
1003
0100
1000
0100
0010
0001
2000
0000
,
3001
0010
0100
0010
1000
0010
0001
0100
,
0020
1030
1010
0101
,
1000
0100
1000
0001
1000
0010
2000
0000
,
3001
0100
0001
1000
0001
0010
0002
0000
,
1003
0010
0100
0001
0100
0010
1000
0001
,
0200
0000
0000
0300
,
0010
0000
0000
0000
0010
0000
0000
0000
1000
0000
0000
0001
0000
0000
2002
0000
,
0000
0000
0000
0000
3003
1000
0100
0010
,
0011
0000
0000
0001
1000
0000
0000
1000
0010
0000
0000
0010
0100
0000
0002
0000
,
0000
0103
0010
1000
0001
0020
0000
0031
,
1000
0000
0000
1000
0100
0000
0000
0100
0010
0000
0000
0010
0001
0000
2000
0000
,
0000
3010
0100
0010
1000
0001
0100
0001
,
0101
1100
2002
3003
,
0001
0100
0001
1000
0100
1000
0001
0010
,
0000
0011
0000
0011
0000
1010
0000
1010
,
0000
1100
0000
0101
0000
1000
0001
1000
,
0010
0000
0000
0010
0100
0000
0000
0100
0001
0000
0000
0001
1000
0000
0200
0000
,
0000
1300
0001
1000
0100
0010
0001
1000
,
0010
0000
0000
0010
0100
0000
0000
0100
0001
0000
0000
0001
1000
0000
0020
0000
,
0000
1030
0001
0010
0100
1000
0010
0100
,
0110
0101
2002
3003
,
1000
0100
1000
0001
0100
0001
1000
0010
,
0000
1010
0000
1010
0000
0011
0000
0011
,
0000
1001
0000
2010
0000
3301
0010
0001
,
0200
0000
0000
0000
3302
0000
0000
0000
1003
0000
0000
0001
0100
0000
0001
0000
,
1000
0000
0010
0000
0100
0000
0001
0000
1000
0000
0000
1000
0100
0000
0010
0000
,
0002
0000
1003
0010
0100
0010
1000
0100
,
0010
0000
0001
0000
0010
0000
0100
0000
1000
0000
0000
0001
0000
0000
1000
0000
,
0010
0000
0000
0100
0000
0000
0001
0000
2000
0000
0000
0000
3100
0000
0000
0000
,
1000
0100
0010
0100
0001
0100
0010
0200
,
0000
1300
0010
0100
0001
0100
0010
2000
,
0000
3001
0001
0200
0000
0301
0010
0100
,
1000
0100
2200
3300
,
0100
1000
0010
0100
,
0001
0010
0022
0033
,
0001
0010
0100
1000
,
1100
0101
2002
3003
,
0001
1000
0010
0100
,
0001
0100
0000
0100
0000
0010
0000
0010
,
0000
1000
0000
0001
0000
1000
0001
0100
,
0000
0000
1001
0000
2100
0000
3001
0100
,
0000
0100
0010
1000
0100
0020
0000
0031
,
1000
0000
0000
1000
0010
0000
0000
0010
0100
0000
0000
0100
0001
0000
2000
0000
,
0000
3001
0100
0001
1000
0100
0010
0001
,
0011
1010
2002
3003
,
0001
0100
0001
1000
0100
1000
0001
0010
,
0000
0011
0000
0110
0000
1100
0000
1010
,
0000
0110
0000
0101
0000
1000
0001
0000
,
1000
0100
1000
0100
0001
0100
2000
0000
,
3001
0010
0001
0010
1000
0010
0002
0000
,
1003
0010
1000
0010
0001
0010
2000
0000
,
3001
0100
0001
0100
1000
0100
0002
0000
,
1033
0100
1000
0100
0010
0001
1000
0010
,
0100
0001
0100
0001
1000
0010
0200
0000
,
0301
1000
0001
1000
0100
0010
0001
1000
,
0010
0100
0010
0100
0001
1000
0100
0000
;

//---------------dance-single - ----------------
#NOTES:
     dance-single:
     :
     Medium:
     8:
     0.354770,0.392201,0.287142,0.341466,0.000000,320.000000,283.000000,37.000000,44.000000,0.000000,0.000000,0.354770,0.392201,0.287142,0.341466,0.000000,320.000000,283.000000,37.000000,44.000000,0.000000,0.000000:
0000
0000
0000
0000
,
0000
0000
0000
0000
,
0000
0000
0000
0000
,
0000
0000
0000
0000
,
1001
1001
1001
0000
,
0001
0000
1000
0000
0001
0100
0000
0000
,
0101
0101
0101
0000
,
0001
0000
0100
0000
0010
1000
0000
0000
,
1010
1010
1010
0000
,
1000
0000
0100
0000
0010
0001
0010
0000
,
0100
1000
0010
0100
,
0001
1000
0001
0000
,
1001
1000
0010
0100
,
0001
1000
0100
0000
,
1000
1000
0001
0001
,
1000
0100
0010
0000
0001
0010
0100
0000
,
0000
1000
0010
0100
,
0001
0000
0001
0000
0100
0000
0010
0010
,
0000
0000
1000
1000
0000
0000
0001
0002
,
0000
0000
0000
1033
,
1000
0000
0010
0000
1000
0010
1000
0000
,
0001
0000
0100
0000
0001
0100
0001
0000
,
1000
0000
0100
0000
1000
0100
1000
0000
,
0002
0023
0230
0300
,
1000
0000
0001
0000
1000
0010
1000
0000
,
0010
0000
0100
0000
0001
0100
0001
0000
,
1000
0100
0010
0001
,
0100
0000
0000
0000
,
0100
0000
0010
0000
1000
0001
1000
0001
,
0000
0000
0100
0010
,
1001
1001
1001
0000
,
1000
0000
0001
0000
1000
0010
0000
0000
,
1010
1010
1010
0000
,
1000
0000
0010
0000
0100
0001
1000
0000
,
0101
0101
0101
0000
,
0001
0000
0010
0000
0100
1000
0100
0000
,
0010
0001
0100
0010
,
1000
0001
1000
0000
,
0101
0101
2002
3003
,
0001
0000
1000
0000
0001
0010
0100
0000
,
1100
1100
2002
3003
,
1000
0000
0001
0000
1000
0010
0100
0000
,
0110
0110
2002
3003
,
0000
0000
0001
0000
1000
0010
0100
0000
,
0001
1000
0100
0100
,
0010
0001
1000
0000
,
0002
0003
2000
3000
,
0001
0100
0001
0000
2000
0000
3200
0000
,
0320
0030
0001
1000
,
0001
0100
0010
0000
1000
0000
0001
0000
,
0100
0100
0010
0000
,
2000
3020
0230
0302
,
1003
0000
1000
0000
0001
0000
1000
0100
,
0000
0100
0010
0000
0001
1000
0001
0000
,
1000
0001
0200
0300
,
0001
0000
1000
0000
,
0001
1000
0200
0300
,
1000
0000
0001
0000
,
0010
0010
0020
0030
,
0100
0100
0200
0300
,
1000
0010
0100
0001
,
1000
0100
0010
0010
,
0000
1001
0202
0303
,
0100
0000
0001
0000
0100
0010
1000
0000
,
1010
1010
2002
3003
,
0001
0000
1000
0000
0100
0010
0001
0000
,
0011
0110
2002
3003
,
1000
0000
0001
0000
1000
0010
1000
0010
,
0000
0100
0000
0100
0000
0001
0000
0001
,
0000
1000
0000
1000
0000
0100
0100
0000
,
2000
0000
3200
0000
1300
0100
1000
0000
,
0002
0203
0302
0003
,
2000
0000
3020
0000
1030
0010
1000
0000
,
0002
0023
0032
0003
,
1000
0100
1000
0000
0001
0100
0001
0000
,
2000
3002
0203
0300
,
0001
0100
0001
0000
1000
0100
1000
0000
,
0002
0023
0130
1001
;

//---------------dance-single - ----------------
#NOTES:
     dance-single:
     :
     Easy:
     5:
     0.238361,0.301693,0.069845,0.038803,0.000000,215.000000,206.000000,9.000000,5.000000,0.000000,0.000000,0.238361,0.301693,0.069845,0.038803,0.000000,215.000000,206.000000,9.000000,5.000000,0.000000,0.000000:
0000
0000
0000
0000
,
0000
0000
0000
0000
,
0000
0000
0000
0000
,
0000
0000
0000
0000
,
0001
0001
0001
0000
,
1000
0001
0100
0000
,
0010
0010
0010
0000
,
0100
0001
1000
0000
,
1000
1000
1000
0000
,
0100
0000
0010
0000
,
0001
0010
0001
0000
,
1000
0010
1000
0000
,
0001
0000
0100
0000
,
0010
1000
0001
0000
,
1000
0000
0100
0000
,
0010
0010
0100
0100
,
1000
0000
0001
0000
,
1000
0010
0100
0000
,
0002
0003
2000
3000
,
0200
0000
0000
0300
,
1000
1000
0100
0100
,
1000
0000
1000
0010
,
0100
0100
0001
0001
,
0100
0000
0100
0000
,
0001
0001
0010
0010
,
0001
0000
0001
0010
,
0100
0100
1000
1000
,
0001
0000
0000
0000
,
0100
0100
0010
0010
,
0100
0000
0000
0000
,
1001
1001
1001
0000
,
0001
0000
1000
0000
,
0010
0010
0010
0000
,
1000
0010
0100
0001
,
1000
1000
1000
0000
,
0001
0000
1000
0000
,
0100
0100
0010
0000
,
0010
0010
0001
0000
,
1001
1001
1001
0000
,
1000
0000
0001
0000
,
0100
0100
0100
0000
,
0001
0100
0010
1000
,
0001
0001
0001
0000
,
1000
0000
0001
0000
,
0010
0010
0100
0000
,
0100
0100
1000
0000
,
0001
0000
0001
0000
,
1000
0001
0100
0000
,
0010
0000
0010
0000
,
0010
1000
0001
0000
,
1000
1000
0100
0000
,
0100
0100
0010
0000
,
0010
0001
1000
0000
,
0001
1000
0010
0000
,
0100
0100
0200
0000
,
0300
0000
0000
0000
,
0010
0010
0020
0000
,
0030
0000
0000
0000
,
1000
0010
1000
0000
,
0001
0000
1000
0000
,
0001
0100
0001
0000
,
1000
0100
1000
0000
,
0000
1001
1001
0000
,
0001
0000
1000
0000
,
0010
0010
0100
0000
,
0001
0000
1000
0000
,
0100
0100
0100
0000
,
0010
0001
1000
0000
,
0001
1000
0010
0000
,
1000
0000
0010
0000
,
0100
0100
0001
0001
,
0100
0001
0100
0000
,
0001
0001
1000
1000
,
0001
1000
0001
0000
,
1000
1000
0100
0100
,
1000
0100
1000
0000
,
0100
0100
0010
0010
,
0001
1000
0010
1001
;

//---------------dance-single - ----------------
#NOTES:
     dance-single:
     :
     Beginner:
     3:
     0.117518,0.150847,0.007761,0.000000,0.000000,106.000000,105.000000,1.000000,0.000000,0.000000,0.000000,0.117518,0.150847,0.007761,0.000000,0.000000,106.000000,105.000000,1.000000,0.000000,0.000000,0.000000:
0000
0000
0000
0000
,
0000
0000
0000
0000
,
0000
0000
0000
0000
,
0000
0000
0000
0000
,
1000
0000
1000
0000
,
1000
0000
0000
0000
,
0010
0000
0010
0000
,
0010
0000
0000
0000
,
0100
0000
0100
0000
,
0100
0000
0000
0000
,
0001
0000
0000
0000
,
1000
0000
0000
0000
,
0001
0000
0000
0000
,
0010
0000
0010
0000
,
0010
0000
0000
0000
,
0100
0000
0000
0000
,
1000
0000
0000
0000
,
0010
0000
0000
0000
,
0100
0000
0100
0000
,
0100
0000
0000
0000
,
0001
0001
0000
0000
,
0001
0000
0000
0000
,
1000
1000
0000
0000
,
1000
0000
0000
0000
,
0010
0010
0000
0000
,
0010
0000
0000
0000
,
0100
0000
0100
0000
,
0100
0000
0000
0000
,
0001
0000
0000
0000
,
1000
0000
0000
0000
,
0010
0010
0010
0000
,
0010
0000
0000
0000
,
1000
1000
1000
0000
,
1000
0000
0000
0000
,
0001
0001
0001
0000
,
0000
0000
0000
0000
,
0100
0000
0100
0000
,
0100
0000
0000
0000
,
0001
0001
0001
0000
,
0001
0000
0000
0000
,
1000
1000
1000
0000
,
1000
0000
0000
0000
,
0010
0010
0010
0000
,
0000
0000
0000
0000
,
0100
0000
0100
0000
,
0100
0000
0000
0000
,
1001
0000
0000
0000
,
1000
0000
0000
0000
,
0010
0000
0000
0000
,
0100
0000
0100
0000
,
0100
0000
0000
0000
,
0001
0000
0000
0000
,
1000
0000
1000
0000
,
1000
0000
0000
0000
,
0010
0000
0000
0000
,
0000
0000
0000
0000
,
0100
0000
0000
0000
,
0000
0000
0000
0000
,
0001
0000
0000
0000
,
0001
0000
0000
0000
,
1000
0000
0000
0000
,
1000
0000
0000
0000
,
0000
0010
0010
0000
,
0010
0000
0000
0000
,
1000
1000
1000
0000
,
1000
0000
0000
0000
,
0001
0001
0001
0000
,
0000
0000
0000
0000
,
0100
0000
0100
0000
,
0100
0000
0000
0000
,
0001
0000
0000
0000
,
0001
0000
0000
0000
,
1000
0000
0000
0000
,
1000
0000
0000
0000
,
0010
0010
0000
0000
,
0010
0010
0000
0000
,
0100
0100
0000
0000
,
0100
0000
0100
0100
;

//---------------dance-single - ----------------
#NOTES:
     dance-single:
     :
     Challenge:
     14:
     0.716193,0.754233,0.450115,0.271621,0.496678,646.000000,588.000000,58.000000,35.000000,0.000000,0.000000,0.716193,0.754233,0.450115,0.271621,0.496678,646.000000,588.000000,58.000000,35.000000,0.000000,0.000000:
0000
0000
0000
0000
,
0000
0000
0000
0000
,
0000
0000
0000
0000
,
0000
0000
0000
0000
,
0001
0000
1000
0100
0010
0000
0001
0010
0100
0000
1000
0000
0010
0000
0200
0000
,
0000
0301
1000
0001
0100
0010
1000
0001
,
0010
0000
0001
0010
0100
0000
1000
0100
0010
0000
0001
0000
1000
0000
0020
0000
,
0000
0130
0001
1000
0100
1000
0001
0100
,
0010
0000
1000
0010
0100
0000
0001
0100
0010
0000
1000
0001
1000
0000
0002
0000
,
0000
0000
1003
0100
1000
0000
0001
0000
0100
0000
0010
0000
1000
0000
0001
0000
,
0000
0101
0000
0110
0000
1010
0000
1100
,
0000
0110
0000
0011
0000
1000
0001
0000
,
1000
0010
1000
0010
0001
0010
0100
0001
,
1000
0100
1000
0100
0020
0000
0031
0000
,
1000
0001
1000
0001
0100
0010
1000
0001
,
0100
0000
0001
0100
0001
1000
0100
1000
0001
0010
0100
1000
0001
0000
0000
0000
,
1000
0001
0100
0010
1000
1000
0001
0001
,
1000
0010
0100
0001
1000
0001
0100
0102
,
0000
0003
1000
0000
0010
0000
2010
0000
0000
3000
0001
0000
0010
0000
0022
0000
,
0000
0000
0000
0000
0033
0000
0000
0000
1000
0001
1000
0001
0100
0000
0000
0000
,
0001
0100
0001
0100
0000
0010
0000
0100
0000
0001
1000
0000
0100
0000
1100
0000
,
1000
0100
1000
0100
0000
0010
0000
0010
0000
0001
1000
0000
0010
0000
1010
0000
,
1000
0010
1000
0010
0000
0100
0000
0100
0000
0001
1000
0000
0100
0000
0010
0000
,
0011
0000
0000
0010
0100
0000
0000
0100
1000
0000
0000
1000
0002
0000
0000
0000
,
1003
0100
1000
0001
0000
0100
0000
0100
0000
0010
1000
0000
0001
0000
0101
0000
,
0100
0010
0100
0001
0000
1000
0000
1000
0000
0001
0010
0000
0100
0000
1000
0000
,
0001
0100
0001
0000
1000
0010
1000
0000
0001
0000
0010
0100
0000
0010
0100
0000
,
1000
0000
0000
0000
0000
0000
0000
0000
0000
0000
0000
0000
0000
0000
0000
1000
,
0001
0000
0100
0000
0001
0000
1000
0000
1010
0000
0000
0110
0000
0000
0101
0000
,
1000
0100
0010
0001
0100
0010
1000
0001
0100
0000
0010
0000
0010
0000
0010
0000
,
1000
0000
0001
0010
0100
0000
1000
0100
0010
0000
0001
0000
0100
0000
0120
0000
,
0000
1030
0001
1000
0010
0100
0001
1000
,
0100
0000
1000
0100
0010
0000
0001
0010
0100
0000
1000
0000
0001
0000
0201
0000
,
0000
0310
1000
0001
0010
0001
1000
0010
,
0100
0000
0001
0100
0010
0000
1000
0010
0100
0000
0001
1000
0001
0000
2000
0000
,
0000
3001
0001
1000
0010
0100
0001
1000
,
0000
1010
0000
0110
0000
0101
0000
0011
,
0000
0110
0000
1100
0000
1000
0001
1000
,
1010
0000
0000
0000
0110
0000
0000
0000
0101
0000
0000
0001
0100
0000
0010
0000
,
1000
0001
0010
0100
1000
0001
1000
0010
,
0100
0000
0001
0100
0010
0000
1000
0010
0100
0000
0001
0000
1000
0000
1200
0000
,
0000
1300
0001
0010
0100
1000
0001
0100
,
0001
0000
1000
0010
0100
0000
0001
0100
0010
0000
1000
0001
1000
0000
0020
0000
,
0000
0000
0130
0001
1000
0000
0001
0000
1000
0000
0100
0000
0010
0000
0001
0000
,
0000
0011
0000
0101
0000
1010
0000
1100
,
0000
0000
1001
0000
0000
0000
0201
0000
0000
0000
0310
1000
0010
1000
0001
1000
,
0002
0000
0000
0000
0103
0000
0000
0000
0101
0000
0000
1000
0100
0000
1000
0000
,
0001
0000
0010
0000
0010
0000
0100
0000
1000
0000
0001
1000
0001
0000
0100
0000
,
0200
0000
0000
0000
0310
0000
1000
0010
1000
0000
0001
0000
0010
0000
0001
0100
,
0001
0000
1000
0000
0100
0000
0010
0000
0002
0000
0000
0203
0000
0000
0310
0000
,
2000
0000
0000
3200
0000
0000
0310
0000
0002
0000
0000
0000
1003
0000
0001
0100
,
0001
1000
0100
1000
0001
0010
0100
2000
0000
0000
3001
3100
0001
0100
0020
0000
,
0000
0000
1030
0000
0001
1000
0010
0000
0100
0000
0001
0000
1000
0000
2100
0000
,
0000
0000
3001
0000
1000
0001
0200
0000
0000
0000
0310
0000
0010
0000
0010
0000
,
1000
1010
2002
3003
,
0001
0010
0001
1000
0010
0200
0000
0300
,
0101
0110
2020
3030
,
1000
0100
1000
0010
0100
0001
1000
0100
,
1100
0000
0101
0000
2001
0000
3010
0100
,
0000
0100
0010
1000
0100
0010
0001
1000
,
0000
1100
0000
0011
0000
0101
0000
1010
,
0000
1001
0000
0101
0000
1000
0001
1000
,
0000
0000
0000
0000
0101
0000
0000
0000
1100
0000
0000
1000
0001
0000
0100
0000
,
0010
1000
0010
0100
0001
0010
0100
1000
,
0001
0000
1000
0100
0010
0000
0001
0010
0100
0000
1000
0000
0010
0000
0200
0000
,
0000
0301
1000
0100
0010
0001
1000
0010
,
0100
0000
0001
0100
0010
0000
1000
0010
0100
0000
0001
1000
0001
0000
2000
0000
,
0000
0000
3001
0010
0001
0000
1000
0000
0100
0000
0010
0000
0001
0000
1000
0000
,
0000
1010
0000
1001
0000
0101
0000
1001
,
0000
1100
0000
1001
0000
1000
0002
0000
,
1003
0010
1000
0000
0001
0100
0001
0000
1000
0000
0100
0010
0001
0000
0000
0000
,
1000
0000
0001
0100
0001
1000
0010
0100
0010
1000
0100
0010
0001
0000
0000
0000
,
1000
0100
1000
0000
0001
0010
0001
0000
1000
0000
0010
0100
0001
0000
0000
0000
,
1000
0010
0100
0001
0100
0010
1000
0100
0010
0001
1000
0001
0100
0000
0000
0000
,
3001
0100
0001
0000
1000
0010
1000
0000
0001
0000
0010
0100
1000
0000
0000
0000
,
0001
0000
1000
0010
1000
0001
0100
0010
0100
0001
0010
0100
1000
0000
0000
0000
,
0001
0010
0001
0000
1000
0100
1000
0000
0001
0000
0100
0010
1000
0000
0000
0000
,
0001
0100
0010
1000
0010
0100
0001
0010
0100
1000
0001
1000
0010
0000
0000
0000
;

//---------------dance-double - ----------------
#NOTES:
     dance-double:
     :
     Challenge:
     14:
     0.681824,0.724064,0.388030,0.310424,0.430713,615.000000,565.000000,50.000000,40.000000,0.000000,0.000000,0.681824,0.724064,0.388030,0.310424,0.430713,615.000000,565.000000,50.000000,40.000000,0.000000,0.000000:
// measure 0
00000000
00000000
00000000
00000000
,  // measure 1
00000000
00000000
00000000
00000000
,  // measure 2
00000000
00000000
00000000
00000000
,  // measure 3
00000000
00000000
00000000
00000000
,  // measure 4
00010000
00000000
00001000
00100000
00001000
00000000
00010000
00000010
00010000
00000000
00001000
00000000
00100000
00000000
00020000
00000000
,  // measure 5
00000000
10030000
00100000
10000000
00010000
02000000
00000000
03001000
,  // measure 6
00010000
00000000
00001000
00010000
00001000
00000000
00100000
00001000
00100000
00000000
00001000
00000000
00010000
00000000
00000020
00000000
,  // measure 7
00000000
00001030
00000010
00000100
00000001
00000010
00000100
00001000
,  // measure 8
00000100
00000000
00010000
00001000
00010000
00000000
00001000
00100000
00001000
00000000
00100000
00010000
01000000
00000000
00200000
00000000
,  // measure 9
00000000
00000000
10300000
00010000
10000000
00000000
00100000
00000000
01000000
00000000
00010000
00000000
00100000
00000000
00001000
00000000
,  // measure 10
00000000
00101000
00000000
00011000
00000000
00010010
00000000
00011000
,  // measure 11
00000000
01001000
00000000
01010000
00000000
10000000
00020000
00000000
,  // measure 12
10030000
00100000
10000000
00100000
01000000
00010000
00100000
00001000
,  // measure 13
00010000
00010000
00001000
00010000
00000200
00000000
00000310
00000000
,  // measure 14
00000010
00000001
00001000
00000001
00000100
00000010
00001000
00000001
,  // measure 15
00000100
00000000
00000001
00000100
00000001
00001000
00000100
00001000
00000001
00000010
00000100
00001000
00000001
00000000
00000000
00000000
,  // measure 16
00001000
00000100
00001000
00000100
00010000
00010000
00001000
00001000
,  // measure 17
00100000
00010000
01000000
00100000
10000000
00000000
00010000
01020000
,  // measure 18
00000000
00130000
00001000
00012000
00000000
00013000
00000010
00002010
,  // measure 19
00000000
00000001
00000100
00003001
,  // measure 20
00001000
00000100
00001000
00000100
00000000
00010000
00000000
00010000
00000000
00001000
00100000
00000000
00001000
00000000
00101000
00000000
,  // measure 21
00100000
00010000
00100000
00010000
00000000
10000000
00000000
10000000
00000000
00010000
01000000
00000000
00100000
00000000
10100000
00000000
,  // measure 22
10000000
01000000
10000000
01000000
00000000
00100000
00000000
00100000
00000000
00010000
00100000
00000000
00001000
00000000
00010000
00000000
,  // measure 23
00010100
00011000
00101000
00010010
,  // measure 24
00010000
00000100
00001000
00000100
00000000
00000010
00000000
00000001
00000000
00001000
00000010
00000000
00000100
00000000
00000101
00000000
,  // measure 25
00000001
00001000
00000100
00001000
00000000
00000100
00000000
00010000
00000000
00001000
00100000
00000000
00010000
00000000
01000000
00000000
,  // measure 26
00010000
01000000
00010000
00000000
10000000
01000000
10000000
00000000
01000000
00000000
00100000
00000000
00001000
00000000
00010000
00000000
,  // measure 27
00001000
00000000
00000000
00000000
00000000
00000000
00000000
00000000
00000000
00000000
00000000
00000000
00000000
00000000
00000000
00100000
,  // measure 28
00010000
00000000
00100000
00000000
00001000
00000000
00010000
00000000
00011000
00000000
00000000
00100100
00000000
00000000
00022000
00000000
,  // measure 29
00000000
00000000
00000000
00033000
00000000
00001000
00000100
00001000
,  // measure 30
00100000
00000000
00010000
00100000
01000000
00000000
10000000
01000000
00100000
00000000
00010000
00000000
10000000
00000000
00200000
00000000
,  // measure 31
00000000
01300000
00010000
00100000
00001000
00010000
00010000
00000100
,  // measure 32
00000010
00000000
00000001
00000010
00000100
00000000
00001000
00000100
00000010
00000000
00000001
00000000
00001000
00000000
00000020
00000000
,  // measure 33
00000000
00000130
00000001
00000100
00000010
00001000
00000100
00010000
,  // measure 34
00001000
00000000
00010000
00001000
00010000
00000000
00001000
00100000
00001000
00000000
00010000
00000100
00001000
00000000
00000020
00000000
,  // measure 35
00000000
00000130
00000100
00000001
00001000
00000001
00000010
00000100
,  // measure 36
00000000
00001100
00000000
00001001
00000000
00001100
00000000
00010100
,  // measure 37
00000000
00011000
00000000
00102000
00000000
00013000
00001000
00010000
,  // measure 38
00000100
00000000
00001000
00000100
00000010
00000000
00000001
00000010
00000100
00000000
00001000
00000000
00000001
00000000
00000200
00000000
,  // measure 39
00000000
00000310
00001000
00000100
00010000
00001000
00001000
00100000
,  // measure 40
01000000
00000000
10000000
01000000
00100000
00000000
00010000
00100000
01000000
00000000
10000000
00000000
00010000
00000000
02000000
00000000
,  // measure 41
00000000
03100000
10000000
00100000
01000000
00010000
00100000
00001000
,  // measure 42
00010000
00000000
00001000
00010000
00001000
00000000
00010000
00000100
00010000
00000000
00001000
00100000
00010000
00000000
02000000
00000000
,  // measure 43
00000000
00000000
03100000
10000000
00100000
00000000
10000000
00000000
00010000
00000000
10000000
00000000
01000000
00000000
00100000
00000000
,  // measure 44
00000000
00110000
00000000
00101000
00000000
00011000
00000000
00001100
,  // measure 45
00000000
00000000
00001001
00000000
30000000
00000000
00000201
00000000
00000000
00000000
00000310
00001000
00000010
00001000
00000001
00001000
,  // measure 46
00000002
00000000
00000000
00000000
00000103
00000000
00000000
00000000
00000101
00000000
00000000
00001000
00000100
00000000
00010000
00000000
,  // measure 47
00001000
00000000
00010000
00000000
00001000
00000000
00100000
00000000
00010000
00000000
10000000
00010000
10000000
00000000
00010000
00000000
,  // measure 48
02000000
00000000
00000000
00000000
03100000
00000000
10000000
00100000
10000000
00000000
00010000
00000000
00100000
00000000
00001000
00010000
,  // measure 49
00001000
00000000
00100000
00000000
00010000
00000000
01000000
00000000
00100000
00000000
00000000
00100000
00000000
00000000
01000000
00000000
,  // measure 50
00001000
00000000
00000000
00001000
00000000
00000000
00010000
00000000
00000200
00000000
00000000
00000000
00000300
00000000
00001000
00000100
,  // measure 51
00001000
00000001
00000100
00000010
00001000
00000100
00010000
00002000
00000000
00000000
00103000
00010000
00100000
00010000
10000000
00000000
,  // measure 52
00010000
00000000
10030000
00000000
00100000
01000000
00100000
00000000
10000000
00000000
00010000
00000000
01000000
00000000
00002000
00000000
,  // measure 53
00000000
00000000
00103000
00003000
00001000
00010000
00000100
00000000
00010000
00000000
00001000
00000000
00001000
00000000
00001000
00000000
,  // measure 54
00011000
10010000
00022000
00033000
,  // measure 55
00010000
00001000
00100000
00001000
00010000
00002000
00000000
00003000
,  // measure 56
00011000
00001001
00022000
00033000
,  // measure 57
00001000
00010000
00000100
00010000
00001000
00000100
00000010
00010000
,  // measure 58
00011000
00000000
00101000
00000000
00110000
00000000
10000000
00200000
,  // measure 59
00000000
01300000
00010000
01000000
00010000
00100000
00001000
00020000
,  // measure 60
00000000
00000000
00030200
00000000
00000000
00000000
00000320
00000000
00000000
00000000
00000032
00000030
00000000
00000000
00000203
00000000
,  // measure 61
00000000
00002300
00000000
00023000
00000000
00001000
00001000
00031000
,  // measure 62
00000000
00000000
00000000
00000000
00011000
00000000
00000000
00000000
10010000
00000000
00000000
10000000
01000000
00000000
10000000
00000000
,  // measure 63
00100000
10000000
00100000
01000000
00010000
00100000
00001000
00010000
,  // measure 64
00000100
00000000
00010000
00000100
00001000
00000000
00000100
00010000
00001000
00000000
00010000
00000000
00000100
00000000
00000020
00000000
,  // measure 65
00000000
00000031
00001000
00000010
00000100
00000010
00001000
00000100
,  // measure 66
00010000
00000000
00001000
00010000
00000100
00000000
00010000
00001000
00100000
00000000
00001000
00010000
00001000
00000000
00020000
00000000
,  // measure 67
00000000
00000000
00031000
01000000
00001000
00000000
01000000
00000000
00010000
00000000
10000000
00000000
00100000
00000000
10000000
00000000
,  // measure 68
00000000
10100000
00000000
01010000
00000000
00001010
00000000
00000101
,  // measure 69
00000000
00000011
00000000
00001100
00000000
00010000
00002000
00000000
,  // measure 70
00013000
00000100
00010000
00000000
00001000
00010000
00001000
00000000
00010000
00000000
00001000
00100000
00010000
00000000
00000000
00000000
,  // measure 71
10000000
00000000
00010000
01000000
00010000
10000000
01000000
10000000
00010000
00100000
00001000
00000000
00010000
00000000
00000000
00000000
,  // measure 72
00031000
00100000
00001000
00000000
00010000
00001000
00010000
00000000
00001000
00000000
00010000
00000100
00001000
00000000
00000000
00000000
,  // measure 73
00000001
00000000
00001000
00000010
00001000
00000001
00000010
00000001
00001000
00000100
00000000
00000100
00010000
00000000
00000000
00000000
,  // measure 74
00001000
00100000
00001000
00000000
00010000
00001000
00010000
00000000
00000100
00000000
00010000
00001000
01000000
00000000
00000000
00000000
,  // measure 75
00010000
00000000
10000000
00000000
01000000
00100000
00000000
00100000
00000000
00001000
00010000
00000000
00001000
00000000
00000000
00000000
,  // measure 76
00010000
00000100
00010000
00000000
00001000
00010000
00001000
00000000
00100000
00000000
00001000
00010000
00000010
00000000
00000000
00000000
,  // measure 77
00001000
00000000
00000001
00000010
00000001
00001000
00000010
00001000
00000100
00000000
00010000
00000000
00011000
00000000
00000000
00000000
;

//---------------dance-double - ----------------
#NOTES:
     dance-double:
     :
     Hard:
     11:
     0.536590,0.512879,0.388030,0.411312,0.100888,484.000000,434.000000,50.000000,53.000000,0.000000,0.000000,0.536590,0.512879,0.388030,0.411312,0.100888,484.000000,434.000000,50.000000,53.000000,0.000000,0.000000:
00000000
00000000
00000000
00000000
,
00000000
00000000
00000000
00000000
,
00000000
00000000
00000000
00000000
,
00000000
00000000
00000000
00000000
,
00010100
00000000
00000000
00000100
00000010
00000000
00000000
00000010
00000001
00000000
00000000
00000001
00001000
00000000
00000020
00000000
,
00000000
00000130
00000001
00000100
00000010
00002000
00000000
00003100
,
00010000
00000000
00000000
00010000
00001000
00000000
00000000
00001000
00100000
00000000
00000000
00100000
00010000
00000000
02000000
00000000
,
00000000
03100000
10000000
00100000
01000000
00010000
00100000
00001000
,
00010000
00000000
00000000
00010000
00000100
00000000
00000000
00000100
00000010
00000000
00000000
00000010
00000001
00000000
00002000
00000000
,
00000000
00003001
00000100
00000001
00001000
00000100
00010000
00001000
,
00000000
00011000
00000000
00101000
00000000
00011000
00000000
00010010
,
00000000
00011000
00000000
01001000
00000000
01000000
00200000
00000000
,
10300000
00000000
00010000
00000000
10000000
00100000
01000000
00000000
,
00010000
01000000
00001000
00010000
00000200
00000000
00000310
00000000
,
00000001
00000010
00000001
00001000
00000010
00001000
00000001
00000000
,
00001000
00000100
00001000
00000100
00010000
00001000
00200000
00000000
,
00310000
00000000
10000000
00010000
10000000
00100000
01000000
00010000
,
10000000
00010000
10000000
00100000
01000000
00000000
00010000
00200000
,
00000000
00000000
00301000
00020000
00000000
00000000
00030100
00002000
,
00000010
00000010
00003001
00001001
,
00000001
00000100
00000001
00000100
00001000
00010000
00002000
00000000
,
00013000
00001000
00010000
00001000
00010000
01000000
20000000
00000000
,
30010000
10000000
00010000
10000000
00100000
01000000
00010000
10000000
,
10100000
10010000
01010000
10010000
,
10000000
00100000
10000000
00100000
00010000
00001000
00020000
00000000
,
00031000
00010000
00001000
00010000
00001000
00000010
00000002
00000000
,
00001003
00000001
00001000
00000001
00000100
00000010
00001000
00000001
,
00000100
00000000
00000000
00000000
,
00000010
00000000
00000000
00000000
00001000
00000000
00000000
00000000
00001100
00000000
00000000
00010100
00000000
00000000
00022000
00000000
,
00000000
00000000
00000000
00000000
00033000
00010000
00001000
00010000
,
00001000
00000000
00000000
00001000
00100000
00000000
00000000
00100000
00010000
00000000
00000000
00010000
10000000
00000000
00200000
00000000
,
00000000
01300000
00010000
01000000
00100000
20000000
00000000
30010000
,
00100000
00000000
00000000
00100000
00001000
00000000
00000000
00001000
00010000
00000000
00000000
00010000
00000100
00000000
00002000
00000000
,
00000000
00003001
00000100
00000001
00001000
00000010
00000100
00000001
,
00000101
00000000
00001001
00000000
00001100
00000000
00010000
00002000
,
00000000
00103000
00010000
00100000
00010000
10000000
00100000
01000000
,
00000000
01010000
00000000
01001000
00000000
00011000
00000000
00010100
,
00000000
00011000
00000000
01010000
00000000
01000000
00001000
00001000
,
00010000
00000000
00000000
00010000
00000100
00000000
00000000
00000100
00001000
00000000
00000000
00001000
00000001
00000000
00000200
00000000
,
00000000
00000310
00001000
00000010
00000100
00000002
00000000
00001003
,
00000100
00000000
00000000
00000100
00010000
00000000
00000000
00010000
00001000
00000000
00000000
00001000
00100000
00000000
00020000
00000000
,
00000000
10030000
00100000
10000000
00010000
01000000
00100000
10000000
,
10100000
00000000
10010000
00000000
00110000
00000000
00001000
00020000
,
00000000
00030100
00001000
00000100
00001000
00000001
00000100
00000010
,
00000000
00001010
00000000
00010010
00000000
00011000
00000000
00101000
,
00000000
00011000
00000000
00001010
00000000
00000001
00000010
00000100
,
00002000
00000000
00000000
00000000
00003100
00000000
00000000
00000000
00000100
00000000
00000000
00000100
00010000
00000000
00001000
00000000
,
00010000
00000000
00001000
00000000
00100000
00000000
00010000
00000000
01000000
00000000
00000000
01000000
00100000
00000000
10000000
00000000
,
00020000
00000000
01030000
00010000
10000000
00100000
01000000
00010000
,
00100000
00000000
00100000
00000000
00010000
00000000
00100000
00000000
00001000
00000000
00000000
00001000
00000000
00000000
00010000
00000000
,
00000100
00000000
00000000
00000100
00000000
00000000
00000010
00000000
00000002
00000000
00000000
00000000
00000000
00000000
00001003
00000000
,
00000010
00001000
00000001
00000200
00000000
00000310
00001000
00000020
,
00000000
00000130
00000001
00001000
00000001
00001000
00000100
00020000
,
00000000
00031000
00100000
00002000
00000000
00103000
00010000
01000000
,
00200000
00320000
00032000
00003000
,
00010000
00000100
00000010
00000000
,
00000020
00002030
00023000
00030000
,
00001000
00010000
00100000
00000000
,
10100000
10010000
02020000
03030000
,
10000000
00000000
00010000
00000000
00100000
00010000
00100000
00000000
,
00001000
00010000
00000000
00010000
00000000
00000100
00000000
00000100
,
00000000
00000010
00000000
00000010
00000000
00001000
00010000
00001000
,
00000000
00011000
20020000
30030000
,
00010000
01000000
00010000
10000000
01000000
10000000
00010000
00000000
,
10010000
00011000
00002002
00003003
,
00000001
00000100
00000001
00001000
00000100
00001000
00000001
00000000
,
00000101
00000000
00001010
00000000
00001002
00000000
00000103
00000020
,
00000000
00001030
00000100
00001000
00000100
00010000
00001000
00100000
,
00000000
00110000
00000000
10010000
00000000
11000000
00000000
10010000
,
00000000
01010000
00000000
01001000
00000000
00010000
00000200
00000000
,
00001300
00000001
00001000
00000001
00000100
00000010
00002000
00000000
,
00003100
00010000
00000100
00010000
00001000
00100000
00020000
00000000
,
10030000
00100000
10000000
00100000
01000000
00010000
00200000
00000000
,
00301000
00010000
00001000
00010000
00000100
00001000
00000002
00000000
,
00000103
00000010
00000100
00000010
00001000
00000100
00020000
00000000
,
00031000
00100000
00001000
00100000
00010000
10000000
00200000
00000000
,
01300000
00010000
01000000
00010000
00100000
00001000
00020000
00000000
,
00030100
00001000
00000100
00001000
00000001
00000100
00000010
00000000
;

//---------------dance-double - ----------------
#NOTES:
     dance-double:
     :
     Medium:
     9:
     0.392465,0.422371,0.271621,0.512200,0.000000,354.000000,319.000000,35.000000,66.000000,0.000000,0.000000,0.392465,0.422371,0.271621,0.512200,0.000000,354.000000,319.000000,35.000000,66.000000,0.000000,0.000000:
00000000
00000000
00000000
00000000
,
00000000
00000000
00000000
00000000
,
00000000
00000000
00000000
00000000
,
00000000
00000000
00000000
00000000
,
00011000
00101000
00022000
00033000
,
00010000
00000000
00000100
00000000
00000010
00000100
00010000
00000000
,
00011000
00010100
00022000
00033000
,
00001000
00000000
00100000
00000000
01000000
00100000
00001000
00000000
,
00021000
00000000
00230000
00000000
20300000
00000000
30010000
00100000
,
00000000
00100000
01000000
00000000
10000000
00010000
10000000
00010000
,
00000000
02000000
00000000
03001000
00000000
00002000
00000000
00013000
,
00000000
00020000
00000000
00030100
00000000
00001000
00000002
00000000
,
00000103
00000000
00000001
00000100
,
00000010
00001000
00000100
00000000
00010000
00001000
00010000
00000000
,
00002000
00003000
00100000
00100000
,
00010000
00100000
00010000
00100000
01000000
10000000
01000000
00000000
,
20000000
30000000
00010000
00010000
,
10000000
00100000
01000000
00000000
00010000
00000000
00100000
00002000
,
00000000
00003000
00010000
00000020
00000000
00000030
00000100
00000002
,
00000000
00001000
00000100
00001003
,
00000001
00000100
00001000
00000000
00000200
00000000
00000310
00000000
,
00001000
00000100
00010000
00000000
00002000
00000000
00103000
00000000
,
00010000
00100000
10000000
00000000
00200000
00000000
00310000
00000000
,
20100000
30200000
01330000
13000000
,
10000000
00100000
00010000
00000000
00200000
00000000
01300000
00000000
,
00010000
00100000
00001000
00000000
00020000
00000000
00030100
00000000
,
00001000
00000100
00000001
00000100
00002000
00000000
00003002
00000000
,
00000103
00000000
00000000
00000000
,
00000001
00000100
00000010
00000010
,
00001000
00000001
00001000
00000001
00001000
00000000
00000001
00000000
,
00000101
00001010
00002002
00003003
,
00000001
00000000
00001000
00000000
00000100
00010000
00001000
00000000
,
00011000
00010100
00202000
00303000
,
00100000
00000000
00010000
00000000
10000000
00100000
01000000
00000000
,
01100000
10010000
02200000
03300000
,
00100000
00000000
00010000
00000000
10000000
01000000
10000000
01000000
,
00000000
00200000
00000000
00301000
00000000
00002000
00000000
00013000
,
00000000
00020000
00000000
00030100
00000000
00010000
00001000
00000000
,
00011000
00101000
00020020
00030030
,
00000010
00000000
00001000
00000000
00000001
00000100
00000010
00000000
,
00000110
00001010
00002002
00003003
,
00001000
00000000
00000100
00000000
00010000
00001000
00010000
00000000
,
00010010
00011000
00202000
00303000
,
00001000
00000000
00010000
00000000
00000001
00000100
00000001
00000100
,
00000000
00000020
00000000
00001030
00000000
00002000
00000000
00003100
,
00000000
00000200
00000000
00010300
00000000
00010000
00001000
00000000
,
00200000
00310000
20000000
30010000
,
10000000
01000000
10000000
00000000
00020000
00000000
00230000
00000000
,
00302000
00000000
00003000
00000000
00010000
00000010
00010000
00000000
,
00000010
00000100
00000010
00000000
00000100
00000000
00000001
00000000
,
00002000
00003000
00000002
00000003
,
00001000
00000100
00001000
00000000
00000100
00010000
00000100
00000000
,
00010000
00010000
00001000
00100000
,
00010000
01000000
00010000
00000000
10000000
00100000
10000000
00000000
,
10010000
01100000
20020000
30030000
,
00010000
00000000
00100000
00000000
00001000
00010000
00000000
00000000
,
00001001
00000110
00001001
00000000
,
00001000
00000000
00000100
00000000
00010000
00001000
00010000
00000000
,
00002000
00203000
02300000
03000000
,
10000000
00100000
01000000
00000000
,
00100000
00100000
01000000
01000000
,
00001000
00000000
00010000
00000000
00000100
00000010
00000001
00001000
,
00000000
00001001
00000202
00000303
,
00000001
00000000
00000100
00000000
00000010
00001000
00000010
00000000
,
00002000
00003200
00020300
00030000
,
00001000
00000000
00100000
00000000
00010000
01000000
00010000
00000000
,
20000000
00000000
30200000
00000000
02300000
00000000
03010000
10000000
,
00000000
00000000
00010000
00000000
10000000
01000000
10000000
01000000
,
00000000
00200000
00000000
00301000
00000000
00002000
00000000
00013000
,
00000000
00020000
00000000
00030100
00000000
00000100
00001000
00000000
,
00000001
00000100
00000001
00000000
00001000
00000100
00001000
00000000
,
00000100
00010000
00001000
00000000
,
00100000
00010000
00100000
00000000
00010000
01000000
00010000
00000000
,
10000000
00100000
01000000
00000000
,
00010000
01000000
00010000
00000000
00100000
00001000
00100000
00000000
,
00001000
00010000
00000100
00000000
,
00001000
00000010
00001000
00000000
00000001
00000100
00000001
00000000
,
00000010
00000100
00010000
00011000
;

//---------------dance-double - ----------------
#NOTES:
     dance-double:
     :
     Easy:
     5:
     0.233927,0.271524,0.069845,0.124170,0.000000,211.000000,202.000000,9.000000,16.000000,0.000000,0.000000,0.233927,0.271524,0.069845,0.124170,0.000000,211.000000,202.000000,9.000000,16.000000,0.000000,0.000000:
00000000
00000000
00000000
00000000
,
00000000
00000000
00000000
00000000
,
00000000
00000000
00000000
00000000
,
00000000
00000000
00000000
00000000
,
10000000
00010000
02000000
03000000
,
00001000
00000000
00010000
00000000
,
00000100
00000010
00000002
00000003
,
00001000
00000000
00000010
00000000
,
00001000
00000001
00000200
00000300
,
00000001
00000000
00001000
00000000
,
00000100
00000100
00010000
00000000
,
00010000
00010000
00001000
00000000
,
00100000
00000000
00100000
00000000
,
00010000
00100000
01000000
00000000
,
10000000
00000000
10000000
00000000
,
00010000
01000000
00001000
00010000
,
00000100
00000000
00000100
00000000
,
00000010
00000001
00000100
00000000
,
00000020
00000030
00000200
00000300
,
00002002
00000000
00000000
00003003
,
00000001
00001000
00000100
00000100
,
00010000
00001000
00100000
00100000
,
00010000
01000000
00100000
00100000
,
20000000
30000000
00020000
00030000
,
10000000
00010000
00100000
00100000
,
00001000
00010000
00001000
00001000
,
00010000
00000100
00000010
00000001
,
00001000
00000000
00000000
00000000
,
00000001
00000100
00000010
00001000
,
00002002
00000000
00000000
00003003
,
00000010
00000010
00002002
00003003
,
00001000
00000100
00010000
00000000
,
00001000
00001000
00100000
00000000
,
00001000
00100000
01000000
00000000
,
00100000
00100000
10010000
00000000
,
10000000
00010000
01000000
00000000
,
00100000
00100000
01000000
01000000
,
00010000
00100000
01000000
00000000
,
00100000
00100000
10010000
00000000
,
00010000
00100000
00001000
00000000
,
00010000
00010000
00001000
00000000
,
00010000
00000010
00000100
00000000
,
00000010
00000010
00001001
00000000
,
00000001
00000000
00001000
00000000
,
00000100
00000100
00000010
00000010
,
00000001
00000000
00001000
00000000
,
00000200
00000300
00020000
00030000
,
00001000
00001000
00100000
00000000
,
00020000
00030000
10000000
10000000
,
00100000
00100000
01000000
00000000
,
00001000
00000000
00010000
00000000
,
00000100
00000010
00000001
00000000
,
00001000
00000100
00001000
00000000
,
00000001
00000100
00000001
00000000
,
00001000
00001000
00001000
00000000
,
00000100
00000000
00000000
00000000
,
00010000
00010000
00010000
00000000
,
00001000
00000000
00000000
00000000
,
00100000
00100000
00100000
00000000
,
00010000
00000000
10000000
00000000
,
00100000
00000000
01000000
00000000
,
00010000
10000000
00010000
10000000
,
00000000
10010000
10010000
00000000
,
10000000
00000000
00010000
00000000
,
01000000
01000000
00001000
00000000
,
00010000
00000000
00000100
00000000
,
00000010
00000010
00001001
00000000
,
00000001
00000000
00001000
00000000
,
00000100
00000100
00010000
00000000
,
00010000
00010000
00001000
00000000
,
00100000
00000000
00100000
00000000
,
00100000
00010000
01000000
00000000
,
00001000
00000000
00001000
00000000
,
00001000
00010000
00000100
00000000
,
00000010
00000000
00000010
00000000
,
00000010
00000001
00001000
00000000
,
00000100
00000000
00000100
00000000
,
00010000
00010000
00001000
00001000
;
