#VERSION:0.83;
#TITLE:Mangled;
#SUBTITLE:;
#ARTIST:NateWantsToBattle;
#TITLETRANSLIT:;
#SUBTITLETRANSLIT:;
#ARTISTTRANSLIT:;
#GENRE:;
#CREDIT:Dyne322;
#MUSIC:Mangled.ogg;
#BANNER:Mangled-banner.avi;
#BACKGROUND:Mangled-bg.png;
#CDTITLE:;
#SAMPLESTART:45.714;
#SAMPLELENGTH:13.714;
#SELECTABLE:YES;
#OFFSET:-0.033;
#BPMS:0.000=120.125
,217.500=142.200
,218.000=120.125
;
#STOPS:;
#SPEEDS:0.000=1.000=0.000=0;
#SCROLLS:0.000=1.000,
217.500=0.834,
218.000=1.000
;
#TICKCOUNTS:0.000=4;
#TIMESIGNATURES:0.000=4=4;
#LABELS:0.000=Song Start;
#COMBOS:0.000=1;
#DISPLAYBPM:120.125;
#ORIGIN:;
#PREVIEWVID:;
#JACKET:Mangled-jacket.png;
#CDIMAGE:;
#DISCIMAGE:;
#BGCHANGES:-0.066=Mangled-bga.avi=1.000=0=0=0=StretchNoLoop====,
99999.000=-nosongbg-=1.000=0=0=0=StretchNoLoop====
;
#FGCHANGES:;

//--------------- dance-single - ----------------
#NOTEDATA:;
#STEPSTYPE:dance-single;
#DESCRIPTION:;
#DIFFICULTY:Easy;
#METER:4;
#RADARVALUES:0.186795,0.340651,0.02955,0,0,177,173,4,0,8,0,0,0,0,0.186795,0.340651,0.02955,0,0,177,173,4,0,8,0,0,0,0;
#CHARTNAME:;
#CHARTSTYLE:;
#CREDIT:Dyne322;
#NOTES:
0000
0000
0000
0000
,
0000
0000
0000
0000
,
0000
0000
0000
0000
,
0000
0000
0000
0000
,
0000
0000
0000
0000
,
0000
0000
0000
0000
,
0000
0000
0000
0000
,
0000
0000
0000
0000
,
0000
0000
0000
0000
,
0000
0000
0000
0000
,
0000
0000
0000
0000
,
0000
0000
0000
0000
,
0000
0000
0000
1000
,
0000
0100
0000
0010
,
0000
0001
0000
0010
,
0000
0100
0000
1000
,
0000
0010
0000
1000
,
0000
0001
0000
0100
,
0000
0001
0000
0010
,
0000
0100
0000
0010
,
0000
1001
0000
1000
,
0000
0000
0100
0000
,
0000
0010
0000
0000
,
0001
0000
1000
0000
,
0001
0000
1000
0000
,
0100
0000
0010
0000
,
0100
0000
0000
0000
1000
0000
0000
0100
,
0010
0000
0000
0100
1000
0000
0000
0000
,
0010
0000
0001
0000
0100
0000
0000
0010
,
0001
0000
0000
1000
0100
0000
0000
0000
,
1000
0000
0001
0000
0100
0000
0000
0001
,
0010
0000
0000
1000
0010
0000
0000
0000
,
1000
0001
0100
0000
,
1000
0000
0000
0100
,
0010
1000
0010
0100
,
0010
1000
0100
1000
,
0100
1000
0000
0000
0100
0000
1000
0000
,
0100
0000
0010
0000
0001
0000
1000
0100
,
1000
0000
0000
0000
0000
0000
0001
0010
,
0001
0000
1000
0100
1000
0100
0000
0000
,
1000
0000
0001
0000
1000
0000
0100
0010
,
0001
1000
0010
0000
0100
0000
0000
0000
,
0010
0100
0010
1000
,
0001
1000
0100
0010
,
0001
1000
0000
0100
0000
0000
1000
0100
,
0010
0001
0010
0100
1000
0000
1000
0010
,
0000
0000
0001
0100
0000
0000
1000
0000
,
0010
0000
1000
0000
0001
0000
0100
1000
,
0000
0000
0100
0001
0000
0000
0010
0000
,
1000
0000
0001
0000
0010
0000
0000
1000
,
0010
0000
0000
1000
0100
0000
0010
0000
,
0100
0010
0100
1000
,
0100
1000
0010
0100
,
0010
0000
0000
1000
0000
0000
0010
0000
,
0100
0000
0110
0000
0000
0000
1000
0100
,
0000
1000
0000
0000
0000
0100
0000
0010
,
0000
0001
0000
1000
0000
0001
0000
0000
,
0001
0010
0100
1000
,
0001
0010
0100
1000
,
1000
0001
0100
0010
,
1000
0001
0100
0010
,
0100
0000
0010
0000
1000
0100
1000
0001
,
0010
0001
0100
0010
0100
0000
0110
0000
,
0000
1001
0000
0000
,
0000
0000
0000
0000
,
0MM0
0000
0000
0000
M00M
0000
M00M
0MM0
;

//--------------- dance-single - ----------------
#NOTEDATA:;
#STEPSTYPE:dance-single;
#DESCRIPTION:;
#DIFFICULTY:Medium;
#METER:7;
#RADARVALUES:0.298661,0.413647,0.118198,0.184684,0.007387,283,267,16,25,8,0,0,0,0,0.298661,0.413647,0.118198,0.184684,0.007387,283,267,16,25,8,0,0,0,0;
#CHARTNAME:;
#CHARTSTYLE:;
#CREDIT:Dyne322;
#NOTES:
0000
0000
0000
0000
,
0000
0000
0000
0000
,
0000
0000
0000
0000
,
0000
0000
0000
0000
,
2002
0000
0000
3003
,
0110
0000
0000
0000
,
0000
0000
0000
0220
0000
0000
0000
0000
,
0000
0330
0000
1001
0000
0000
0000
1000
,
0010
0000
0000
0000
,
1000
0001
0000
0000
0000
1000
0000
0100
,
0000
0010
0000
0001
0010
0001
0100
0000
,
0010
0000
0100
0000
0001
0000
1000
0001
,
1000
0010
0000
0100
0010
0000
0000
0000
,
0100
1100
1000
0010
,
0001
0011
0100
1000
,
0100
0110
0001
0010
,
0100
1001
0100
0010
,
1000
0110
0001
1000
,
0100
0011
0001
0010
,
0100
1100
0100
0010
,
0001
1001
0000
1000
,
0100
0010
0100
1000
,
0010
0100
0010
0000
1000
0000
0100
0000
,
0010
0000
0100
0000
1000
0100
1000
0000
,
0001
0100
0010
0100
,
0010
1000
0010
1000
0001
0010
0001
0010
,
0000
0100
1000
0100
0000
0000
0000
1000
,
0010
0000
0010
1000
0100
0000
0010
0000
,
0001
0010
0100
1000
,
1000
0100
0010
0001
,
1000
0100
0010
0001
,
0010
0100
1000
0001
,
1000
0100
0001
2000
,
3020
0000
0000
0230
0000
0000
0310
0000
,
0010
0000
1000
0100
0010
0000
0001
0000
,
0001
0010
0001
1000
,
0100
1000
0100
1000
0001
0000
1000
0000
,
0100
0010
0001
0010
,
0100
1000
0100
0010
,
0001
0000
1000
0010
1000
0010
0000
0000
,
1000
0100
0010
0001
1000
0100
0010
0001
,
1000
0100
0010
0001
0010
0001
0010
0000
,
0020
0000
0000
0230
0000
0000
2300
0000
,
0002
0000
0000
3000
0000
0000
0003
0000
0000
0000
0000
0000
0100
0000
0010
0000
0000
0000
0010
0000
0000
0000
0100
0000
,
1000
0001
0000
1000
0000
0000
1000
0100
,
1000
0001
0010
0001
0100
0010
0100
0010
,
0000
0000
0001
0100
0000
0000
0010
1000
,
1000
0001
1000
0010
0100
0000
0001
1000
,
0000
0000
0010
0000
0100
0000
0010
1000
,
0010
1000
0010
0100
0010
0000
0000
1000
,
0010
0000
0000
1000
0100
0000
0000
1000
,
0100
0010
0001
0010
0200
0000
2300
0000
,
3200
2300
3020
0230
,
0302
0000
0000
0003
0000
0000
0100
0000
,
0001
0000
0110
0000
0000
0000
1000
0100
,
1000
0100
0010
0001
0010
0001
0010
0001
,
0000
1000
0000
0000
1000
0100
1000
0000
,
0001
0000
0010
0000
0100
1000
0001
0010
,
0001
0010
0001
0000
2000
0000
3002
0000
,
0203
0320
0230
0302
,
2003
0000
3001
1000
0001
1000
0001
1000
,
0001
1000
0001
0100
0010
0100
0010
1000
,
0001
1000
0100
0010
0000
0000
0110
0000
,
1001
0110
0000
0000
,
0000
0000
0000
0000
,
0MM0
0000
0000
0000
M00M
0000
M00M
0MM0
;

//--------------- dance-single - ----------------
#NOTEDATA:;
#STEPSTYPE:dance-single;
#DESCRIPTION:;
#DIFFICULTY:Hard;
#METER:9;
#RADARVALUES:0.40314,0.486644,0.096036,0.125585,0.284414,382,369,13,17,13,0,4,0,0,0.40314,0.486644,0.096036,0.125585,0.284414,382,369,13,17,13,0,4,0,0;
#CHARTNAME:;
#CHARTSTYLE:;
#CREDIT:Dyne322;
#NOTES:
0000
0000
0000
0000
,
0000
0000
0000
0000
,
0000
0000
0000
0000
,
0000
0000
0000
0000
,
4000
0004
0000
0000
0000
0000
0000
0000
0000
0000
0000
0000
0000
0000
0000
0000
,
3003
0000
0000
0000
,
0000
0000
0000
0000
0000
0000
0400
0040
0000
0000
0000
0000
0000
0000
0000
0000
,
0000
0000
0000
0000
0330
0000
0000
0000
0000
0000
0000
0000
1100
0000
0000
0011
,
0000
0000
0000
0000
0000
0000
0000
0000
0000
0000
0000
0000
0000
0000
0000
1000
,
0100
0000
0000
1000
0000
0000
0100
0000
0000
0000
0000
0000
0000
0000
0000
0000
0000
0000
0000
0000
0000
0000
0000
0000
0000
0000
0000
0000
1000
0000
0000
0100
0000
0000
0000
0000
0000
0100
0000
0000
0000
0000
0000
0000
0000
0000
0000
0000
,
0000
0000
0000
0000
0000
0000
0000
0000
0000
0000
0000
0000
0100
0000
0000
0010
0000
0000
0000
0000
0000
0000
0000
0000
0001
0000
0000
0000
0100
0000
0000
0000
0000
0000
0000
0000
0010
0000
0000
0000
0100
0000
0000
0000
0000
0000
0000
0000
,
0010
0100
0000
0001
0100
0000
0000
0000
0100
0001
0000
0100
,
0010
0000
0000
0000
0000
0000
0010
0100
,
0000
0000
0001
0100
0001
0000
0000
0000
,
0000
0100
1000
0010
1000
0100
0010
0000
,
0000
0000
1000
0000
0010
0100
0010
0000
,
0000
0000
0000
0100
1000
0000
0000
0100
0000
0010
0000
0001
0000
0100
0000
0000
,
0000
0000
0000
1000
0100
0000
1000
0000
0010
0000
0100
0000
0010
0000
1000
0000
,
0000
0000
0000
0010
1000
0000
0000
0000
0100
0000
1000
0000
0100
0000
1000
0000
,
0000
0000
0000
0010
1000
0000
0000
0000
0001
0000
0100
0000
0001
0000
0100
0000
,
0000
0000
1001
0000
0000
0000
1000
0010
,
1000
0000
0100
1000
0100
0000
0010
0001
,
0010
0100
0010
0100
0010
0000
0000
0001
0000
0100
0000
0000
0010
0000
1000
0000
,
0010
0000
0100
0000
0001
0000
0000
0000
0100
0010
0100
0010
0100
0000
0000
0000
,
0001
0010
0100
1000
0001
0010
0100
1000
,
0100
0010
0100
0010
0100
0000
1000
0000
0001
0000
1000
0000
0100
0000
0010
0000
,
0001
0010
0100
0010
0100
0100
0000
1000
,
0001
0000
0000
1000
0001
0000
0000
1000
,
0010
1000
0001
0100
0010
0000
0000
0100
,
0001
0000
0000
1000
0010
0000
0000
1000
,
0001
0100
0010
1000
0100
0010
0000
0100
,
1000
0000
0000
0001
1000
0000
0000
0011
,
1000
0100
0010
0001
0010
1100
1010
1100
,
0011
0000
0000
1000
0100
1000
0100
0010
,
0000
0001
0000
1000
0000
0000
0100
0010
,
0001
0001
0010
0100
1000
0100
0010
0100
,
1000
0100
1000
0100
1000
0000
0100
0000
0010
0000
0010
0000
0001
0000
0010
0000
,
0100
0000
0010
0000
0001
0000
1000
0000
0010
0000
1000
0000
0100
0000
0000
1000
,
0000
0000
0100
0000
1000
0000
0100
0010
0001
0010
0001
0010
0000
0000
0100
0000
,
0000
1000
0000
0001
1000
0100
0010
0001
,
0100
0001
0100
1000
0100
0010
0000
1000
,
0100
0000
0010
0000
0100
0000
0000
1000
0100
0000
0000
0000
0000
0000
0010
0000
,
0010
0100
0100
0010
0010
1000
1000
0001
,
0001
0000
1000
0100
1000
0001
0010
0001
,
1000
0000
0100
0000
1000
0000
0010
0000
1000
0000
0100
0000
1000
0000
0010
0M00
,
0010
0000
0001
0000
0100
00M0
0100
0000
1000
0000
0100
0000
0000
0000
1000
0000
,
0100
0010
0001
1000
0100
0010
0001
0100
,
0001
0000
0010
0000
0100
1000
0100
1000
0100
0000
0000
0000
0010
0001
0010
0000
,
0000
0000
0100
1000
0100
0000
0000
0000
0000
0000
0010
0100
0010
0000
0001
0000
,
1000
0001
0001
0010
0010
0000
1100
0000
,
0110
0000
1010
0000
0110
0000
0000
2000
,
3020
0000
0002
0030
0020
0003
2000
0030
3200
0000
2300
0000
3000
0000
1000
0000
,
0100
0010
0001
0010
0100
1000
0100
2000
,
0000
0000
0100
3000
0010
0000
0001
0000
0000
0000
0000
0000
0100
0000
0010
0000
,
0100
0000
0001
0000
0000
0000
1000
0000
0100
0000
0001
0000
0010
0000
0000
1000
,
0000
1000
0000
0001
1000
0100
0010
0001
,
0100
0001
0100
1000
0100
0010
0000
1000
,
0000
0100
0010
0001
0100
0000
0000
0010
,
0010
0100
0100
0010
0010
1000
0002
0010
,
2003
0010
3002
0100
0203
0010
0320
1000
,
2030
0000
0001
0000
3002
0000
0000
0000
1003
0100
1000
0001
0010
0001
0000
0000
,
1000
0000
0010
0000
1000
0000
0100
0000
1000
0000
0010
0M00
0010
0000
0001
0000
,
0100
00M0
0100
0000
1000
0000
0010
0M00
0010
0000
0001
0000
1000
0000
0001
0000
,
0100
0000
0000
0000
2002
0000
0000
0000
0000
0000
0000
0000
0000
3003
0000
0000
,
0000
0000
0000
0000
,
0MM0
0000
0000
0000
M00M
0000
M00M
0MM0
;

//--------------- dance-single - [FS XO] ----------------
#NOTEDATA:;
#STEPSTYPE:dance-single;
#DESCRIPTION:[FS XO];
#DIFFICULTY:Challenge;
#METER:13;
#RADARVALUES:0.463294,0.55964,0.073874,0.088649,0.465405,439,429,10,12,21,0,4,2,0,0.463294,0.55964,0.073874,0.088649,0.465405,439,429,10,12,21,0,4,2,0;
#CHARTNAME:;
#CHARTSTYLE:;
#CREDIT:Dyne322;
#NOTES:
0000
0000
0000
0000
,
0000
0000
0000
0000
,
0000
0000
0000
0000
,
0000
0000
0000
0000
,
4000
0040
0000
0000
0000
0000
0000
0000
0000
0000
0000
0000
0000
0000
0000
0000
,
0000
0000
0000
0000
0000
3030
0000
0101
0000
0000
0000
0000
0000
0000
0000
0000
,
0000
0000
0000
0000
0000
0000
0004
0400
0000
0000
0000
0000
0000
0000
0000
0000
,
0000
0000
0000
0000
0000
0000
0000
0000
0000
0000
0000
0000
0003
0000
0300
0000
0000
0000
0000
0000
0000
0000
0000
0000
2200
0000
0000
0000
0000
3300
LL00
0000
,
0000
0000
0000
0000
0000
0000
0000
0000
0000
0000
0000
0000
0000
0000
0000
1000
,
0100
0000
0000
0000
0000
0000
1000
0000
0000
0000
0000
0000
0100
0000
0000
0000
0000
0000
0000
0000
0000
0000
0000
0000
0000
0000
0000
0000
0000
0000
0000
0000
0000
0000
0000
0000
0000
0000
0000
0000
0000
0000
0000
0000
0000
0000
0000
0000
0000
0000
0000
0000
0000
0000
0000
0000
1000
0000
0000
0000
0000
0000
0100
0000
0000
0000
0000
0000
1000
0000
0000
0000
0000
0000
0100
0000
0000
0000
0000
0000
0000
0000
0000
0000
0000
0000
0000
0010
0000
0000
0000
0000
0000
0000
0000
0000
,
0000
0000
0000
0000
0000
0000
0000
0000
0000
0000
0000
0000
0000
0000
0000
0000
0000
0000
0000
0000
0000
0000
0000
0000
0100
0000
0000
0000
0000
0000
0010
0000
0000
0000
0000
0000
0000
0000
0000
0000
0000
0000
0000
0000
0000
0000
0000
0000
0001
0000
0000
0000
0000
0000
0000
0000
0000
1000
0000
0000
0000
0000
0000
0000
0100
0000
0000
0000
0000
0000
0000
0000
0000
0000
0000
1000
0000
0000
0000
0000
0000
0000
0000
0000
0000
0000
0000
0000
0000
0000
0000
0000
0000
0000
0000
0000
,
0000
0000
0000
0000
0000
0000
0000
0000
0000
0000
0000
0000
0000
0000
0000
0010
0000
0000
0000
0000
0000
0000
0000
0000
0000
0000
0000
0000
0000
0000
0000
0000
0000
0000
0000
0000
0000
0000
0000
0000
0000
0000
0000
0000
1000
0000
0000
0000
0000
0000
0000
0000
0000
0000
0000
0000
0000
0000
0000
0000
0010
0000
0000
0000
0000
0000
0000
0000
0000
0000
0000
0000
0000
0000
0000
0000
0000
0000
0000
0000
0000
0000
0000
0000
0000
0000
0000
0000
0000
0000
0000
0000
0000
0000
0000
0000
0000
0000
0000
0000
0000
0000
0000
0000
0000
0000
0000
0000
0000
0000
0000
0000
0000
0000
0000
0000
0000
0000
0000
0000
0000
0000
0000
0000
0000
0000
0000
0000
0000
0000
0000
0000
0000
0000
0000
0000
0000
0000
1000
0000
0000
0000
0000
0000
0000
0000
0000
0000
0000
0000
0000
0000
0000
0000
0000
0000
0000
0000
0000
0000
0000
0000
0100
0000
0000
0000
0000
0000
0000
0000
0000
0000
0000
0000
0000
0000
0000
0000
0000
0000
0000
0000
0000
0000
0000
0000
0010
0000
0000
0000
0000
0000
,
0000
0001
0000
0000
0000
0000
0000
0000
0000
0000
0000
0000
0000
0000
0000
0000
0000
0000
0000
0000
0000
0000
0000
0000
1000
0000
0000
0000
0100
0000
0000
0000
,
0000
0000
1000
0100
0010
0000
0000
0000
,
0000
0000
0001
0000
0100
0000
0010
0000
1000
0000
0001
0000
1000
0000
0000
0100
,
0000
0000
0000
0000
1000
0000
0000
0100
0010
0000
0000
0001
0000
0010
0000
0001
,
0000
0000
0000
0010
0100
0000
0000
1000
0000
0010
0100
0010
0100
0010
0000
0000
,
0000
0000
0000
0000
1000
0000
0000
0000
0001
0000
0000
0010
0100
0010
0000
0000
,
0000
0000
0000
0000
1000
0000
0010
0000
0000
0100
0010
0100
0000
0000
0000
0000
,
0000
0010
1000
0010
0100
0000
1000
0010
,
1000
0000
0000
1001
0000
0000
0000
0000
0000
0000
0000
0000
1000
0000
0001
0000
,
1000
0100
1000
0000
0010
0000
1000
0000
0001
0100
0000
0001
0000
0000
1000
0100
,
0010
0001
0010
0001
0010
0001
0000
1000
0000
0100
1000
0000
0001
0000
0010
0000
,
0001
0000
0100
0010
0000
1000
0000
0000
0001
0010
0001
0100
0001
0000
1000
0000
,
0000
0001
0100
0000
0010
0000
1000
0000
0001
0010
0000
0001
0000
1000
0010
0000
,
1000
0100
1000
0010
1000
0100
0000
0010
0000
0001
0010
0000
0001
0000
1000
0000
,
0010
0000
0100
0000
0001
0000
0100
0000
0010
0100
0001
0100
0001
0100
0001
0000
,
0000
1000
0100
1000
0100
0010
0100
1000
,
0100
0010
0100
1000
0001
0100
0010
1000
,
0100
1000
0010
0100
0001
0010
0001
0100
,
0010
1000
0001
0010
0100
1000
0001
0010
,
0100
1000
0100
1000
1000
0100
1000
0010
,
1000
0100
0010
0001
0010
0001
1000
0100
,
1000
0010
1000
0001
0100
1000
0100
0001
,
0010
0000
1000
0000
0010
0000
0001
0000
0100
0000
0001
0000
1000
0000
0000
0010
,
0M00
0010
0001
0000
0100
00M0
0100
0000
1000
0010
0M00
0010
0000
0001
0100
0001
,
0100
0001
0100
0001
0000
0001
0000
0010
0M00
0010
1000
0000
0100
00M0
0100
0000
,
0001
0010
0M00
0010
0000
1000
0000
0000
0001
0010
0001
0010
0001
0000
0100
0001
,
0100
0001
0100
0001
1000
0001
1000
0100
,
1000
0000
0001
0000
1000
0000
0001
0000
0010
0000
0001
1000
0010
1000
0010
0000
,
1000
0010
1000
0000
0001
0000
0010
0000
0100
0000
0010
0001
1000
0000
0010
0000
,
1000
0100
0010
0001
1000
0100
0010
0100
,
1000
0100
0010
0001
0100
0010
1000
0100
,
0010
0001
0100
0010
1000
0100
0010
0001
,
1000
0000
0100
0000
1000
0000
0010
0000
1000
0010
1000
0010
0000
1000
0010
0M00
,
0010
0001
0000
0100
00M0
0100
0000
1000
0010
0M00
0010
0000
0001
0000
0100
0000
,
0010
1000
0100
0010
0001
1000
0100
0010
,
0001
0000
1000
0000
0010
0000
0100
0000
0001
0000
0010
0000
0100
0000
0010
0001
,
0010
0000
0100
0000
0010
0000
0100
1000
0100
0000
1000
0000
0001
0000
0010
0000
,
0001
0000
0010
0000
0100
0000
1000
0000
0010
1000
0010
0000
0100
0000
0001
0000
,
1000
0000
0001
0000
0010
0000
0100
0000
0100
0000
1000
0010
1000
0000
2000
0000
,
3010
0000
1000
0000
0010
0000
1000
0000
0100
1000
0010
0000
0000
0000
1000
0000
,
0100
0010
0001
1000
0010
0100
0001
1000
,
0100
0010
0001
1000
0010
0100
0001
1100
,
1001
0000
0110
0000
0000
0011
0000
0000
1000
0100
1000
0000
0100
0000
0010
0000
,
0001
0000
0100
0000
0010
0000
1000
0100
1000
0000
0010
1000
0001
0000
0100
0010
,
0100
0001
0010
1000
0010
0001
0100
0010
,
1000
0000
0100
0000
1000
0000
0010
0100
0010
0000
1000
0000
0010
0000
1000
0000
,
0100
0000
1000
0000
0100
0010
0100
0010
0100
0010
0000
0000
0002
0000
2000
0003
,
0000
3000
0010
0000
2000
0000
0200
0000
3010
0300
0002
0000
1000
0000
0003
0020
,
0000
1000
0000
0031
0010
0100
0010
0001
,
0100
0010
0100
0000
0010
0000
1000
0000
0010
0M00
0010
0001
0100
00M0
0100
1000
,
0010
0M00
0010
0000
0001
0100
00M0
0100
1000
0000
0100
1000
0100
0010
0100
0010
,
0001
0000
0110
0000
2002
0000
0000
0000
0000
0000
0000
0000
0000
3003
0000
0000
,
0000
0000
0000
0000
,
0MM0
0000
0000
0000
M00M
0000
M00M
0MM0
;
