#TITLE:マジカルドクター;
#SUBTITLE:;
#ARTIST:MARETU ft. 初音ミク;
#TITLETRANSLIT:Magical Doctor;
#SUBTITLETRANSLIT:;
#ARTISTTRANSLIT:MARETU ft. Hatsune Miku;
#GENRE:;
#CREDIT:;
#MUSIC:Magical Doctor.ogg;
#BANNER:Magical Doctor.png;
#BACKGROUND:Magical Doctor-bg.png;
#CDTITLE:;
#SAMPLESTART:103.207;
#SAMPLELENGTH:15.000;
#SELECTABLE:YES;
#OFFSET:2.065;
#BPMS:0.000=116.000
,18.000=116.500
,19.000=162.800
,20.000=204.000
,28.000=226.000
,29.000=188.000
,30.000=197.000
,31.000=164.000
,32.000=204.000
,201.000=408.000
,202.000=204.000
,302.000=102.000
,350.000=204.000
;
#STOPS:133.000=2.647
,201.000=0.147
;
#DISPLAYBPM:104.000:226.000;
#BGCHANGES:;
#FGCHANGES:;

//--------------- dance-single - chrononical ----------------
#NOTES:
     dance-single:
     chrononical:
     Beginner:
     4:
     0,0,0,0,0:
0000
0000
0000
0000
,
0000
0000
0000
0000
,
0000
0000
0000
0000
,
0000
0000
0000
0000
,
0000
0000
0000
0000
,
2000
0000
0000
0000
,
0000
0000
0000
0000
,
3000
0000
0000
0000
,
1000
0000
0010
0000
,
1000
0000
0100
0000
,
0002
0000
0103
0000
,
1000
0000
0010
0000
,
0002
0000
0013
0000
,
1000
0000
0100
0000
,
0002
0000
0103
0000
,
1000
0000
0010
0000
,
0100
0100
0100
0000
,
0001
0000
0010
0000
,
2000
0000
3010
0010
,
0001
0000
0100
0000
,
2000
0000
3100
0100
,
0002
0000
0203
0000
,
0320
0000
2030
0000
,
3002
2003
3002
0003
,
0002
0000
0000
0003
,
1000
0001
1000
0000
,
0010
0100
0010
0000
,
1000
0001
1000
0000
,
0100
0010
0100
0000
,
1000
1000
1000
0000
,
0001
0001
0001
0000
,
0100
0100
0100
0000
,
0010
0010
0010
0000
,
2000
3000
0000
0000
,
0000
0000
0001
1000
,
0001
0000
0010
0100
,
0010
0000
2000
0000
,
3010
0000
0001
0001
,
0001
0000
2000
0000
,
3001
0000
0100
0010
,
0100
0000
2000
0000
,
3100
0000
0001
0001
,
0001
0000
0002
0000
,
1003
0000
0100
0010
,
0100
0000
0002
0000
,
0103
0000
1000
1000
,
1000
0000
0002
0000
,
1003
0000
0010
0100
,
0010
0000
2000
0000
,
0000
0000
3000
0000
,
0000
0000
0000
0000
,
1001
0000
0110
0000
,
1001
0000
0110
0000
,
1001
0000
2000
0000
,
0000
0000
3000
0000
,
1001
0000
0110
0000
,
1001
0000
0110
0000
,
1001
0000
0220
0000
,
0000
0000
0330
0000
,
1001
0000
0110
0000
,
1001
0000
0110
0000
,
1001
0000
0002
0000
,
0000
0000
0003
0000
,
1001
0000
0110
0000
,
1001
0000
2002
0000
,
0000
0000
3003
0000
,
0000
0000
1000
0100
,
1000
0000
0001
0100
,
0001
0000
1000
0010
,
1000
0000
0001
0010
,
0002
0003
1000
1000
,
1000
0000
0100
0100
,
0100
0000
0010
0020
,
0030
0001
0002
0003
,
1000
0010
2000
0000
,
0000
0000
3M00
0000
,
0000
0000
0000
0000
,
0000
0000
0000
0000
,
0000
0000
0000
0000
,
0000
0000
0001
0100
,
0010
0000
1000
0200
,
0302
0203
1300
0010
,
0100
0000
0001
0020
,
2030
3020
0031
0010
,
0100
0000
1000
0020
,
0032
0023
1030
0100
,
0010
0000
0001
0200
,
2300
3200
0301
0000
,
0010
0000
0000
0200
,
0300
0200
1300
0000
,
0010
0000
0000
0200
,
0300
0200
0301
0000
,
0010
0000
0100
0000
,
1000
0000
0001
0000
,
0100
0000
0010
0010
,
0010
0000
1000
0100
,
0000
0100
0000
1000
,
1000
0000
0001
0100
,
0000
0100
0000
0001
,
0001
0000
1000
0010
,
0000
0010
0000
1000
,
1000
0000
0001
0010
,
0001
0000
2002
0000
,
3003
0000
0000
0000
;

//--------------- dance-single - chrononical ----------------
#NOTES:
     dance-single:
     chrononical:
     Easy:
     8:
     0,0,0,0,0:
0000
0000
0000
0000
,
0000
0000
0000
0000
,
0000
0000
0000
0000
0000
0000
0000
0000
0000
0002
0000
1003
,
0100
0000
0010
0100
0000
0001
0100
0000
0000
1100
0000
0000
,
1002
0010
0203
1000
,
0302
0000
0000
0000
,
0000
0000
0000
0000
,
0003
0000
0000
0000
,
1000
1000
0010
0010
,
1000
1000
0100
0002
,
0103
1000
1000
0001
,
1000
1000
0010
0002
,
0013
1000
1000
1000
,
0001
0001
0010
2000
,
3010
0001
0001
0100
,
2000
3100
0020
1030
,
0100
0100
0010
0010
,
0001
0001
0100
2000
,
3100
0001
1000
1000
,
0001
0001
0010
2000
,
3010
0001
1000
1000
,
0002
0013
2000
3000
,
2000
3010
0002
0003
,
2000
3020
0230
0302
,
2003
0000
0000
3001
,
1000
1000
0100
0100
,
0010
0010
0001
0001
,
1000
1000
0010
0010
,
0100
0100
0001
0001
,
0001
0001
0010
0010
,
0100
0100
1000
1000
,
1000
1000
0010
0010
,
0100
0100
0001
0001
,
2000
3000
0000
0000
,
0000
2000
3001
0010
,
2000
3010
0001
1000
,
0010
0100
2000
3100
,
0020
0130
0001
0001
,
0001
0001
1000
0100
,
0002
0103
1000
0001
,
0100
0010
0002
0013
,
0200
0310
1000
1000
,
1000
1000
0001
0100
,
2000
3100
0001
1000
,
0100
0010
2000
3010
,
0200
0310
0001
0001
,
0001
0001
1000
0010
,
0002
0013
1000
0001
,
0010
0100
2000
0000
,
0000
0000
3000
0000
,
0000
0000
0000
0000
,
1100
0000
0101
0000
,
1100
0000
0101
0000
,
1100
0000
0000
0000
1002
0000
0000
0100
,
0000
0013
0000
0000
,
0011
0000
1010
0000
,
0011
0000
0101
0000
,
1100
0000
0001
0001
,
0001
0001
1000
0000
,
1010
0000
0011
0000
,
1100
0000
0101
0000
,
1010
0000
0000
0000
2001
0000
0000
0010
,
0000
3100
0000
0000
,
1100
0000
0101
0000
,
1010
0000
2002
0000
,
0000
0000
3003
0000
,
0000
0000
1000
1000
,
0010
0100
0001
0001
,
0010
0100
1000
1000
,
0010
0100
0001
0001
,
0010
2000
3010
0010
,
0001
0001
0100
0100
,
0010
0010
0010
0002
,
0013
0100
2000
3100
,
0010
1000
2000
0000
,
0000
0000
3M00
0000
,
0000
0000
0000
0000
,
0000
0000
0000
0000
,
0000
0000
0000
0000
,
0000
0000
1000
0100
,
0010
0001
1000
0000
0001
0000
0200
0000
,
2300
3200
0301
0010
,
0100
1000
0001
0000
1000
0000
0020
0000
,
0032
0023
1030
0010
,
0100
0001
1000
0000
0001
0000
0020
0000
,
2030
3020
0031
0100
,
0010
1000
0001
0000
1000
0000
0200
0000
,
0302
0203
1300
1000
,
0010
0100
1000
2000
,
3000
0200
0301
0001
,
0010
0100
0001
0002
,
0003
0200
1300
1000
,
0010
0010
0100
0100
,
0001
0001
2000
3010
,
2000
3100
0010
0010
,
0001
0100
0100
2000
,
3100
0200
0301
0010
,
0010
0100
0100
0002
,
0103
0200
1300
0010
,
0010
0100
0100
2000
,
3100
0200
0301
0010
,
0010
0100
0100
0002
,
0103
0000
2002
0000
,
3003
0000
0000
0000
;

//--------------- dance-single - chrononical ----------------
#NOTES:
     dance-single:
     chrononical:
     Medium:
     10:
     0,0,0,0,0:
0000
0000
0000
0000
,
0000
0000
0000
0000
,
0000
0000
0000
0000
0000
0000
0000
0000
0000
0002
0000
1003
,
0010
0000
0100
0010
0000
0001
0010
0000
0000
0110
0000
0000
,
1002
0100
0023
1000
,
0032
0000
0000
0000
,
0000
0000
0000
0000
,
0003
0000
0000
0000
,
1000
0100
0010
0000
0010
0100
1000
0000
,
0001
0100
0010
0002
,
0013
0100
0001
1000
,
1000
0100
0010
2000
,
3010
0000
0100
0000
1000
0000
0001
1000
,
0001
0010
0100
0002
,
0103
0000
0010
0000
0001
0000
1000
0001
,
1000
0000
0010
0100
0010
0000
1000
0001
,
1000
0100
0001
0100
,
1000
0010
0100
2000
,
3100
0010
1000
1000
,
0001
0010
0100
0002
,
0103
0000
0010
0000
0001
0000
0001
1000
,
0002
0103
0020
0130
,
2000
0000
3100
0000
0020
0000
1030
0001
,
2000
3200
0320
0032
,
2003
0000
0000
3001
,
1000
0100
0010
0001
,
0001
0010
0100
1000
,
1000
0010
0100
0001
,
0001
0000
0100
0000
0010
0000
0100
0001
,
1000
0100
0010
0100
,
1000
0000
0001
0000
1000
0000
0100
1000
,
0001
0100
0010
0100
,
0001
0000
0100
0010
0100
0001
1000
0001
,
2000
0000
3000
0000
1000
0001
1000
0001
,
1000
0001
2000
0000
3001
0000
0010
0000
,
2000
3010
0001
0100
,
0110
0010
0002
0013
,
0200
0310
0110
0110
,
1001
1000
0100
0100
,
0002
0103
1000
0010
,
0110
0100
2000
3100
,
0020
0130
0110
0110
,
1001
0001
0100
0100
,
2000
3100
0001
0010
,
0110
0100
0002
0103
,
0020
0130
0110
0110
,
1001
1000
0010
0010
,
0002
0013
1000
0100
,
0110
0010
0002
0000
,
0000
0000
2003
0000
,
3020
0000
0000
0000
0230
0300
0000
0000
0001
0000
0000
0000
0010
0000
0000
0000
,
1010
0010
0011
0010
,
1010
0010
0011
0010
,
1010
0000
0010
0000
1001
0000
0000
0110
,
0000
1001
1000
0010
,
0011
0010
1010
0010
,
0011
0010
1000
0100
,
0101
0100
1001
1001
,
1001
1001
0001
0100
,
1100
0100
0101
0100
,
1100
0100
0101
0100
,
1100
0000
0100
0000
1001
0000
0000
0110
,
0000
1001
1000
0100
,
0101
0100
1100
0100
,
0101
0000
0100
0000
0010
0100
0010
0100
,
0010
0100
0010
0100
0010
0000
0000
0000
,
0000
0000
1001
1000
,
0100
0100
1001
0001
,
0100
0100
1001
1000
,
0010
0010
1001
0001
,
0010
0000
0002
0003
1001
0000
1002
0000
,
0103
0100
1001
2001
,
3100
0100
1200
0301
,
0100
1020
0031
0010
,
1000
0200
2300
0000
,
0000
0000
3000
0000
10M0
1000
0000
0000
,
0001
0001
0000
0000
0100
0100
0000
0000
,
0010
0010
0000
0000
1000
1000
0000
0000
,
0100
0000
0100
0000
0000
0000
0000
0000
0010
0000
0001
0000
0000
0100
0000
0000
,
1000
0100
0001
2000
3001
0001
0010
0000
,
0001
0001
0100
0000
0001
1000
0200
0000
,
0302
0000
0203
0000
1300
1000
0010
0000
,
1000
1000
0001
0000
1000
0001
0200
0000
,
2300
0000
3200
0000
0301
1000
0100
0000
,
1000
0001
0100
0000
0001
1000
0020
0000
,
0032
0000
0023
0000
1030
0001
0010
0000
,
0001
1000
0010
0000
1000
0001
0020
0000
,
2030
0000
3020
0001
0031
0000
0010
0000
,
0100
0002
0103
0002
,
0003
0200
1300
0010
,
0100
2000
3100
2000
,
3000
0000
0200
0000
0301
1000
0001
0000
,
0010
0100
0010
0000
0001
1000
0001
0000
,
0100
0010
0100
0000
0110
0000
1000
0000
,
0110
0001
1001
1001
,
1001
1000
0100
0002
,
0103
0020
0130
0110
,
1001
0001
0100
2000
,
3100
0020
0130
0110
,
1001
1000
0100
0002
,
0103
0020
0130
0110
,
1001
0001
0100
2000
,
3100
0010
2002
0000
,
3003
0000
0000
0000
;

//--------------- dance-single - chrononical ----------------
#NOTES:
     dance-single:
     chrononical:
     Hard:
     14:
     0,0,0,0,0:
0000
0000
0000
0000
,
0000
0000
0000
0000
,
0000
0000
0000
0000
0000
0000
0000
0000
0000
2000
0000
3001
,
0010
0000
0100
0010
0000
1000
0010
0000
0000
0011
0000
0000
,
2001
0100
3020
0001
,
4030
0000
0000
0000
,
0000
0000
0000
0000
,
3001
0100
0010
1000
,
0001
0010
0100
0100
1000
0010
0100
0100
,
0001
0010
0100
0002
,
0103
0110
1001
1000
,
0001
0100
0010
0002
,
0013
0000
0110
0000
1001
0000
1000
0100
,
1000
0100
0010
2000
,
3010
0000
0110
0000
1001
0000
1000
0010
,
0002
0000
1003
0100
0020
0000
1030
0100
,
0110
0000
0000
0000
0011
0000
0000
0000
0001
0000
0100
0010
0100
0000
0001
0000
,
1000
0100
0010
2000
,
3010
0110
0011
0101
,
0001
0100
0010
0002
,
0013
0000
0110
0000
1010
0000
1100
0100
,
0010
0012
0103
2010
,
3100
0000
0012
0000
0103
0000
1010
0010
,
0100
0000
0011
0010
0100
0000
1010
0010
,
0200
0000
0000
0301
,
1000
0100
0010
1001
,
0001
0100
0010
1001
,
1000
0100
0010
1001
,
0001
0000
0000
0000
0100
0000
0000
0000
0010
0000
0000
0100
0010
0000
1000
0000
,
0001
0010
0110
1001
,
1000
0000
0010
0000
0110
0000
1001
0001
,
1000
0100
0110
1001
,
0001
0000
0000
0000
0100
0000
0010
0000
1000
0000
0001
1000
0001
0000
1000
0000
,
0200
0000
0300
0000
1000
0100
1000
0100
,
0010
0100
0120
0000
0031
0000
0100
0000
,
0210
0000
1300
0000
0100
0001
1000
0100
,
0010
0000
0010
0100
0002
0000
0103
0000
,
0020
0130
1100
1001
,
0101
0000
0000
0100
0010
0000
1000
0000
0100
0000
0010
0000
0001
0000
0100
0000
,
0120
0000
0031
0000
0010
1000
0001
0010
,
0100
0000
0100
0010
2000
0000
3010
0000
,
0200
0000
0310
0000
0011
0000
1001
0001
,
0100
0010
0100
0000
0010
0000
1000
0000
0010
0000
0100
0000
0001
0000
0010
0000
,
0120
0000
1030
0000
0010
0001
1000
0010
,
0100
0000
0100
0010
0002
0000
0013
0000
,
0200
0310
1010
1001
,
0011
0000
0000
0010
0100
0000
1000
0000
0010
0000
0100
0000
0001
0000
0010
0000
,
0210
0000
0301
0000
0100
1000
0001
0100
,
0010
0000
0010
0100
0002
0000
0000
0000
,
0000
0000
0203
0000
,
0320
0000
0000
0000
2030
3000
0000
0000
0001
0000
0010
0000
0100
0000
0010
0000
,
2000
3010
0100
0010
0002
0013
0100
0010
,
2000
3010
0100
0010
0002
0013
0100
0010
,
2000
3010
0100
0010
0002
0000
1003
0020
,
0000
0130
0002
1003
0001
0100
0010
0100
,
2000
3100
0010
0100
0002
0103
0010
0100
,
2000
0000
3100
0000
0010
0100
0010
0000
2000
0000
3100
0000
0010
0000
0100
0000
,
0002
0103
0010
0100
0110
0000
0011
0000
,
1001
0000
1010
0000
1000
0010
0100
0010
,
0002
0013
1000
0100
0002
0103
1000
0010
,
0002
0013
1000
0100
0002
0103
1000
0010
,
0002
0013
1000
0100
2000
0000
3001
0200
,
0000
0310
2000
3001
1000
0100
0010
0100
,
0002
0103
1000
0010
0002
0013
1000
0100
,
0002
0000
0103
0000
0010
0100
0010
0000
0001
0000
0100
0000
0010
0000
1000
0000
,
0001
0010
0100
1000
0002
0000
0000
0000
,
0000
0000
1003
0010
,
1010
1001
0001
0010
,
0011
1001
1000
0100
,
1100
1001
0001
0100
,
0010
0100
2000
0000
3100
0000
0010
0000
,
0110
2010
3100
0010
,
0110
0000
0011
0001
0100
0000
2000
0000
,
3100
0000
0010
0000
0002
0000
0013
0100
,
0001
1000
0100
0010
0002
0003
0000
0000
,
0000
0000
0100
0000
0020
0000
0000
0000
103M
0000
1000
0000
0000
0010
0000
0000
,
0100
0000
0100
0000
0000
0001
0000
0000
1000
0000
1000
0000
0000
0100
0000
0000
,
0010
0000
0010
0000
0000
0001
0000
0000
1000
0000
1000
0000
0000
0010
0000
0000
,
0100
0000
0100
0000
0000
0001
0000
1000
0100
0000
0100
0000
0010
0001
0000
1000
,
0010
0100
0001
0010
0100
1000
0002
0000
1003
0010
0100
0001
2000
0000
3200
0000
,
1300
0100
0010
0001
2000
0000
3020
0000
1030
0010
0100
0001
0020
0000
0000
0000
,
2030
0000
0000
0000
3020
0000
0000
0000
0031
0100
0010
1000
0002
0000
0023
0000
,
0031
0010
0100
1000
0002
0000
0203
0000
0301
0100
0010
1000
0200
0000
0000
0000
,
0302
0000
0000
0000
0203
0000
0000
0000
1300
0010
0100
0010
2000
0000
3200
0000
,
1300
0100
0010
0100
2000
0000
3020
0000
1030
0010
0100
0010
0002
0000
0000
0000
,
0023
0000
0000
0000
0230
0000
0000
0000
0301
0010
0100
0010
0002
0000
0203
0000
,
0301
0100
0010
0100
0002
0000
0023
0000
0031
0010
0100
0010
2000
0000
0000
0000
,
3020
0000
0032
1000
1003
0000
0010
0000
,
0100
2000
3100
2200
,
3300
0201
0301
0010
,
0100
0002
0103
0202
,
0303
0000
1200
0000
1300
0100
0010
0001
,
1000
0001
1000
0000
0001
0100
0010
1000
,
0001
1000
0001
0000
0012
0000
0103
0000
,
2010
3100
0110
0110
,
0110
0010
0001
0100
1000
0000
1100
0000
,
0100
0101
0001
0011
,
0011
0010
1000
1010
,
0010
0011
0001
0101
,
0101
0000
0100
0010
0001
0000
0011
0000
,
0010
1010
1000
1100
,
1100
0000
0100
0010
1000
0000
1010
0010
,
0001
0000
0001
0100
0120
0000
0000
0000
,
0030
0000
0000
0000
;

//--------------- dance-single - chrononical ----------------
#NOTES:
     dance-single:
     chrononical:
     Challenge:
     18:
     0,0,0,0,0:
0000
0000
0000
0000
,
0000
0000
0000
0000
,
0000
0000
0000
0000
0000
0000
0000
0000
0000
2000
0000
3001
,
0100
0000
0010
0100
0000
1000
0100
0000
0000
0101
0000
0000
,
2001
0010
3200
0001
,
1300
0100
0010
0001
1000
0100
0010
0001
1000
0100
0010
0001
1000
0100
0010
0001
,
1000
0010
0100
0001
1000
0010
0100
0001
1000
0010
0100
0001
1000
0010
0100
0001
,
1000
0000
0100
0000
0010
0001
2000
0000
,
3001
0000
0100
0000
0010
1000
0001
0000
0010
0000
0100
1000
0001
0000
1000
0000
,
1002
0103
0120
0031
,
0120
1030
0100
0010
,
1002
0013
0210
0301
,
0210
0000
1300
0000
0010
0000
0100
0001
,
2001
3010
0210
1300
,
0210
0000
0301
0000
0010
0000
0100
1000
,
1002
0000
0103
0010
1020
0000
0130
0010
,
0110
0000
0000
0000
1010
0000
1000
0000
0100
0000
0010
0001
1000
0000
0001
0000
,
1001
1010
0120
0031
,
0120
1030
1100
0110
,
1001
0011
0210
0301
,
0210
0000
1300
0000
1010
0000
0110
0100
,
0101
0011
1001
1100
,
1010
0000
1100
0000
1001
0000
0011
0001
,
1001
0000
1010
0010
0110
0000
0101
0001
,
1000
0000
1000
0000
0010
0000
0100
0001
1000
0100
0010
0000
0110
0000
0000
0000
,
1100
0110
0011
1001
,
0101
0110
1010
1001
,
0011
0110
1100
1001
,
1010
0000
0000
0000
0110
0000
0000
0000
0101
0000
0000
0100
0010
0000
1000
0000
,
1001
1010
1100
0011
,
1001
0000
0101
0000
0011
0000
1100
1000
,
1001
0011
0101
1010
,
1001
0000
0000
0000
1100
0000
1000
0000
1010
0000
0010
0100
0001
0000
1000
0000
,
2200
0000
0000
0000
3300
0000
0000
0000
1000
0100
0010
0100
1000
0100
0010
0100
,
1000
0100
0010
0001
1000
0000
0000
0000
1001
0000
0000
0000
0101
0000
0000
0000
,
0120
0000
0031
0000
0210
1300
0100
0010
,
0110
0000
1001
1000
0100
0001
1000
0000
,
0001
0100
1000
0000
1100
0000
0110
0000
,
1001
0000
0000
0001
0100
0000
0010
0000
0100
0001
1000
0000
0100
0000
0100
0000
,
0210
0000
0301
0000
0120
1030
0010
0100
,
0110
0000
1001
0001
0100
1000
0001
0000
,
1000
0100
0001
0000
0101
0000
0110
0010
,
1000
0100
0010
0100
1000
0000
0001
0000
0100
0000
0100
0000
0010
0100
0010
0000
,
0210
0000
1300
0000
0120
0031
0010
0100
,
0110
0000
1001
0001
0010
1000
0001
0000
,
1000
0010
0001
0000
0011
0000
0110
0000
,
1001
0000
0000
1000
0010
0000
0100
0000
0010
1000
0001
0000
0010
0000
0010
0000
,
0120
0000
1030
0000
0210
0301
0100
0010
,
0110
0000
0000
0000
1001
0000
1000
0000
0010
0000
0100
0000
0100
0000
0001
1000
,
0100
0000
1000
0001
0100
0000
0010
1000
0200
0000
0000
0000
0000
0000
0000
0000
,
0320
0000
0000
0000
0032
0003
0000
0000
1000
0000
0010
0000
M010
0000
0001
0000
,
0011
0010
001M
1000
1010
0010
M010
0001
,
0011
0010
001M
1000
1010
0010
M010
0001
,
0011
0010
001M
1000
2010
0000
3001
1100
,
0000
0001
1010
1000
0001
0100
010M
1000
,
1100
0100
M100
0001
0101
0100
010M
1000
,
1100
0000
1000
0000
0100
0010
0001
1000
0001
0000
0010
0000
001M
0000
1000
0000
,
1010
0010
M010
0001
0011
0000
0110
0000
,
1001
1000
0100
0010
0001
0100
010M
1000
,
1010
0010
M010
0001
0101
0100
010M
1000
,
1010
0010
M010
0001
0101
0100
010M
1000
,
1010
0010
M010
0001
0012
0000
1003
0101
,
0000
1000
0011
0001
1000
0100
M100
0001
,
0011
0010
001M
1000
1100
0100
M100
0001
,
0011
0000
0001
0000
0100
0010
1000
0001
1000
0000
1000
0000
0010
0000
0010
0000
,
0100
0100
0001
0001
2002
0000
0000
0000
,
0000
3003
1100
1100
,
0110
0011
0101
0101
,
0110
1010
1100
1100
,
0110
0011
0101
0101
,
0110
0100
2000
3000
0110
0000
1010
0000
,
1100
0110
0110
0011
,
0101
0000
0110
0010
0210
0000
1300
0000
,
1100
0000
0120
0000
0031
0000
0011
0010
,
0100
0000
0001
1000
0100
0000
0100
0000
2200
0000
3300
0000
0000
0000
0000
0000
,
0000
0000
1000
0100
0020
0000
0000
0000
M031
0000
0100
0000
0000
0100
0000
0000
,
0001
0000
0010
0000
0000
001M
0000
0000
1000
0000
0010
0000
0000
0010
0000
0000
,
1000
0000
0001
0000
0000
0001
0000
0000
1000
0000
0100
0000
0000
0100
0000
0000
,
1000
0000
0000
0000
0010
0000
0000
0000
0000
0000
M010
0000
0000
0000
0001
1000
0100
0000
0000
0000
0100
0000
0000
0000
1000
0001
0100
0000
0000
0000
0010
0100
,
0010
0000
0010
0000
1000
0000
0100
0010
0100
0000
0100
0000
2000
0000
0000
0000
3001
0000
0100
0000
0010
0000
0100
0000
2000
0000
0000
0000
3200
0000
0000
0000
,
0301
0010
0100
0010
2000
0000
3020
0000
0031
0100
0010
1000
0200
0000
0000
0000
,
0302
0000
0000
0000
0203
0000
0000
0000
1300
0010
0100
0010
0002
0000
0023
0000
,
1030
0100
0010
0100
0002
0000
0203
0000
1300
0010
0100
0001
0020
0000
0000
0000
,
2030
0000
0000
0000
3020
0000
0000
0000
0031
0100
0010
0100
2000
0000
3002
0000
,
0013
1000
0100
0010
2000
0000
3002
0000
0103
1000
0100
1000
0020
0000
0000
0000
,
0032
0000
0000
0000
0023
0000
0000
0000
1030
0100
0010
0100
0002
0000
2003
0000
,
3010
0001
0100
0010
0002
0000
2003
0000
3100
0001
0100
0001
0020
0000
0000
0000
,
2030
0000
3020
0031
2001
0000
3010
0000
,
0210
0000
1300
0000
0210
0300
1200
0000
,
0001
0300
1200
0300
2001
0000
3100
0000
,
0120
0000
1030
0000
0120
0030
1020
0000
,
0001
0030
1010
0010
0001
0100
0010
1000
,
0001
0010
0100
1000
0001
0100
0110
0010
,
1000
0000
0100
0000
0110
0000
0010
0000
0001
0010
0100
1000
0001
0100
0010
1000
,
0001
0010
0100
1000
0001
0100
0010
1000
0001
0000
0000
0000
0110
0000
0000
0000
,
1001
0000
1000
0100
0010
0000
0100
0000
0001
0000
0000
0000
0201
0000
0000
0000
,
1000
0300
0201
0000
1300
0000
1010
0000
,
0110
0000
0101
0100
1000
0000
1200
0000
,
0001
0300
1200
0000
0301
0000
0011
0000
,
0110
0000
1100
0100
0001
0000
0201
0000
,
1000
0300
0201
0000
1300
0000
1010
0000
,
0110
0000
0101
0100
1000
0000
1100
0100
,
0001
0000
0011
0010
0220
0000
0000
0000
,
0330
0000
0000
0000
;
