#TITLE:Lavender Town;
#SUBTITLE:;
#ARTIST:Junichi Masuda ;
#TITLETRANSLIT:;
#SUBTITLETRANSLIT:;
#ARTISTTRANSLIT:;
#GENRE:;
#CREDIT:;
#MUSIC:Lavender Town.ogg;
#BANNER:Lavender Town.png;
#BACKGROUND:Lavender Town-bg.png;
#CDTITLE:;
#SAMPLESTART:1.900;
#SAMPLELENGTH:7.601;
#SELECTABLE:YES;
#OFFSET:0.000;
#BPMS:0.000=126.302
,88.500=63.151
,90.000=126.302
,103.000=63.151
,104.500=126.302
,117.500=63.151
,119.000=126.302
,124.000=63.151
,125.500=126.302
,130.500=63.151
,132.000=126.302
,159.000=1010.416
,163.000=126.302
;
#STOPS:83.000=0.238
,139.000=0.238
;
#DISPLAYBPM:63.151:126.302;
#BGCHANGES:;
#FGCHANGES:;

//--------------- dance-single - RaverAce ----------------
#NOTES:
     dance-single:
     RaverAce:
     Hard:
     14:
     0,0,0,0,0:
0000
0000
0000
0000
,
0000
0000
0000
0000
,
0000
0000
0000
0000
,
0000
0000
0000
0000
,
0000
0000
0000
0000
,
0001
0000
0001
0000
,
1000
0000
0000
0000
0000
0000
1000
0000
0000
0100
0000
0100
,
1000
0000
1000
0010
,
0001
1000
0100
0001
,
1000
0000
1000
0000
,
0001
0000
0000
0000
0000
0000
0001
0000
0000
0100
0000
0100
,
0001
0000
0001
0010
,
1000
0001
0100
1000
,
0001
0010
0001
1010
,
0001
0000
0000
1100
0000
0000
0001
0000
0000
1010
0000
0010
,
0100
0001
1000
0011
,
1000
0101
1000
0012
,
2003
3020
0032
0023
,
0230
0000
0000
0302
0000
0000
2003
0000
0000
3010
0000
1000
,
0002
0023
2030
3020
,
0230
0000
0000
0000
0000
0000
0000
0000
2300
0000
0000
0000
0000
0000
0000
0000
3002
0000
0000
0000
0000
0000
0000
0000
2000
3003
0000
0000
1001
0000
0000
0000
,
0000
0000
0000
1000
0000
0000
0000
1000
0000
0100
0000
0010
0000
0001
0000
1000
0000
0000
0000
0000
0000
1001
0000
0000
,
0000
0000
0000
0001
0000
0001
1000
0010
0100
0001
0000
0000
1001
0000
0000
0000
0000
0000
1000
0000
0000
0000
1000
0000
,
0001
0100
0010
1000
0000
0000
1001
0000
0000
0001
0000
0001
,
1000
0100
0010
0001
0000
0000
0101
0000
0000
0100
0001
0010
,
0100
0000
0000
0000
0100
0000
1000
0000
0000
0000
0000
0000
1100
0000
0000
0000
0000
0000
0100
1000
0010
0100
0000
0100
,
0001
0000
0000
0011
0000
0000
0000
0000
0000
0001
0000
0100
0000
0010
0000
1000
0000
0000
0000
1000
0000
0001
0000
0000
,
0000
0000
0000
1010
0000
0000
0000
0000
0000
1000
0000
0100
0000
0010
0000
0001
0000
0000
0000
0001
0000
0100
0000
0000
,
0000
0001
0000
1000
0000
0000
0000
0000
0000
0001
0000
0010
0000
0100
0000
1000
0000
0010
0000
1000
0000
0001
0000
0000
,
0000
0000
0000
1001
0000
0000
0000
0000
0000
1000
0010
0100
0001
0010
0001
1000
0000
0000
1010
0000
0000
0000
0000
0000
,
1000
0001
0010
1000
0010
0100
1000
0000
0000
0011
0000
0000
,
0001
1000
0010
0001
0010
0100
0001
0000
0000
1001
0000
0000
0000
0000
0000
1000
0000
0100
0000
0001
0000
0100
0000
0010
,
0000
0001
0000
0100
0000
0010
0000
0000
0000
1001
0000
0000
0000
0000
0000
0001
0100
1000
0100
0010
1000
0100
0010
0000
,
1001
0000
0000
1000
0010
0001
0010
0100
0001
0010
0100
0001
,
0200
0000
0000
0000
0000
0000
0000
0000
0000
0000
0000
0000
0000
0000
0000
0000
0000
0000
0000
0000
0000
0000
0000
0000
1300
0000
0000
0000
0000
0000
0000
0000
0001
0000
0000
0000
0000
0000
0000
0000
0100
0000
0000
0000
0000
0000
0000
0000
1000
0000
0000
0000
0000
0000
0000
0000
0100
0000
0000
0000
0000
0000
0000
0000
0002
0000
0000
0000
0000
0000
0000
0000
2000
0000
0000
3003
0000
0000
0000
0000
0000
0000
0000
0000
1001
0000
0000
0000
0000
0000
0000
0000
0000
0000
0000
0000
,
0001
0000
0000
0000
0000
0000
0010
0000
0000
0000
0000
0000
0100
0000
0000
1000
0000
0000
0010
0000
0000
0000
0000
0000
0100
0000
0000
0000
0000
0000
0001
0000
1000
0000
0001
0000
1000
0000
0001
0000
1000
0000
0001
0000
0000
0000
0000
0000
,
0010
0100
1000
0001
0001
0100
0100
0001
,
0010
0000
1000
0000
0001
0000
0100
1000
0010
0100
0001
0000
1000
0000
1000
0000
,
0001
0000
0000
0000
0000
0000
0100
0000
0000
0000
0000
0000
1000
0000
0000
0100
0000
0000
0010
0000
0000
0000
0000
0000
0010
0000
0000
0000
0000
0000
1000
0000
0001
0000
1000
0000
0001
0000
0000
0000
0000
0000
1000
0000
0100
0000
1000
0000
,
0100
0000
0000
0000
0000
0000
0000
0000
0000
0000
0000
0000
0000
0000
0000
0000
0000
0000
0000
0000
0000
0000
0000
0000
0001
0000
0000
0000
0000
0000
0000
0000
0000
0000
0000
0000
0000
0000
0000
0000
0000
0000
0000
0000
0000
0000
0000
0000
0100
0000
0000
0000
0000
0000
0000
0000
0000
0000
0000
0000
0000
0000
0000
0000
0000
0000
0000
0000
0000
0000
0000
0000
0010
0000
0000
0000
0000
0000
0000
0000
0000
0000
0000
0000
0000
0000
0000
0000
0000
0000
0000
0000
0000
0000
0000
0000
0001
0000
0000
0000
0000
0000
0000
0000
0000
0000
0000
0000
0000
0000
0000
0000
0000
0000
0000
0000
0000
0000
0000
0000
1000
0000
0000
0000
0000
0000
0000
0000
0000
0000
0000
0000
0000
0000
0000
0000
0000
0000
0000
0000
0000
0000
0000
0000
MMMM
MMMM
MMMM
MMMM
MMMM
MMMM
MMMM
MMMM
MMMM
MMMM
MMMM
MMMM
MMMM
MMMM
MMMM
MMMM
MMMM
MMMM
MMMM
MMMM
MMMM
MMMM
MMMM
MMMM
MMMM
MMMM
MMMM
MMMM
MMMM
MMMM
MMMM
MMMM
MMMM
MMMM
MMMM
MMMM
MMMM
MMMM
MMMM
MMMM
MMMM
MMMM
MMMM
MMMM
MMMM
MMMM
MMMM
MMMM
,
MMMM
MMMM
MMMM
MMMM
MMMM
MMMM
MMMM
MMMM
MMMM
MMMM
MMMM
MMMM
MMMM
MMMM
MMMM
MMMM
MMMM
MMMM
MMMM
MMMM
MMMM
MMMM
MMMM
MMMM
MMMM
MMMM
MMMM
MMMM
MMMM
MMMM
MMMM
MMMM
MMMM
MMMM
MMMM
MMMM
MMMM
MMMM
MMMM
MMMM
MMMM
MMMM
MMMM
MMMM
MMMM
MMMM
MMMM
MMMM
MMMM
MMMM
MMMM
MMMM
MMMM
MMMM
MMMM
MMMM
MMMM
MMMM
MMMM
MMMM
MMMM
MMMM
MMMM
MMMM
MMMM
MMMM
MMMM
MMMM
MMMM
MMMM
MMMM
MMMM
MMMM
MMMM
MMMM
MMMM
MMMM
MMMM
MMMM
MMMM
MMMM
MMMM
MMMM
MMMM
MMMM
MMMM
MMMM
MMMM
MMMM
MMMM
MMMM
MMMM
MMMM
MMMM
MMMM
MMMM
MMMM
MMMM
MMMM
MMMM
MMMM
MMMM
MMMM
MMMM
MMMM
MMMM
MMMM
MMMM
MMMM
MMMM
MMMM
MMMM
MMMM
MMMM
MMMM
MMMM
MMMM
MMMM
MMMM
MMMM
MMMM
MMMM
MMMM
MMMM
MMMM
MMMM
MMMM
MMMM
MMMM
MMMM
MMMM
MMMM
MMMM
MMMM
MMMM
MMMM
MMMM
MMMM
MMMM
MMMM
MMMM
MMMM
MMMM
MMMM
MMMM
0000
0000
0000
0000
0000
0000
0000
0000
0000
0000
0000
0000
0000
0000
0000
0000
0000
0000
0000
0000
0000
0000
0000
0000
0000
0000
0000
0000
0000
0000
0000
0000
0000
0000
0000
0000
0000
0000
0000
0000
0000
0000
0000
0000
0000
0000
0000
,
0001
0000
0100
0001
0010
0000
0100
1000
0010
0000
0100
0000
0100
0000
0001
0000
,
0010
0000
0000
0100
0000
0000
1000
0000
0000
0001
0000
0000
0100
0001
0100
0001
0000
0000
1000
0000
0000
0100
0000
0000
,
0001
0000
0000
0100
0000
0000
2000
0000
0000
0002
0000
0000
0000
0000
0000
0000
0000
0000
3003
0000
0000
0000
1001
0000
;
