#TITLE:It's a B Movie;
#SUBTITLE:;
#ARTIST:David Newman & Van Dyke Parks;
#TITLETRANSLIT:;
#SUBTITLETRANSLIT:;
#ARTISTTRANSLIT:;
#GENRE:;
#CREDIT:;
#BANNER:Its a B Movie.png;
#BACKGROUND:Its a B Movie-bg.png;
#LYRICSPATH:Its a B Movie.lrc;
#CDTITLE:;
#MUSIC:Its A B Movie.ogg;
#OFFSET:-0.120000;
#SAMPLESTART:92.013000;
#SAMPLELENGTH:15.988000;
#LASTBEATHINT:256.108276;
#SELECTABLE:YES;
#BPMS:0.000000=119.344002
,8.000000=120.723999
,16.000000=121.951004
,24.000000=120.089996
,32.000000=118.694000
,40.000000=121.364990
,48.000000=120.754997
,56.000000=119.790001
,64.000000=117.848999
,72.000000=122.918999
,80.000000=118.988998
,88.000000=120.511993
,96.000000=119.731003
,104.000000=119.879997
,112.000000=119.670998
,120.000000=121.211998
,128.000000=119.611000
,136.000000=119.849998
,144.000000=121.058990
,152.000000=118.139000
,160.000000=120.723999
,168.000000=118.343002
,176.000000=124.288002
,184.000000=118.255997
,192.000000=119.552002
,200.000000=120.511993
,208.000000=120.240997
,216.000000=120.059998
,224.000000=121.028992
,232.000000=119.373001
,240.000000=120.029999
,248.000000=119.849998
;
#STOPS:
;
#BGCHANGES:-0.192=Its a B Movie.avi=1.000=0=0=1=====,
256.000=Its a B Movie-bg.png=1.000=0=0=1=====,
99999=-nosongbg-=1.000=0=0=0 // don't automatically add -songbackground-
;
#KEYSOUNDS:;
#ATTACKS:;

//---------------dance-single - ----------------
#NOTES:
     dance-single:
     :
     Hard:
     11:
     0.306889,0.407189,0.089821,0.284433,0.130989,287.000000,275.000000,12.000000,38.000000,0.000000,0.000000,0.306889,0.407189,0.089821,0.284433,0.130989,287.000000,275.000000,12.000000,38.000000,0.000000,0.000000:
// measure 0
0000
0000
0000
0000
,  // measure 1
0000
0000
0000
0000
,  // measure 2
0000
0000
0000
0000
,  // measure 3
0000
0000
0000
0000
,  // measure 4
0000
0000
0000
0000
,  // measure 5
0000
0000
0000
0000
,  // measure 6
0001
0000
0010
0100
0000
0000
0000
1000
,  // measure 7
0100
0000
0010
0000
0001
0000
0010
0001
0000
0000
0000
0000
0000
0000
0000
0000
,  // measure 8
0001
0100
0001
0100
0010
1000
0010
0000
,  // measure 9
2000
3200
0320
0032
,  // measure 10
0003
1000
0000
1000
0001
0000
0000
0100
,  // measure 11
0001
0000
0100
0000
0010
0000
1000
0010
0000
0000
0000
0000
0000
0000
0000
0000
,  // measure 12
1000
0000
0100
0000
0010
0000
0100
1000
0000
0000
0000
0000
0000
0000
0000
0000
,  // measure 13
0001
0000
0100
0000
0010
0000
0100
0001
0000
0000
0000
0000
0100
0000
0100
0000
,  // measure 14
0010
0000
1000
0001
0000
0000
0000
0001
,  // measure 15
0010
0000
0010
0000
0010
0000
0001
1000
0000
0000
0000
0000
0000
0000
0000
0000
,  // measure 16
1000
1000
0100
0100
1000
0000
0001
0000
,  // measure 17
0200
0320
2030
3002
,  // measure 18
0003
0010
0000
0010
0001
0000
0000
0010
,  // measure 19
0001
0000
0100
0000
0010
0000
0100
0001
0000
0000
0000
0000
0000
0000
0000
0000
,  // measure 20
0100
0000
0001
0000
0100
0000
0100
0010
0000
0000
0000
0000
0000
0000
0000
0000
,  // measure 21
1000
0000
0100
0000
1000
0000
0100
0010
0000
0000
0000
0000
0001
0000
0000
0000
,  // measure 22
0002
0000
0100
0000
1000
0000
0013
0100
,  // measure 23
1000
0000
0000
1100
0000
0000
1001
0000
0000
0000
1000
0000
0001
0000
0100
0000
,  // measure 24
0001
0000
0000
0101
0000
0000
1001
0000
0000
0000
0001
0000
1000
0000
0100
0000
,  // measure 25
2000
0010
0001
3100
,  // measure 26
1000
0000
0200
0000
0010
0000
0310
0010
,  // measure 27
0001
0000
0000
1000
0000
0000
0100
0000
0000
0000
0100
0000
1000
0000
1000
0000
,  // measure 28
0001
0000
0000
0101
0000
0000
1001
0000
0000
0000
1000
0000
0001
0000
0100
0000
,  // measure 29
0002
0010
1000
0103
,  // measure 30
0001
0000
0000
1000
0000
0000
0000
1000
,  // measure 31
0010
0000
0000
0000
0010
0000
0000
0100
0000
0000
0000
0000
0000
0000
0100
0000
,  // measure 32
0001
0001
0001
0000
0010
0010
0010
0000
,  // measure 33
0002
0000
0023
0000
0130
1000
0010
0100
,  // measure 34
0001
0100
0000
0001
1000
0000
0001
0000
,  // measure 35
0010
0000
0100
0000
1000
0000
0100
0001
0000
0000
0100
0000
1000
0000
0000
0000
,  // measure 36
0010
0000
1000
0000
0100
0000
1000
0010
0000
0000
1000
0000
0001
0000
0000
0000
,  // measure 37
0010
0000
0001
0100
0000
0000
0001
0000
0010
0000
0000
0000
0001
0000
0000
0000
,  // measure 38
0001
0000
0100
0000
0010
0000
2000
0000
0000
3000
0000
0000
,  // measure 39
1000
0000
0010
0000
0100
0000
0002
0000
0000
0003
0000
0000
,  // measure 40
1000
0000
0010
0000
0100
0000
0001
0000
0010
0000
0100
0000
,  // measure 41
2000
0002
0000
3003
,  // measure 42
0001
0000
0100
0000
0010
0000
0100
0000
0000
0000
0000
0000
,  // measure 43
0010
0000
1000
0000
0100
0000
1000
0000
0000
0000
0000
0000
,  // measure 44
1000
0000
0100
0000
0010
0000
0100
0000
0010
0000
0001
0000
,  // measure 45
0010
0000
0000
0000
0001
0000
0000
0000
0100
0000
0000
0000
1000
0000
0000
0100
0000
0000
0001
0000
0000
1000
0000
0000
,  // measure 46
0002
0000
2003
0000
3100
0010
0001
0000
,  // measure 47
2000
0000
3100
0010
0001
0100
1000
0100
,  // measure 48
0001
0100
0010
1000
0000
0001
0100
0010
,  // measure 49
1000
0000
0000
0000
0100
0000
1000
0000
0100
0000
0100
0000
1000
0000
0100
1000
,  // measure 50
0100
0000
0012
0000
0103
0010
1000
0000
,  // measure 51
0001
0100
0010
1000
0100
0001
0100
1000
,  // measure 52
0010
0100
0001
2000
0000
3002
0000
1003
,  // measure 53
0010
0100
0001
0000
0010
0100
1000
0000
,  // measure 54
2000
0000
0000
0200
0000
0000
3000
0000
,  // measure 55
0020
0000
0300
0002
0000
0000
0030
0000
,  // measure 56
2000
0000
0003
0020
0000
0000
3000
0000
,  // measure 57
0200
0000
0030
0002
0000
0000
0300
0000
,  // measure 58
2000
0000
0003
0200
0000
0000
3000
0000
,  // measure 59
0002
0000
0300
0020
0000
0000
0003
0000
,  // measure 60
1030
0000
1100
0000
,  // measure 61
0001
0000
0101
0000
,  // measure 62
1000
0000
1010
0000
,  // measure 63
2002
0000
0000
3003
,  // measure 64
0110
0000
0000
0000
;

//---------------dance-single - ----------------
#NOTES:
     dance-single:
     :
     Medium:
     8:
     0.269463,0.359284,0.149702,0.404195,0.014970,252.000000,232.000000,20.000000,54.000000,0.000000,0.000000,0.269463,0.359284,0.149702,0.404195,0.014970,252.000000,232.000000,20.000000,54.000000,0.000000,0.000000:
0000
0000
0000
0000
,
0000
0000
0000
0000
,
0000
0000
0000
0000
,
0000
0000
0000
0000
,
0000
0000
0000
0000
,
0000
0000
0000
0000
,
1001
0000
0000
0110
0000
0000
0000
1000
,
0001
1000
0100
1000
0001
0000
0000
0000
,
0001
0100
0001
0000
0100
0001
0100
0000
,
0020
2030
3200
2300
,
3000
1001
0000
0000
0110
0000
0000
0001
,
0100
0001
1000
0001
0100
0000
0000
0000
,
0001
0100
0001
0100
0010
0000
0000
0000
,
1000
0100
1000
0100
0010
0000
0000
0000
,
0110
0000
0000
1001
0000
0000
0000
0001
,
0010
0001
1000
0001
0010
0000
0000
0000
,
0100
1000
0100
0000
0010
0001
0010
0000
,
0002
0023
0032
0203
,
0300
0101
0000
0000
1010
0000
0000
0010
,
1000
0010
0100
0010
1000
0000
0000
0000
,
1000
0100
0010
0000
0100
0010
0001
0000
,
1000
0100
0010
0000
0010
0001
0100
0001
,
0200
0000
0301
1000
,
0100
0000
0000
0010
0000
0000
0110
0000
0000
0000
0000
0000
0010
0000
0001
0000
,
0100
0000
0000
0010
0000
0000
0110
0000
0000
0000
0000
0000
1001
0000
0000
0000
,
2000
3002
2003
3002
,
1003
0200
0000
1300
,
0001
0000
0000
0100
0000
0000
0101
0000
0000
0000
0000
0000
0001
0000
0000
0000
,
1000
0000
0000
0100
0000
0000
1100
0000
0000
0000
0000
0000
1000
0000
0000
0000
,
0002
2003
3200
2300
,
3001
0000
0000
0100
0000
0000
0000
0000
,
0001
0010
0100
0010
0001
0000
0000
0000
,
0001
0100
0001
0000
1000
0010
1000
0000
,
0200
0000
2300
0000
3010
0100
0010
0000
,
0000
0110
0000
0000
1001
0000
0001
0001
,
0010
0100
1000
0100
0010
0000
0000
0000
,
0001
0100
0010
1000
0020
0000
0030
0000
,
1000
0100
0010
0001
0020
0000
0030
0000
,
0002
0000
2003
0000
,
3020
0000
0230
0000
,
0320
0000
2030
0000
,
3002
0000
0000
0003
,
0002
0000
0023
0000
,
0230
2300
3200
0300
,
0010
0001
0100
0001
,
1000
0000
0010
0000
0100
0001
1000
0001
,
1000
0000
0010
0000
1000
0010
1000
0000
,
0100
0010
0001
0010
0001
0010
0001
0000
,
0010
0100
1000
0100
1000
0100
1000
0000
,
0200
0320
0230
0320
,
0031
0000
0100
0000
0001
0100
0001
0000
,
0100
0010
1000
0010
1000
0010
1000
0000
,
0100
0010
0001
0010
0001
0010
0001
0000
,
2000
0000
3002
0000
1003
0100
1000
0000
,
0200
0000
0320
0000
,
0230
0000
0320
0000
,
0032
0000
2003
0000
,
3002
0000
2003
0000
,
3020
0000
0230
0000
,
0320
0000
0230
0000
,
0301
0000
1001
0000
,
0110
0000
1001
0000
,
0010
0000
0110
0000
,
2002
0000
0000
3003
,
0100
0000
0000
0000
;

//---------------dance-single - ----------------
#NOTES:
     dance-single:
     :
     Easy:
     6:
     0.175365,0.239523,0.097306,0.321859,0.000000,164.000000,151.000000,13.000000,43.000000,0.000000,0.000000,0.175365,0.239523,0.097306,0.321859,0.000000,164.000000,151.000000,13.000000,43.000000,0.000000,0.000000:
0000
0000
0000
0000
,
0000
0000
0000
0000
,
0000
0000
0000
0000
,
0000
0000
0000
0000
,
0000
0000
0000
0000
,
0000
0000
0000
0000
,
1001
0000
1001
0000
,
0001
0100
0001
0000
,
1000
0100
0010
0001
,
0020
0000
0230
0000
,
1300
1000
0100
0000
,
1000
0001
0100
0000
,
0001
0001
0100
0000
,
0001
1000
0100
0000
,
0110
0000
1001
0000
,
1000
0010
0100
0000
,
0001
0001
0010
0010
,
0200
0000
2300
0000
,
3010
0000
0101
0000
,
0100
0010
0100
0000
,
0010
1000
0100
0100
,
0010
0001
0100
0100
,
0202
0000
0303
0001
,
0200
0000
0000
0310
0000
0000
1000
0000
,
0200
0000
0000
0310
0000
0000
1001
0000
,
0002
2003
3002
2003
,
3000
0200
0000
0310
,
0001
0000
0000
0100
0000
0000
0010
0000
,
1000
0000
0000
0100
0000
0000
1000
0000
,
0020
0230
0320
0230
,
0301
0000
1000
0000
,
0100
1000
0001
0000
,
0100
0010
1000
0010
,
1000
0100
2000
3200
,
0310
0000
0001
0000
,
0001
1000
0010
0000
,
0100
0001
1000
0000
,
0100
1000
0001
0000
,
2002
0000
0000
3003
,
0220
0000
0000
0330
,
2002
3003
0220
0330
,
2002
0000
0000
3003
,
0002
0000
0023
0000
,
0230
2300
3200
0300
,
1000
1000
0001
0001
,
0100
0010
0100
0010
,
1000
0020
0030
0100
,
0001
0001
0001
0000
,
1000
1000
1000
0100
,
0010
0000
0100
0000
,
1000
0002
0003
0100
,
0010
0010
0010
0000
,
0100
0100
0100
0001
,
1000
0000
0001
0000
,
2000
0000
0000
0000
,
3020
0000
0000
0000
,
0230
0000
0000
0000
,
0302
0000
0000
0000
,
0023
0000
0000
0000
,
0230
0000
0000
0000
,
1300
0000
0100
0000
,
0010
0000
0001
0000
,
0010
0000
0100
0000
,
2000
0000
0000
3000
,
1001
0000
0000
0000
;
