#VERSION:0.83;
#TITLE:Into The Madness;
#SUBTITLE:;
#ARTIST:Yuta Imai;
#TITLETRANSLIT:;
#SUBTITLETRANSLIT:;
#ARTISTTRANSLIT:;
#GENRE:;
#CREDIT:chrononical;
#MUSIC:Into The Madness.ogg;
#BANNER:Into The Madness.png;
#BACKGROUND:Into The Madness-bg.png;
#CDTITLE:;
#SAMPLESTART:89.806;
#SAMPLELENGTH:15.000;
#SELECTABLE:YES;
#OFFSET:0.000;
#DISPLAYBPM:155;
#BPMS:0.000=155.000
,235.000=310.000
,236.000=155.000
;
#STOPS:235.000=0.195;
#WARPS:150.000=4.000;
#BGCHANGES:;
#FGCHANGES:;

//--------------- dance-single - chrononical ----------------
#NOTEDATA:;
#STEPSTYPE:dance-single;
#DESCRIPTION:chrononical;
#DIFFICULTY:Beginner;
#METER:4;
#RADARVALUES:0,0,0,0,0;
#NOTES:
0000
0000
0000
0000
,
0000
0000
0000
0000
,
0000
0000
0000
0000
,
0000
0000
0000
0000
,
0000
0000
0000
0000
,
0000
0000
0000
0000
,
1000
0000
0010
0000
,
0100
0100
0001
0001
,
2000
0000
0000
0000
,
3001
0000
0010
0000
,
1001
0000
1000
0000
,
0010
0010
0010
0000
,
1000
0000
0100
0000
,
0010
0010
0010
0001
,
2000
0000
3020
0000
,
0230
0000
0302
0000
,
2003
3200
0320
0032
,
2003
0000
0000
3001
,
1000
0000
0010
0000
,
0100
0000
0001
1000
,
0001
0000
0010
0000
,
0100
0000
1000
0000
,
1001
0000
0100
0000
,
1001
0000
0010
0000
,
1001
0000
1001
0000
,
1002
0000
0000
1003
,
0001
0010
0100
0000
,
1000
0010
0100
0100
,
0001
0010
0100
0000
,
1000
1000
1000
0002
,
1003
0010
0100
0000
,
0001
0010
0100
0100
,
2000
0000
3002
0000
,
2003
0000
3001
0001
,
2000
0000
0000
0000
,
3200
0000
0000
0000
,
0320
0000
0000
0000
,
0032
0000
2003
0000
,
0000
0000
0000
0000
,
3002
0000
0000
0000
,
0203
0000
0000
0000
,
0320
0000
0000
0000
,
2030
0000
0000
3000
,
0001
0000
0000
0000
,
0010
0000
0000
0000
,
0100
0000
0000
0000
,
1000
0000
0001
0000
,
1000
0000
0010
0000
,
0100
0000
0001
0000
,
1000
0000
0001
1000
,
0010
0000
1000
0100
,
1000
0000
0010
0000
,
0100
0100
0100
0000
,
0001
0000
0010
0000
,
0100
0100
1000
1000
,
0001
0000
0010
0000
,
0001
0000
0100
0000
,
0010
0010
1000
1000
,
0002
0000
0000
0003
,
1000
0100
0010
0000
,
0010
0100
1000
0000
,
0001
0100
0010
0000
,
0010
0100
0001
0000
,
1000
0010
0100
0000
,
0100
0010
1000
0000
,
1001
0000
0110
0000
,
1001
0000
0001
0100
,
0010
1000
0000
1000
,
0000
1000
0002
0003
,
1001
0000
0110
0000
,
1001
0000
0110
0000
,
0001
0100
0010
0000
,
0010
0100
0001
0000
,
0001
0010
0010
0100
,
0100
1000
0001
0000
,
1001
0000
0000
0000
;

//--------------- dance-single - chrononical ----------------
#NOTEDATA:;
#STEPSTYPE:dance-single;
#DESCRIPTION:chrononical;
#DIFFICULTY:Easy;
#METER:8;
#RADARVALUES:0,0,0,0,0;
#NOTES:
0000
0000
0000
0000
,
0000
0000
0000
0000
,
0000
0000
0000
0000
,
0000
0000
0000
0000
,
0000
0000
0000
0000
,
0000
0000
0000
0000
,
1000
0001
1000
0100
,
1000
0110
0001
0110
,
2002
0000
0000
3003
,
0001
0100
0010
2000
,
3001
0001
0010
0010
,
1000
0010
0001
1000
,
0001
0001
0100
0100
,
1000
0100
0001
2001
,
3001
0010
0100
0010
,
0001
0100
0010
0100
,
0001
1000
0100
0010
,
0002
0000
0003
1002
,
1003
1000
0010
0010
,
0001
0010
1000
0001
,
1000
1000
0100
0100
,
0001
0100
1000
0001
,
1001
0100
0010
0100
,
1001
0010
0100
0010
,
1001
0100
1001
0010
,
1001
1000
0200
0310
,
1002
0013
1002
0103
,
1000
0100
0001
1000
,
1002
0103
1002
0013
,
0001
0011
0010
0110
,
2001
3100
2001
3010
,
0001
0010
1000
0001
,
1000
1100
0100
0120
,
1030
0010
0002
2003
,
3002
0000
0000
0000
,
0203
0000
0000
0000
,
0320
0000
0000
0000
,
2030
0000
3002
0000
,
0000
0000
0000
0000
,
2003
0000
0000
0000
,
3200
0000
0000
0000
,
0320
0000
0000
0000
,
0032
0000
0000
0003
,
1000
0000
0010
0000
,
0100
0100
0100
0000
,
0001
0000
0010
0000
,
0100
0000
0000
0100
0000
0100
0000
0000
0100
0000
0000
0100
,
1000
1100
1000
0001
,
0001
0101
0001
1000
,
1000
0100
0010
0001
,
0200
0000
1000
0010
,
0301
0010
0010
0000
,
0001
0100
0100
0000
,
0001
1000
1000
0000
,
0001
0100
0010
1000
,
0001
1000
0001
0001
,
1000
0001
1000
0010
,
1000
0110
0001
0110
,
2001
0000
0000
0000
0000
0000
0000
0000
0000
3002
0003
0000
,
1000
0100
0110
0011
,
0001
0100
0110
1010
,
1000
0001
0011
1001
,
1000
0000
0000
0010
0000
0200
0000
0000
0000
1000
0000
0000
,
0301
0010
0110
1100
,
1000
0010
0110
0101
,
0001
0110
1000
0110
,
1001
0001
0100
0010
,
2000
0001
0000
0001
,
0000
0001
0002
3003
,
1001
1100
1001
0101
,
2001
0000
0000
3100
0000
0020
0000
0000
0000
1000
0000
0000
,
0032
0103
0010
2000
,
3100
0010
1001
0010
,
1001
0100
0110
0010
,
2001
3100
0010
0001
,
1001
0000
0000
0000
;

//--------------- dance-single - chrononical ----------------
#NOTEDATA:;
#STEPSTYPE:dance-single;
#DESCRIPTION:chrononical;
#DIFFICULTY:Medium;
#METER:12;
#RADARVALUES:0,0,0,0,0;
#NOTES:
0000
0000
0000
0000
,
0000
0000
0000
0000
,
0000
0000
0000
0000
,
0000
0000
0000
0000
,
0000
0000
0000
0000
,
0000
0000
0000
0000
,
1000
0010
0100
0001
0000
0000
1000
0100
0010
0001
0000
0000
,
1000
0010
0000
0010
0001
0000
0001
0010
0000
0010
1000
0000
,
2000
0000
0000
0000
,
3001
0000
0001
0010
0000
0010
0200
0000
0000
2300
0000
0000
,
3001
0000
0000
0001
0000
0000
0100
0000
0000
0100
0010
1000
,
0002
0203
2300
3200
,
0301
0000
0000
0001
0000
0000
0010
0000
0000
0010
0100
1000
,
0002
0023
1030
1020
,
0031
0102
1003
2100
,
3001
0012
1003
2010
,
3001
0000
0100
0010
0000
1000
0001
0000
0010
0100
0000
1000
,
0001
0000
0001
0100
0000
0100
0020
0000
0000
2030
0000
0000
,
3002
0000
0013
0100
0000
0100
1000
0000
1000
0002
0000
0000
,
2003
0000
3010
0100
0000
0100
1000
0000
1000
0200
0000
0000
,
0302
0000
0013
0100
0000
0100
1000
0000
1000
0002
0000
0000
,
1003
0010
0100
0001
0000
0001
1000
0100
0010
0001
0000
0000
,
1002
0000
0000
0103
0010
1000
0001
0000
0000
0010
0000
0000
,
2001
0000
0000
3100
0010
0001
1000
0000
0000
0010
0000
0000
,
1001
0010
1001
0010
,
1002
0000
0013
0100
0000
0100
2000
0000
0000
3002
0000
0000
,
1003
0010
0100
0010
0000
0000
1000
0100
0010
0100
0000
0000
,
1100
0110
0011
2001
,
3001
0000
0100
0010
0000
0100
0001
0000
1000
0001
0000
0000
,
1001
0011
1001
2010
,
3001
0100
0010
0100
0000
0000
0001
0010
0100
0010
0000
0000
,
0011
0110
1100
1002
,
1003
0010
0100
0001
0000
0000
1000
0100
0010
0001
0000
0000
,
1000
0000
0010
0100
0000
0001
2000
0000
0000
3200
0000
0000
,
1300
0000
0000
0000
0010
0000
0100
0000
0000
0000
0001
0000
,
1000
0000
0000
0000
0100
0000
0010
0000
0000
0000
0010
0000
,
1000
0000
0000
0000
0010
0000
0001
0000
0000
0000
0100
0000
,
0010
0000
0000
0000
0010
0000
2000
0000
0000
0000
0000
0000
,
0000
0000
0000
0000
,
3001
0000
0000
0000
0010
0000
0100
0000
0000
0000
1000
0000
,
0001
0000
0000
0000
0100
0000
0010
0000
0000
0000
0010
0000
,
0001
0000
0000
0000
0010
0000
1000
0000
0000
0000
0001
0000
,
0020
0000
0000
0030
,
0001
0001
0010
0010
,
0100
0000
0000
0100
0000
0000
1000
0000
0000
1000
0000
0001
,
1000
0010
0010
0100
,
0100
0000
0000
0001
0000
2000
3001
0000
0200
0301
0000
0020
,
0031
0201
0310
2100
,
3001
0021
0130
2010
,
3001
0010
0100
0010
0000
0000
0001
0100
0010
0100
0000
0000
,
0210
0000
1000
0010
,
0301
0010
0100
1000
,
0001
0000
0000
0100
0000
0000
0010
0000
0000
1000
0000
1000
,
0001
0010
0100
1000
,
0001
0000
0000
0100
0000
0000
0010
0000
0000
0010
0000
1000
,
0001
0000
0001
0010
0000
0010
0100
0000
0100
1000
0000
1000
,
0001
0100
0010
1000
0000
0000
0001
0010
0100
1000
0000
0000
,
0001
0100
0000
0100
1000
0000
1000
0100
0000
0100
0001
0000
,
0001
0000
0100
0010
1000
0001
1000
0000
0000
2100
0000
0000
,
3001
0101
0001
1010
,
1000
1100
1000
0012
,
1003
1010
1000
0011
,
1001
0101
1020
0001
,
1030
0011
1000
0101
,
1000
0011
1000
0101
,
1002
0103
2001
3100
,
1001
0000
1000
0010
0000
0010
0100
0001
1000
0002
0000
0000
,
2003
0001
0000
0001
,
0000
0000
0000
0001
0000
0000
3002
0000
0000
0103
0010
1000
,
0001
0011
1100
1001
,
1001
1010
0201
1000
,
0301
0100
0010
1000
0000
0000
1100
0000
0000
1000
0100
0010
,
0001
0000
0000
0101
0000
0100
0010
0000
0010
1000
0001
1000
,
0100
0000
0100
0010
0001
1000
0010
0000
0010
1000
0000
0000
,
1200
0001
0310
1001
,
0101
0000
0000
0000
;

//--------------- dance-single - chrononical ----------------
#NOTEDATA:;
#STEPSTYPE:dance-single;
#DESCRIPTION:chrononical;
#DIFFICULTY:Hard;
#METER:16;
#RADARVALUES:0,0,0,0,0;
#BPMS:0.000=155.000
,111.000=310.000
,112.000=155.000
,115.000=310.000
,119.000=155.000
,127.000=310.000
,128.000=155.000
,185.667=310.000
,186.000=155.000
,186.667=310.000
,187.000=155.000
,187.667=310.000
,188.000=155.000
,235.000=310.000
,236.000=155.000
,243.000=310.000
,244.000=155.000
,248.000=310.000
,250.000=155.000
,264.000=310.000
,268.000=155.000
,274.000=310.000
,276.000=155.000
,280.000=310.000
,282.000=155.000
,284.000=310.000
,285.000=155.000
,287.000=310.000
,288.000=155.000
,289.000=310.000
,297.000=155.000
,299.000=310.000
,300.000=155.000
;
#STOPS:111.000=0.065
,111.333=0.064
,111.667=0.065
,115.000=0.129
,115.667=0.033
,115.833=0.032
,116.000=0.129
,116.667=0.065
,117.000=0.129
,117.667=0.064
,118.000=0.194
,127.000=0.129
,127.667=0.064
,185.667=0.064
,186.667=0.064
,187.667=0.065
,235.000=0.195
,243.000=0.065
,243.333=0.064
,243.667=0.065
,248.000=0.194
,249.000=0.129
,249.667=0.064
,264.000=0.129
,264.667=0.064
,265.000=0.129
,265.667=0.032
,265.833=0.032
,266.000=0.065
,266.333=0.064
,266.667=0.065
,267.000=0.194
,274.000=0.032
,274.167=0.033
,274.333=0.064
,274.667=0.032
,274.833=0.033
,275.000=0.064
,275.333=0.064
,275.667=0.064
,280.000=0.194
,281.000=0.129
,281.667=0.064
,284.000=0.065
,284.333=0.064
,284.667=0.065
,287.000=0.065
,287.333=0.064
,287.667=0.065
,289.000=0.129
,289.667=0.064
,290.000=0.129
,290.667=0.033
,290.833=0.032
,291.000=0.064
,291.333=0.065
,291.667=0.064
,292.000=0.129
,292.667=0.064
,293.000=0.065
,293.333=0.064
,293.667=0.065
,294.000=0.129
,294.667=0.032
,294.833=0.032
,295.000=0.194
,296.000=0.194
,299.000=0.194
;
#WARPS:150.000=4.000;
#NOTES:
0000
0000
0000
0000
,
0000
0000
0000
0000
,
0000
0000
0000
0000
,
0000
0000
0000
0000
,
0000
0000
0000
0000
,
0000
0000
0000
0000
,
1000
0010
0100
0001
1000
0001
1000
0100
0010
0001
1000
0001
,
0100
0010
1000
0000
0001
0000
0100
0010
1000
0000
0001
0000
0010
0100
1000
0000
0001
0000
0010
0100
1000
0000
0100
0000
,
0020
0000
0000
0000
,
0031
0000
0001
1000
0000
1000
0010
0000
0000
0210
0000
0000
,
0301
1000
0100
1000
0001
0100
0001
1000
0010
1000
0001
0010
,
0100
0000
0000
0000
0010
0100
0010
0000
0000
0000
0100
1000
0100
0000
0000
0000
1000
0000
0200
0000
0000
0000
0000
0000
,
1300
0001
0100
0001
1000
0100
1000
0001
0010
0001
1000
0010
,
0100
0000
0000
0000
0010
0100
0010
0000
0000
0000
0100
0001
0100
0000
0000
0000
0001
0000
0010
0000
0100
0000
1000
0000
,
0002
0010
2003
0010
,
3002
0100
2003
0100
,
3001
0100
0010
1000
0010
0100
0001
0010
0100
1000
0100
0010
,
0001
0000
0001
1000
0000
1000
0010
0000
0000
0120
0000
0000
,
2030
0000
3100
0010
0100
1000
0010
0100
0010
2000
0000
3001
,
2000
0000
3010
0100
0001
0100
1000
0100
0010
1000
0100
0010
,
0002
0000
0013
0100
0010
0001
0100
0010
0100
0002
0000
0013
,
1000
0010
0100
1000
0010
0100
0010
1000
0001
0100
0001
1000
,
0001
0010
0100
1000
0100
0010
0100
1000
0001
2000
0000
3001
,
1000
0010
0100
0001
0100
0010
0100
0001
1000
0002
0000
1003
,
0001
0010
0100
1000
0001
1000
0001
0100
0010
1000
0001
1000
,
0001
0010
1000
0001
0100
1000
0002
0000
0000
2003
0000
0000
,
3001
0100
0010
0100
1000
0100
0001
0010
0100
0010
1000
0010
,
0002
0203
0320
2030
3200
0320
0032
0203
0320
0130
0001
1000
,
0002
0000
0000
0000
0013
0000
0100
0000
1000
0000
0001
0000
1000
0000
0010
0000
0100
0000
0002
0000
0000
0000
0103
0001
,
1000
0000
1000
0100
0000
0100
0010
0000
0000
0210
0000
0000
,
1300
0010
0100
0010
0001
0010
1000
0100
0010
0100
0001
0100
,
2000
3020
0230
0302
0023
0230
2300
3020
0230
0310
0000
0010
,
1000
0000
0100
0000
0010
0000
0100
0000
1000
0000
0001
0000
1000
0001
0100
0000
0010
0000
1000
0000
0001
0000
1000
0000
,
0001
0100
1000
0001
0010
1000
0002
0000
0000
2003
0000
0000
,
3001
0000
0010
0000
0100
0000
0010
0000
1000
0000
0010
0000
,
0001
0000
0100
0000
0010
0000
1000
0000
0100
0000
0010
0000
,
1000
0000
0010
0000
0100
0000
0001
0000
0100
0000
1000
0000
,
0001
0000
0100
0000
0010
0000
200M
000M
000M
000M
0000
0000
,
0000
0000
0000
0000
0000
0000
000M
000M
000M
000M
0000
0000
,
3001
0000
0100
0000
0010
0000
0100
0000
1000
0000
0100
0000
,
0001
0000
0010
0000
0100
0000
1000
0000
0010
0000
0100
0000
,
1000
0000
0100
0000
0010
0000
0001
0000
0010
0000
1000
0000
,
0002
0000
0000
0003
,
1000
1000
0100
0100
,
0010
0000
0000
0010
0000
0000
0001
0000
0000
0001
0000
1000
,
0001
0001
0100
0100
,
0010
0000
0000
0010
0000
2000
3001
0000
2000
3100
1000
0020
,
1030
0000
0000
2010
0000
0000
3001
0000
0100
0001
0000
0010
,
0001
0000
0000
0012
0000
1003
0100
0010
0100
1000
0000
0010
,
1000
0010
0100
0001
0100
0010
1000
0100
0010
0001
0010
0100
,
0020
0000
1000
0100
,
0031
1000
0001
0010
0000
0100
1000
0001
0100
1000
0000
0100
,
0001
1000
0001
0100
0000
0010
1000
0001
1000
0100
0000
0100
,
1000
0001
1000
0010
0000
0100
0001
1000
0100
0001
0000
0100
,
1000
0001
1000
0100
0000
0010
0001
1000
0001
0100
0000
0100
,
0001
0000
1000
0001
0000
1000
0010
0000
1000
0100
0000
1000
,
0001
0100
0010
1000
0001
1000
0001
0010
0100
1000
0001
1000
,
0010
0100
0001
0000
1000
0000
0010
0100
0001
0000
1000
0000
0100
0010
0001
0000
1000
0000
0100
0010
0001
0000
0010
0000
,
0100
0000
1000
0010
0100
0010
1000
0100
0010
0120
0000
0000
,
0031
0100
0010
1000
0010
0100
0001
0010
0100
0001
0100
1000
,
0001
0100
0010
1000
0010
0100
0001
0010
0100
1000
1000
0001
,
1000
0010
0100
0001
1000
0100
0010
0100
0001
1000
0010
0001
,
0011
0000
0000
0101
0000
0200
1000
0000
0000
0301
0000
0001
,
1000
0100
0010
0001
0010
0100
1000
0010
0100
1000
0100
0001
,
1000
0100
0010
0001
0010
0100
1000
0010
0100
0001
0100
0010
,
1000
0001
1000
0100
0010
0100
1000
0001
1000
0010
0100
0010
,
1000
0000
0000
0000
1000
0000
0100
0000
0000
0000
0010
0001
1000
0000
0010
0000
0100
0000
0001
0000
0000
0000
0000
0000
,
1002
1000
0000
1000
,
0000
0000
0000
0000
0000
0000
1000
0000
0000
0000
0000
0000
1003
0010
0100
0000
0001
1000
0100
0000
0100
0000
1000
0000
,
0001
0100
0010
1000
0001
0010
0100
0010
1000
0001
0100
1000
,
1100
0000
0000
1010
0000
0020
0001
0000
0000
2030
0000
0000
,
3010
0010
1000
0001
0010
0100
1000
0001
1000
0100
0100
1000
,
0001
0000
0100
0000
0010
0000
1000
0000
0000
0000
1000
0000
0010
0000
0000
0000
1000
0001
0010
0000
0010
0000
0001
0000
,
0100
0000
0000
0000
0010
0000
0100
0000
0100
0000
0001
0000
0010
0000
0000
0000
0100
1000
0001
0000
0000
0000
0000
0000
,
0101
0000
0000
0100
0010
1000
0001
0010
0100
1000
0000
0000
,
2002
3003
0000
0000
;
