#VERSION:0.83;
#TITLE:In The Dark [MODS];
#SUBTITLE:;
#ARTIST:The Birthday Massacre;
#TITLETRANSLIT:;
#SUBTITLETRANSLIT:;
#ARTISTTRANSLIT:;
#GENRE:;
#ORIGIN:;
#CREDIT:Braeden;
#BANNER:In the Dark-ban.png;
#BACKGROUND:In the Dark-bg.png;
#PREVIEWVID:;
#JACKET:In the Dark-jacket.png;
#CDIMAGE:;
#DISCIMAGE:;
#LYRICSPATH:;
#CDTITLE:;
#MUSIC:In The Dark.ogg;
#OFFSET:-0.222000;
#SAMPLESTART:45.226002;
#SAMPLELENGTH:12.000000;
#SELECTABLE:YES;
#BPMS:0.000=133.340,
240.000=66.670,
256.000=133.340;
#STOPS:;
#DELAYS:;
#WARPS:;
#TIMESIGNATURES:0.000=4=4;
#TICKCOUNTS:0.000=4;
#COMBOS:0.000=1;
#SPEEDS:0.000=1.000=0.000=0;
#SCROLLS:0.000=1.000;
#FAKES:;
#LABELS:0.000=Song Start;
#BGCHANGES:;
#KEYSOUNDS:;
#ATTACKS:
;

//---------------dance-single - ----------------
#NOTEDATA:;
#CHARTNAME:;
#STEPSTYPE:dance-single;
#DESCRIPTION:;
#CHARTSTYLE:;
#DIFFICULTY:Beginner;
#METER:3;
#RADARVALUES:0.098721,0.149831,0.062822,0.226160,0.000000,110.000000,100.000000,10.000000,36.000000,0.000000,0.000000,0.000000,0.000000,0.000000,0.098721,0.149831,0.062822,0.226160,0.000000,110.000000,100.000000,10.000000,36.000000,0.000000,0.000000,0.000000,0.000000,0.000000;
#CREDIT:;
#NOTES:
0000
0000
0000
0000
,
0000
0000
0000
0000
,
0000
0000
0000
0000
,
0000
0000
0000
0000
,
1001
0000
0000
0000
,
0001
0000
0000
0000
,
1001
0000
0000
0000
,
1000
0000
0000
0000
,
0110
0000
0000
0000
,
0010
0000
0000
0000
,
1000
0000
0000
0000
,
0001
0000
0000
0000
,
2000
0000
3000
0000
,
0002
0000
0003
0000
,
0200
0000
0300
0000
,
0010
0000
1000
0000
,
0002
0000
0000
0000
,
0003
0000
0000
0000
,
1000
0000
0000
0000
,
0001
0000
0000
0000
,
0200
0000
0300
0000
,
0002
0000
0003
0000
,
2000
0000
3000
0000
,
0002
0000
0003
0000
,
2000
0000
3000
0000
,
0020
0000
0030
0000
,
0100
0000
0001
0000
,
1000
0000
0001
0000
,
2002
0000
3003
0000
,
2000
0000
3000
0000
,
0020
0000
0030
0000
,
0100
0000
0001
0000
,
2000
0000
3000
0000
,
0002
0000
0003
0000
,
0200
0000
0300
0000
,
0010
0000
1000
0000
,
2002
0000
3003
0000
,
0020
0000
0030
0000
,
0200
0000
0300
0000
,
0001
0000
1000
0000
,
0002
0000
0003
0000
,
0100
0000
0010
0000
,
2000
0000
3000
0000
,
0100
0000
0010
0000
,
0001
0000
1000
0000
,
0001
0000
1000
0000
,
0010
0000
0100
0000
,
0001
0000
0010
0000
,
0100
0000
1000
0000
,
0001
0000
0010
0000
,
0100
0000
0010
0000
,
0001
0000
1000
0000
,
2002
0000
3003
0000
,
0020
0000
0030
0000
,
0200
0000
0300
0000
,
0002
0000
0003
0000
,
0200
0000
0300
0000
,
0010
0000
0000
0000
,
0001
0000
0100
0000
,
0010
0000
1000
0000
,
1001
0000
0001
0000
,
1000
0000
0010
0000
,
0100
0000
0001
0000
,
0200
0000
0300
0000
,
2002
0000
3003
0000
,
0020
0000
0030
0000
,
0200
0000
0300
0000
,
0001
0000
1000
0000
,
0002
0000
0003
0000
,
0100
0000
0001
0000
,
2000
0000
3000
0000
,
0001
0000
1000
0000
,
1001
0000
0000
0000
,
0001
0000
0000
0000
,
0100
0000
0000
0000
,
0010
0000
0000
0000
,
1001
0000
0000
0000
,
0100
0000
0000
0000
,
0010
0000
0000
0000
,
1000
0000
0001
0000
;

//---------------dance-single - ----------------
#NOTEDATA:;
#CHARTNAME:;
#STEPSTYPE:dance-single;
#DESCRIPTION:;
#CHARTSTYLE:;
#DIFFICULTY:Easy;
#METER:4;
#RADARVALUES:0.165133,0.250766,0.113080,0.483732,0.056540,184.000000,166.000000,18.000000,77.000000,1.000000,0.000000,0.000000,0.000000,0.000000,0.165133,0.250766,0.113080,0.483732,0.056540,184.000000,166.000000,18.000000,77.000000,1.000000,0.000000,0.000000,0.000000,0.000000;
#CREDIT:;
#NOTES:
0000
0000
0000
0000
,
0000
0000
0000
0000
,
0000
0000
0000
0000
,
0000
0000
0000
0000
,
2002
3003
0002
0003
,
2000
3000
0020
0030
,
0220
0330
0200
0300
,
0002
0003
2000
3000
,
2002
3003
0202
0303
,
0220
0330
2020
3030
,
2002
3003
2000
3000
,
0002
0003
0100
0000
,
0002
0000
2003
0000
,
3020
0000
0130
0000
,
0002
0000
1003
0000
,
0001
0000
0200
0000
,
0320
0000
1000
0000
,
0130
0000
0001
0000
,
1000
0000
0001
0000
,
0010
0000
0200
0000
,
2300
0000
3002
0003
,
0200
0000
0310
0000
,
2000
0000
3002
0000
,
0203
0000
0320
0000
,
2030
0000
3001
0000
,
0200
0000
0310
0000
,
1000
0000
0000
0000
0010
0000
0000
0000
0100
0000
0000
0000
,
0001
0000
0100
0000
,
0102
0000
0103
0000
,
0020
0000
1030
0000
,
0002
0000
1003
0000
,
0001
0000
1001
0000
,
2000
0000
3001
0000
,
0100
0000
0110
0000
,
0020
0000
1030
0000
,
0001
0000
1000
0000
,
1001
0000
2000
0000
,
3001
0000
0200
0000
,
0310
0000
1000
0000
,
0001
0000
0100
0000
,
0020
0000
1030
0000
,
0002
0000
1003
0000
,
0020
0000
0130
0000
,
0001
0000
1000
0000
,
0001
0000
0100
0000
,
0010
0000
0000
0000
1000
0000
0000
0000
0001
0000
0000
0000
,
2000
0000
3000
0000
,
0001
0000
0000
0000
0100
0000
0000
0000
0010
0000
0000
0000
,
1000
0000
0000
0000
0100
0000
0000
0000
0010
0000
0000
0000
,
0001
0000
0000
0000
0100
0000
0000
0000
0010
0000
0000
0000
,
1000
0000
0001
0000
,
0100
0000
0020
0030
,
1001
0000
0001
0000
,
1000
0000
0000
0000
0010
0000
0000
0000
0100
0000
0000
0000
,
0002
0000
0003
0000
,
1000
0000
0000
0000
0001
0000
0000
0000
0010
0000
0000
0000
,
0200
0000
0310
0000
,
0001
0000
0000
0000
1000
0000
0000
0000
0010
0000
0000
0000
,
0200
0000
0302
0000
,
2003
0000
3001
0000
,
1M01
0001
1000
0010
,
0100
0001
0010
0100
,
0010
0001
1000
0010
,
2000
0000
0000
3001
,
1002
0000
0103
0000
,
0020
0000
0130
0000
,
0002
0000
1003
0000
,
0002
0000
1003
0000
,
0020
0000
0130
0000
,
0001
0000
1000
0000
,
0020
0000
0130
0000
,
0001
0000
1000
0000
,
2002
3003
0002
0003
,
2000
3000
0020
0030
,
2002
3003
0200
0300
,
0002
0003
1000
0000
,
2002
3003
0002
0003
,
0200
0300
0010
0000
,
2002
3003
0010
0000
,
1000
0000
0000
0000
0000
0000
0001
0000
1000
0000
0001
0000
;

//---------------dance-single - ----------------
#NOTEDATA:;
#CHARTNAME:;
#STEPSTYPE:dance-single;
#DESCRIPTION:;
#CHARTSTYLE:;
#DIFFICULTY:Medium;
#METER:8;
#RADARVALUES:0.398473,0.426302,0.232443,0.370652,0.669058,444.000000,407.000000,37.000000,59.000000,2.000000,0.000000,0.000000,0.000000,0.000000,0.398473,0.426302,0.232443,0.370652,0.669058,444.000000,407.000000,37.000000,59.000000,2.000000,0.000000,0.000000,0.000000,0.000000;
#CREDIT:;
#NOTES:
0000
0000
0000
0000
,
0000
0000
0000
0000
,
0000
0000
0000
0000
,
0000
0000
0000
0000
,
1002
0000
0000
0003
1000
0000
0002
0000
0000
0003
0100
0000
,
0020
0000
0000
0030
1000
0000
0100
0000
0010
0000
0001
0000
,
1002
0000
0000
0003
1000
0000
0020
0000
0000
0030
1000
0000
,
0200
0000
0000
0300
0010
0000
0001
0000
1000
0000
0001
0000
,
2001
0000
0000
3000
0001
0000
0101
0000
0000
0000
0100
0000
,
0020
0000
0000
0030
1000
0000
0001
0000
0100
0000
0010
0000
,
2010
0000
0000
3000
0001
0000
2000
0000
0000
3000
0010
0000
,
2000
0000
0000
3000
0001
0000
0010
0000
0100
0000
1000
0000
,
0002
0000
0000
1000
0000
0000
0103
0000
0010
0000
1000
0000
,
0002
0000
0000
1000
0000
0000
0013
0000
0100
0000
0001
0000
,
2000
0000
0000
0001
0000
0000
3100
0000
0010
0000
0100
0000
,
0002
0000
0000
1000
0000
0000
0013
0000
0100
0000
0001
0000
,
2000
0000
0000
0001
0000
0000
3100
0000
0010
0000
0100
0000
,
0002
0000
0000
1000
0000
0000
0013
0000
0100
0000
0001
0000
,
2000
0000
0000
0001
0000
0000
3100
0000
0010
0000
0100
0000
,
0002
0000
0000
1000
0000
0000
0013
0000
0100
0000
0001
0000
,
2000
0000
0000
0001
0000
0000
3100
0000
0010
0000
0100
0000
,
0002
0000
0000
1000
0000
0000
0013
0000
1000
0000
0001
0000
,
2000
0000
0000
0001
0000
0000
3100
0000
0010
0000
0100
0000
,
0002
0000
0000
1000
0000
0000
0103
0000
0010
0000
1000
0000
,
0002
0000
0000
1003
0000
0000
1010
0000
0010
0000
0100
0000
,
0002
0000
0000
1003
0000
0000
1010
0000
0010
0000
1000
0000
,
0002
0000
0000
1000
0000
0000
0013
0000
0100
0000
0001
0000
,
1000
0000
0010
0000
0100
0000
0001
0000
0010
0000
0100
0000
,
2000
0000
0000
3001
0000
1000
0010
0000
0100
0000
0001
0000
,
1000
0000
0000
0001
0000
0010
0100
0000
2000
0000
0000
0000
,
3002
0000
0000
0103
0000
0010
1000
0000
0000
0000
0000
0000
,
0001
0000
1000
0000
0001
0000
1000
0000
0010
0000
1000
0000
,
1002
0000
0000
0003
0000
1000
0010
0000
0000
0100
0010
0000
,
1000
0000
0000
0000
0001
0000
1001
0000
1000
0000
0000
0000
,
0020
0000
0000
1030
0000
0001
2000
0000
0000
3000
0000
0000
,
0001
0000
0000
0100
0000
0010
1000
0000
0100
0000
0010
0000
,
0021
0000
0000
0031
0000
1000
0200
0000
0000
1300
0001
0000
,
1000
0000
0000
0000
0001
0000
0202
0000
0303
0000
0100
0000
,
0020
0000
0000
1030
0000
0001
0100
0000
0001
0000
0100
0000
,
0010
0000
0000
1000
0000
0001
0100
0000
0010
0000
1000
0000
,
0002
0000
0000
1003
0000
0100
0010
0000
0001
0000
0010
0000
,
0100
0000
0000
0010
0000
0001
1000
0000
0002
0000
0000
0000
,
0203
0000
0000
0310
0000
0100
0001
0000
1000
0000
0001
0000
,
1000
0000
0000
0010
0000
0100
0001
0000
0010
0000
0100
0000
,
1100
0000
1000
0000
0001
0000
0101
0000
0100
0000
0010
0000
,
1000
0000
0100
0000
0010
0000
0011
0000
0001
0000
0100
0000
,
0010
0000
1000
0000
0100
0000
0011
0000
0001
0000
0100
0000
,
0010
0000
1000
0000
0001
0000
0011
0000
0010
0000
0100
0000
,
1000
0000
0001
0000
0100
0000
0110
0000
0010
0000
1000
0000
,
0001
0000
0010
0000
0100
0000
1100
0000
1000
0000
0001
0000
,
0100
0000
0010
0000
1000
0000
1100
0000
0100
0000
0010
0000
,
0001
0000
1000
0000
0010
0000
1000
0010
1000
0010
0100
0001
,
1000
0000
0100
0000
1000
0000
0001
0000
0100
0000
0010
0000
,
0100
0000
0001
0000
0100
0000
0110
0000
0010
0000
1000
0000
,
0100
0000
1000
0000
0001
0000
0101
0000
0100
0000
0010
0000
,
1000
0000
0001
0000
0010
0000
0110
0000
0100
0000
1000
0000
,
1001
0000
0001
0000
0100
0000
0110
0000
0010
0000
1000
0000
,
0100
0000
1000
0000
0001
0000
1001
0000
1000
0000
0010
0000
,
0100
0000
0001
0000
0010
0000
0100
0000
1000
0000
0001
0000
,
0100
0000
0010
0000
1000
0000
0001
1000
0001
1000
0001
1000
,
0M01
0010
0100
1000
,
0010
0100
0001
1000
,
0001
0100
0001
1000
0100
1000
0001
0100
0001
1000
0010
1000
,
0002
0000
0000
0000
0000
0000
0000
0000
0000
1003
0010
1000
,
0M01
0000
0000
0001
0000
0010
0001
0000
1000
0000
0010
0000
,
2000
0000
0000
3010
0000
1000
0100
0000
0010
0000
0000
0000
,
0001
0000
0000
0100
0000
0010
1000
0000
0001
0000
0010
0000
,
0100
0000
1000
0000
1000
0000
1001
0000
0001
0000
0100
0000
,
0202
0000
0000
0303
0000
0000
0011
0000
0000
0001
0100
0000
,
0010
0000
0000
1000
0000
0001
0100
0000
0010
0000
0000
0000
,
2000
0000
0000
3001
0000
1000
0100
0000
0010
0000
0001
0000
,
1000
0000
0000
0001
0000
1000
0010
0000
0100
0000
0001
0000
,
2002
0000
3003
0000
1000
0000
0200
0000
0000
0300
0010
0000
,
0002
0000
0000
0003
0010
0000
0200
0000
0000
0300
1000
0000
,
1002
0000
0000
0003
0010
0000
0200
0000
0000
0300
1000
0000
,
0020
0000
0000
0030
0100
0000
0001
0000
0010
0000
0100
0000
,
2100
0000
0000
3000
0001
0000
0201
0000
0000
0300
0010
0000
,
2010
0000
0000
3000
0001
0000
0101
0000
0100
0000
0010
0000
,
2010
0000
0000
3000
0001
0000
0201
0000
0000
0300
0010
0000
,
2010
0000
0000
3000
0001
0000
1000
0000
1000
0000
0001
0000
;

//---------------dance-single - XO+ SJ----------------
#NOTEDATA:;
#CHARTNAME:XO+ SJ;
#STEPSTYPE:dance-single;
#DESCRIPTION:XO+ SJ;
#CHARTSTYLE:;
#DIFFICULTY:Hard;
#METER:13;
#RADARVALUES:0.556427,0.626915,0.157056,0.295265,1.086827,620.000000,595.000000,25.000000,47.000000,1.000000,0.000000,0.000000,0.000000,0.000000,0.556427,0.626915,0.157056,0.295265,1.086827,620.000000,595.000000,25.000000,47.000000,1.000000,0.000000,0.000000,0.000000,0.000000;
#CREDIT:XO+ SJ;
#NOTES:
// measure 0
0000
0000
0000
0000
,  // measure 1
0000
0000
0000
0000
,  // measure 2
0000
0000
0000
0000
,  // measure 3
0000
0000
0000
0000
,  // measure 4
2001
0000
0000
3001
0100
0010
0200
0000
0000
0301
1000
0100
,  // measure 5
2000
0000
0000
3001
0010
0100
1000
0000
0100
0010
0001
1000
,  // measure 6
1020
0000
0000
1030
0100
0010
0002
0000
0000
0013
0100
1000
,  // measure 7
0002
0000
0000
1003
0010
0100
0001
0010
0001
0100
0010
1000
,  // measure 8
0002
0000
0000
1003
0100
0001
0200
0000
0000
1300
0100
1000
,  // measure 9
0020
0000
0000
0031
0010
1000
0010
0000
1000
0000
0001
0000
,  // measure 10
1002
0000
0000
1003
0010
0100
2000
0000
0000
3100
0001
0100
,  // measure 11
0020
0000
0000
1030
0100
0010
0001
0000
1000
0000
0001
0000
,  // measure 12
1000
0100
0000
0001
0000
0100
2000
0000
0001
0000
0001
0000
,  // measure 13
3001
0010
0000
1000
0000
0010
0100
0000
1000
0000
0001
0000
,  // measure 14
1000
0010
0000
0001
0000
0010
0200
0000
0001
0000
0001
0000
,  // measure 15
0301
0010
0000
1000
0000
0010
0002
0000
1000
0000
1000
0000
,  // measure 16
0103
0010
0000
0001
0000
0010
0100
0000
0001
1000
0001
1000
,  // measure 17
0001
0100
0000
0010
0000
0100
1000
0000
0100
0000
0001
0000
,  // measure 18
1000
0010
0000
0100
0000
0010
1000
0000
0001
0000
0100
0000
,  // measure 19
0010
1000
0000
0100
0000
1000
0001
0000
0100
0000
0101
0000
,  // measure 20
0001
0100
0000
1000
0000
0100
0002
0000
1000
0000
1000
0000
,  // measure 21
1003
0100
0000
0010
0000
1000
0010
0000
0001
0000
0100
0000
,  // measure 22
0001
0010
0000
0100
0000
1000
0200
0000
0010
0000
0310
0000
,  // measure 23
0100
1000
0000
0001
0000
0100
0002
0000
1000
0000
0100
0000
,  // measure 24
1003
0100
0000
0001
0000
0100
1000
0000
0001
0000
0100
0000
,  // measure 25
0001
0010
0000
1000
0000
0010
0001
0000
0100
0000
0010
0000
,  // measure 26
1000
0100
0000
0010
0000
0001
1000
0000
0010
0000
0100
0000
,  // measure 27
0001
0100
0000
0010
0000
1000
0001
0010
0001
0000
0100
0010
,  // measure 28
2000
0000
0000
3001
0000
0100
0010
0000
1000
0000
0100
0000
,  // measure 29
0010
0000
0000
0001
0000
0100
0010
0000
1000
0000
0001
0000
,  // measure 30
0200
0000
0000
0301
0000
1000
0100
0000
0010
0000
0100
0000
,  // measure 31
1000
0000
0100
0010
0100
1000
0100
0000
0010
0000
0001
0000
,  // measure 32
1001
0000
0000
1000
0000
0001
0200
0000
0000
0310
1000
0000
,  // measure 33
0002
1000
0000
0103
0000
0010
1000
0000
0001
0000
0100
0000
,  // measure 34
0002
0000
0000
0013
0000
0100
1000
0000
0001
0000
0100
0000
,  // measure 35
0001
0000
0000
0000
0010
0000
1100
0000
1000
0000
0001
0000
,  // measure 36
1001
0000
0000
1000
0000
0100
0001
0000
0000
0100
1000
0000
,  // measure 37
0001
0000
0100
0010
0100
0000
0002
0000
1000
0003
1000
0000
,  // measure 38
2000
0000
0000
3010
0000
0001
0010
0000
0100
0000
0001
0000
,  // measure 39
1000
0000
0000
0001
0000
0100
0010
0000
1000
0000
0010
0000
,  // measure 40
1020
0000
0000
1030
0000
0100
0010
0000
0001
0000
0010
0000
,  // measure 41
0002
0000
0000
0103
0000
0010
1000
0000
0010
0000
0001
0000
,  // measure 42
0020
0000
0000
1030
0000
0010
1000
0000
0001
0000
0100
0000
,  // measure 43
0010
0000
1000
0100
1000
0001
0100
0000
0010
0000
1000
0000
,  // measure 44
0001
0100
0001
1000
0100
1000
0001
0010
0100
1000
0001
0100
,  // measure 45
0001
0010
0100
1000
0001
0100
0001
1000
0100
0010
0001
1000
,  // measure 46
0010
0100
0010
1000
0010
0100
0001
0010
0100
1000
0001
0100
,  // measure 47
0001
0010
0001
0010
0001
0010
0100
1000
0100
1000
0100
1000
,  // measure 48
0001
0100
0001
0100
0010
0100
0001
0010
0100
1000
0001
0100
,  // measure 49
0010
1000
0010
1000
0100
1000
0001
0010
0100
1000
0001
0100
,  // measure 50
0010
1000
0010
1000
0100
1000
0001
0010
0100
1000
0001
0100
,  // measure 51
0010
1000
0010
1000
0010
1000
0001
0010
0100
0000
1000
0000
,  // measure 52
1001
0000
0001
0000
0100
0000
0010
1000
0010
1000
0001
1000
,  // measure 53
0010
0000
0100
0000
0001
0000
0101
0000
0100
0000
0010
0000
,  // measure 54
2000
0000
0001
0000
3001
0000
1001
0000
0001
0000
0100
0000
,  // measure 55
0010
0000
1000
0100
0010
0001
1000
0000
0001
0000
0100
0000
,  // measure 56
0101
0000
0001
0010
0100
1000
0001
0100
0010
0100
0001
0010
,  // measure 57
0100
0000
0010
0000
0001
0000
1001
0000
1000
0000
0010
0000
,  // measure 58
0200
0000
0001
0000
0301
0000
2010
0000
0001
0000
3001
0000
,  // measure 59
1000
0010
0000
0100
0000
0001
0100
0010
0100
0001
0010
0100
,  // measure 60
100M
1000
0010
0100
0100
0001
1000
1000
0100
0010
0010
0001
,  // measure 61
1000
1000
0010
0100
0100
0001
1000
1000
0100
0010
0001
0010
,  // measure 62
0100
1000
0001
0100
0010
1000
0001
0010
0100
1000
0001
1000
,  // measure 63
0200
0000
0000
0000
0000
0000
0000
0000
0000
0310
0001
1000
,  // measure 64
0010
0100
0000
1000
0000
0100
0010
0000
1000
0000
0001
0000
,  // measure 65
1000
0000
0000
0001
0000
0100
0110
0000
0010
0000
1000
0000
,  // measure 66
0002
0000
0000
1003
0000
0010
1010
0000
1000
0000
0001
0000
,  // measure 67
1000
0000
0100
0010
0100
0010
0001
0000
1000
0000
0010
0000
,  // measure 68
2010
0000
0000
3001
0000
1000
2010
0000
0000
3010
0100
0000
,  // measure 69
0001
0100
0000
0010
0000
1000
1100
0000
0100
0000
0010
0000
,  // measure 70
0002
0000
0000
1003
0000
0001
0011
0000
0100
0000
0010
0000
,  // measure 71
0001
0000
0000
1000
0000
0010
1010
0000
1000
0000
0001
0000
,  // measure 72
0101
0000
0000
0001
0010
1000
0020
0000
0000
0031
0100
0010
,  // measure 73
0002
0000
0000
0013
0100
0001
1000
0000
0100
0010
0001
1000
,  // measure 74
0002
0000
0000
0103
1000
0100
0002
0000
0000
0013
1000
0010
,  // measure 75
0002
0000
0000
1003
0010
0100
0001
0010
0100
1000
0010
1000
,  // measure 76
0002
0000
0000
1003
0100
0001
0200
0000
0300
1000
0100
0001
,  // measure 77
0200
0000
0000
0310
0100
1000
0001
0000
0100
0000
0001
0000
,  // measure 78
2001
0000
0000
3001
0010
1000
0020
0000
0000
0031
0100
1000
,  // measure 79
0200
0000
0000
0301
0010
0001
0100
0000
1010
0000
1001
0000
;

//---------------dance-single - FS BR DS XO BU-----------------
#NOTEDATA:;
#CHARTNAME:FS BR DS XO BU-;
#STEPSTYPE:dance-single;
#DESCRIPTION:FS BR DS XO BU-;
#CHARTSTYLE:;
#DIFFICULTY:Challenge;
#METER:15;
#RADARVALUES:0.646173,0.651991,0.282701,0.282701,1.278435,720.000000,675.000000,45.000000,45.000000,40.000000,5.000000,0.000000,0.000000,0.000000,0.646173,0.651991,0.282701,0.282701,1.278435,720.000000,675.000000,45.000000,45.000000,40.000000,5.000000,0.000000,0.000000,0.000000;
#CREDIT:FS BR DS XO BU-;
#NOTES:
0000
0000
0000
0000
,
0000
0000
0000
0000
,
0000
0000
0000
0000
,
0000
0000
0000
0000
,
1002
0000
0000
0000
0000
0000
1003
0000
0100
00M0
0100
0000
0002
0000
0000
0000
0000
0000
1003
0000
0010
0M00
0010
0000
,
0002
0000
0000
0000
0000
0000
1003
0000
0100
00M0
0100
0000
0010
0000
0000
0000
1000
0000
0001
0000
0100
0000
0010
0000
,
1020
0000
0000
0000
0000
0000
1030
0000
0100
0000
01M0
0000
0001
0000
0000
0000
0000
0000
1000
0000
0010
000M
0010
0000
,
0200
0000
0000
0000
0000
0000
1300
0000
0010
000M
0010
0000
1000
0000
0001
0010
0100
0000
1000
0100
0010
0001
1000
0010
,
2000
0000
0000
3001
1000
0001
1200
0000
0000
0301
0010
0100
,
2010
0000
0000
3001
0100
0010
1100
0000
0010
0000
1000
0000
,
1002
0000
0000
1003
0001
0100
0021
0000
0000
1030
0001
0100
,
0021
0000
0000
1030
0100
0010
0001
0000
1000
0000
0001
0000
,
1000
0100
0000
0001
0000
0100
1000
0000
0001
0100
0001
0010
,
0001
0100
0000
1000
0000
0100
0001
0100
0010
1000
0001
1000
,
0001
0010
0000
1000
0000
0010
0100
1000
0100
0010
0001
1000
,
0001
0100
0000
1000
0000
0100
0001
0100
0001
0010
0100
1000
,
0001
0100
0000
1000
0000
0100
0001
0000
0010
0100
1000
0001
,
1000
0100
0000
0001
0000
0100
0010
0001
0100
0010
1000
0001
,
1000
0010
0000
0001
0000
0010
1000
0010
0100
0001
0010
0100
,
1000
0000
0100
0000
0000
0000
0001
0000
0000
0000
0100
0000
1000
0000
0000
0000
0001
0000
0100
0000
0010
M000
0010
0000
,
0001
0100
00M0
0100
0000
1000
0011
1000
0100
0010
0001
1000
,
0001
0100
00M0
0100
0000
1000
0011
0100
0010
1000
0001
1000
,
0001
0100
00M0
0100
0000
1000
0011
1000
0100
0010
0001
1000
,
0001
0100
00M0
0100
0000
1000
0101
1000
0010
0100
0001
1000
,
0001
0100
00M0
0100
0000
0010
0101
1000
0001
1000
0010
0100
,
0001
0100
00M0
0100
0000
1000
0011
0000
1000
0001
0010
0100
,
1000
0100
00M0
0100
0000
0001
1010
0000
0001
0010
0100
1000
,
0001
0100
00M0
0100
0000
1000
0001
0100
0010
1000
0001
0001
,
2010
0000
0000
3001
0000
010M
1000
0000
0010
0000
0100
0000
,
0002
0000
0000
1003
0000
M100
0001
0000
0010
0000
0100
0000
,
2000
0000
0000
3001
0000
001M
0100
0000
0001
0000
1000
0000
,
0001
0000
0001
0100
0010
1000
0011
0000
1000
0000
0001
0000
,
0102
0000
0000
1003
0000
M100
0002
0000
0000
0013
0001
0000
,
1000
0000
0000
1000
0000
M100
0010
0000
1000
0000
0001
0000
,
2000
0000
0000
3001
0000
010M
1000
0000
0010
0000
0100
0000
,
0001
0000
1000
0000
0010
0000
2010
0000
0001
0000
3100
0000
,
0011
0000
0000
1000
0000
M100
0002
0000
0103
0010
1000
0000
,
0002
0000
0000
0103
0000
1M00
0011
0000
1000
0000
0010
0000
,
2000
0000
0000
3001
0000
010M
1000
0000
0100
0010
0100
0000
,
1000
0000
0000
0100
0000
0M01
1010
0000
0001
0000
1000
0000
,
0102
0000
0000
1003
0000
M100
0001
0000
0100
0000
0010
0000
,
2000
0000
0000
3001
0000
010M
1000
0000
0010
0000
0100
0000
,
0002
0000
0000
1003
0000
M100
0010
0000
0100
0000
0001
0000
,
1000
0000
0000
0001
0000
010M
0010
0000
0001
0000
0100
0000
,
0011
1000
0100
1000
0001
0100
1000
0100
0010
1000
0001
0010
,
0100
1000
0100
0010
0001
0010
1000
0010
0100
1000
0010
0100
,
0001
0100
0001
1000
0001
0100
1000
0100
0010
1000
0010
0100
,
0001
1000
0100
0010
0001
0010
1000
0010
0001
0100
0010
1000
,
0011
0100
0010
1000
0001
0100
1000
0100
0010
0100
0001
1000
,
0100
0010
0001
1000
0001
0010
1000
0010
0001
0100
0010
1000
,
0001
0100
0001
0100
0010
0100
1000
0100
0001
0010
0100
1000
,
0001
0100
0001
1000
0100
0001
0100
0010
0001
0100
0010
1000
,
0011
0000
1000
0000
0001
0000
1000
0100
0010
0001
0010
0100
,
1000
0010
1000
0100
1000
0100
0001
0100
1000
0010
0100
0001
,
1000
0100
0010
0001
1000
0010
0001
0010
0100
0010
1000
0010
,
1000
0100
0010
0001
1000
0100
0001
0100
1000
0010
0100
0001
,
1100
0001
0100
0010
1000
0100
0001
0100
0010
0100
1000
0010
,
0100
0001
0010
0001
1000
0010
0001
0010
0100
0001
0100
0010
,
1000
0001
0010
0100
1000
0010
0001
0010
1000
0001
0100
0010
,
1000
0100
0010
0001
0010
0100
1000
0001
0100
0010
1000
0001
,
1M00
0010
1000
0100
0010
0001
1000
0010
0100
0001
1000
0100
,
0010
0001
0100
0010
0100
0001
1000
0100
0010
0001
1000
0001
,
0010
0100
0010
0001
1000
0001
0010
0100
1000
0001
0100
0010
,
2000
0000
0000
0000
0000
0000
0000
0000
0000
3001
0100
0001
,
10M0
0100
0000
1000
0000
0001
0100
0000
1000
0000
0100
0000
,
0001
0000
0000
0010
000M
0010
1100
0000
0002
0000
0103
0000
,
0002
0000
0000
0103
00M0
0100
1010
0000
0001
0000
1000
0000
,
0001
0000
0100
0010
0100
0001
1010
0000
0001
0000
1000
0000
,
2001
0000
0000
3001
0000
0100
1000
0000
0100
0010
1000
0000
,
0001
0000
1000
0100
0010
0001
1010
0000
0001
0000
0100
0000
,
0001
0100
00M0
0100
0000
1000
0011
0000
1000
0000
0010
0000
,
1000
0000
0000
0001
0000
0100
0011
0000
1000
0000
0001
0000
,
1001
0000
0000
0000
0000
0000
1000
0000
0010
0M00
0010
0000
0002
0000
0000
0000
0000
0000
1003
0000
0100
00M0
0100
0000
,
0002
0000
0000
0000
0000
0000
1003
0000
0010
0M00
0010
0000
0001
0000
0000
0000
1000
0000
0010
0000
0100
0000
0001
0000
,
2200
0000
0000
0000
3300
0000
0001
0000
0100
M000
0100
0000
0020
0000
0000
0000
0000
0000
0031
0000
0010
0000
001M
0000
,
0200
0000
0000
0000
0000
0000
0301
0000
0100
00M0
0100
0000
1000
0000
0001
0010
0100
0000
1000
0000
0000
0001
0100
0010
,
2000
0000
0000
3001
1000
0001
2020
0000
0000
3031
0100
0010
,
2200
0000
0000
3301
1000
0001
1010
0000
0001
0000
0100
0000
,
0022
0000
0000
1033
0001
1000
0202
0000
0000
1303
0010
1000
,
0022
0000
0000
1033
0001
1000
0101
0000
1010
0000
1001
0000
;

//---------------dance-double - XO----------------
#NOTEDATA:;
#CHARTNAME:XO;
#STEPSTYPE:dance-double;
#DESCRIPTION:XO;
#CHARTSTYLE:;
#DIFFICULTY:Hard;
#METER:13;
#RADARVALUES:0.552837,0.626915,0.100516,0.226160,1.105673,616.000000,600.000000,16.000000,36.000000,1.000000,0.000000,0.000000,0.000000,0.000000,0.552837,0.626915,0.100516,0.226160,1.105673,616.000000,600.000000,16.000000,36.000000,1.000000,0.000000,0.000000,0.000000,0.000000;
#CREDIT:XO;
#NOTES:
00000000
00000000
00000000
00000000
,
00000000
00000000
00000000
00000000
,
00000000
00000000
00000000
00000000
,
00000000
00000000
00000000
00000000
,
00011000
00000000
00000000
00001000
01000000
00100000
02000000
00000000
00000000
03100000
10000000
01000000
,
20000000
00000000
00000000
30010000
01000000
00010000
00100000
00000000
00001000
00010000
00001000
00010000
,
00000200
00000000
00000000
00001300
00000010
00001000
00000002
00000000
00000000
00001003
00000010
00000100
,
00000002
00000000
00000000
00001003
00000010
00010000
00001000
00010000
00001000
00100000
00010000
00100000
,
00002000
00000000
00000000
01003000
00100000
01000000
00020000
00000000
00000000
01030000
00001000
00010000
,
00002000
00000000
00000000
01003000
00010000
00100000
01000000
00000000
10000000
00000000
00010000
00000000
,
10010000
00000000
00000000
10000000
01000000
00010000
02000000
00000000
00000000
03100000
00001000
00010000
,
00001000
00000000
00000000
00010000
00000100
00001000
00000100
00000000
00001000
00000000
00000001
00000000
,
00001000
00000100
00000000
00000001
00000000
00000100
00002000
00000000
00000010
00000000
00000010
00000000
,
00003100
00010000
00000000
00001000
00000000
00010000
00000200
00000000
00010000
00000000
00010300
00000000
,
00001000
00100000
00000000
01000000
00000000
00100000
00010000
00000000
10000000
00000000
10000000
00000000
,
00010000
00100000
00000000
10000000
00000000
00100000
00020000
00000000
01000000
00000000
01030000
00000000
,
10000000
00100000
00000000
01000000
00000000
00010000
00100000
00000000
00001000
00000000
00010000
00000000
,
00000100
00001000
00000000
00010000
00000000
00001000
00000100
00000000
00001000
00000000
00000010
00000000
,
00001000
00000100
00000000
00000001
00000000
00000100
00000010
00000000
00000100
00000000
00001000
00000000
,
00000010
00010000
00000000
00001000
00000000
00010000
00000100
00000000
00010000
00000100
00010000
00001000
,
01000000
00100000
00000000
00010000
00000000
00100000
01000000
00000000
00001000
00000000
00010000
00000000
,
00000100
00001000
00000000
00000010
00000000
00001000
00000100
00000000
00000010
00000000
00000001
00000000
,
00001000
00000100
00000000
00010000
00000000
00000100
00001000
00000000
00000010
00000000
00000100
00000000
,
00000001
00000010
00000000
00001000
00000000
00000010
00000002
00000000
00001003
00000010
00000100
00000000
,
00000001
00001000
00000000
00000100
00000000
00010000
00000200
00000000
00010000
00000000
00010300
00000000
,
00001000
01000000
00000000
00100000
00000000
00010000
00100000
00000000
01000000
00000000
00001000
00000000
,
00010000
00000100
00000000
00000010
00000000
00000100
00010000
00000000
00000100
00000000
00001000
00000000
,
00000001
00000100
00000000
00000001
00000000
00001000
00000010
00000100
00000010
00000000
00001000
00000100
,
00020000
00000000
00000000
00031000
00000000
01000000
00100000
00000000
10000000
00000000
00010000
00000000
,
10000000
00000000
00000000
00010000
00000000
01000000
10000000
00000000
01000000
00000000
00010000
00000000
,
00200000
00000000
00000000
00301000
00000000
00010000
00000100
00000000
00001000
00000000
00001000
00000000
,
00000010
00000000
00000100
00000001
00000100
00000010
00000100
00000000
00000001
00000000
00001000
00000000
,
00002100
00000000
00000000
00003100
00000000
00010000
00002000
00000000
00000000
01003000
00100000
00000000
,
00010000
00000000
00100000
01000000
00010000
01000000
00100000
00000000
10000000
00000000
00010000
00000000
,
02000000
00000000
00000000
03001000
00000000
00100000
00001000
00000000
00010000
00000000
00000100
00000000
,
00001000
00000000
00000001
00001000
00000001
00000010
00000100
00000000
00010000
00000000
00001000
00000000
,
00110000
00000000
00010000
10000000
00100000
01000000
00020000
00000000
00000000
10030000
01000000
00000000
,
00010000
00000000
01000000
00100000
01000000
10000000
00010000
00000000
01000000
00000000
00001000
00000000
,
00020000
00000000
00000000
00030100
00000000
00001000
00000010
00000000
00001000
00000000
00000001
00000000
,
00001000
00000000
00000000
00000001
00000000
00000100
00000010
00000000
00010000
00000000
00001000
00000000
,
00021000
00000000
00000000
00031000
00000000
01000000
00100000
00000000
01000000
00000000
00001000
00000000
,
01000000
00010000
00000000
10000000
00000000
00010000
01000000
00000000
00001000
00000000
00001000
00000000
,
00020000
00000000
00000000
00030100
00000000
00001000
00000100
00000000
00001000
00000000
00000001
00000000
,
00001000
00000000
00000000
00000001
00000000
00001000
00000010
00000000
00001000
00000000
00000001
00000000
,
00001000
00000100
00001000
00000001
00000010
00000001
00001000
00000010
00001000
00000010
00000100
00000001
,
00000100
00000010
00001000
00000010
00010000
00001000
00010000
00001000
00100000
00010000
01000000
00010000
,
10000000
01000000
00100000
00010000
00100000
01000000
10000000
00010000
01000000
00100000
10000000
00010000
,
10000000
00100000
01000000
00010000
01000000
00010000
00100000
00001000
00010000
00001000
00010000
00000100
,
00001000
00000100
00010000
00000010
00000100
00000010
00001000
00000010
00001000
00000010
00000100
00000010
,
00000100
00000001
00000010
00000100
00001000
00000100
00000010
00000001
00001000
00000010
00001000
00000001
,
00000100
00000010
00000100
00000010
00000100
00000001
00001000
00000100
00001000
00000100
00010000
00001000
,
00010000
00001000
01000000
00010000
00100000
00010000
01000000
00100000
10000000
00010000
00100000
01000000
,
10000000
00000000
00010000
00000000
01000000
00000000
01001000
00000000
00001000
00000000
00010000
00000000
,
00001000
00000000
00010000
00000000
00000100
00000000
00001100
00000000
00001000
00000000
00000001
00000000
,
00001000
00000000
00000010
00000000
00000100
00000000
00000101
00000000
00000001
00000000
00000010
00000000
,
00000100
00000000
00010000
00000000
00001000
00000000
00011000
00000000
00010000
00000000
00001000
00000000
,
01001000
00000000
01000000
00000000
00100000
00000000
10000000
00100000
10000000
00100000
10000000
00010000
,
01000000
00000000
00100000
00000000
10000000
00000000
10010000
00000000
00010000
00000000
01000000
00000000
,
00010000
00000000
00100000
00000000
00001000
00000000
00010000
00000000
00000010
00000000
00001000
00000000
,
00000001
00001000
00000000
00000001
00000000
00001000
00000010
00000000
00001000
00000001
00000100
00000001
,
0M001000
00000100
00001000
00000001
00000010
00000001
00001000
00000100
00001000
00000001
00000100
00000010
,
00010000
00001000
00010000
00000100
00010000
00001000
00100000
00010000
01000000
00100000
10000000
00010000
,
00100000
01000000
10000000
01000000
00100000
00010000
01000000
00100000
10000000
00010000
00100000
00001000
,
00020000
00000000
00000000
00000000
00000000
00000000
00000000
00000000
00000000
00031000
00010000
00001000
,
00010000
00000010
00000000
00000100
00000000
00000010
00010000
00000000
00001000
00000000
00100000
00000000
,
00010000
10000000
00000000
01000000
00000000
10000000
00020000
00000000
10000000
00000000
01030000
00000000
,
00100000
10000000
00000000
01000000
00000000
00010000
01000000
00000000
00100000
00000000
00001000
00000000
,
00010000
00000000
00000100
00000010
00000100
00001000
00000001
00000000
00001000
00000000
00000010
00000000
,
00001010
00000000
00001000
00000000
00000001
00001000
00000001
00000000
00001000
00000100
00001000
00000000
,
00000100
00000000
00000000
00010000
00000000
00001000
00100000
00000000
00010000
00000000
10000000
00000000
,
00010000
00000000
10000000
00100000
10000000
00010000
00100000
00000000
00010000
00000000
00100000
00000000
,
00001000
00000000
00010000
00001000
00010000
00000010
00000100
00000000
00000001
00000000
00001000
00000000
,
00001002
00000000
00000000
00001003
00000100
00000001
00000200
00000000
00000000
00001300
00000100
00010000
,
00002000
00000000
00000000
01003000
00100000
00010000
00100000
00000000
01000000
00010000
10000000
00100000
,
20000000
00000000
00000000
30100000
00010000
00100000
20000000
00000000
00000000
31000000
00010000
01000000
,
00100000
00000000
00000000
00010000
00100000
00001000
00010000
00000000
00001000
00000000
00010000
00000000
,
00010200
00000000
00000000
00001300
00000010
00000001
00000020
00000000
00000000
00000130
00000001
00000100
,
00002000
00000000
00000000
00003100
00000010
00010000
00001000
00000000
00010000
00000000
00001000
00000000
,
00012000
00000000
00000000
01003000
00100000
00010000
00200000
00000000
00000000
10300000
00100000
01000000
,
20000000
00000000
00000000
31000000
00100000
10000000
00010000
00000000
00100000
00000000
00101000
00000000
;
