#TITLE:I Wanna Be Your Ghost (feat. Ghosts);
#SUBTITLE:;
#ARTIST:Gen Hoshino;
#TITLETRANSLIT:;
#SUBTITLETRANSLIT:;
#ARTISTTRANSLIT:;
#GENRE:;
#CREDIT:;
#MUSIC:I Wanna Be Your Ghost.ogg;
#BANNER:I Wanna Be Your Ghost-banner.avi;
#BACKGROUND:I Wanna Be Your Ghost-bg.png;
#CDTITLE:;
#SAMPLESTART:45.342;
#SAMPLELENGTH:14.538;
#SELECTABLE:YES;
#OFFSET:-1.034;
#BPMS:0.000=130.000;
#STOPS:;
#BGCHANGES:-2.240=I Wanna Be Your Ghost.avi=1.000=1=0=0=StretchNoLoop==CrossFade==,
99999.000=-nosongbg-=1.000=0=0=0=StretchNoLoop====
;
#FGCHANGES:;

//--------------- dance-single - ----------------
#NOTES:
     dance-single:
     :
     Beginner:
     2:
     0.094899,0.180756,0.064809,0.056708,0,82,74,8,7,0,0,0.094899,0.180756,0.064809,0.056708,0,82,74,8,7,0,0:
0000
0000
0000
0000
,
0000
0000
0000
0000
,
0000
0000
0000
0000
,
0000
0000
0000
0000
,
0000
0000
0000
0000
,
0000
0000
0000
0000
,
0000
0000
0000
0000
,
0000
0000
0000
0000
,
1001
0000
0000
0000
,
0001
0000
0000
0000
,
1000
0000
0000
0000
,
0001
0000
0000
0000
,
1001
0000
0000
0000
,
1000
0000
0000
0000
,
0001
0000
0000
0000
,
1000
0000
0000
0000
,
2000
0000
3000
0000
,
0200
0000
0300
0000
,
0002
0000
0003
0000
,
0200
0000
0300
0000
,
2000
0000
3000
0000
,
0020
0000
0030
0000
,
0002
0000
0003
0000
,
0010
0000
0010
0000
,
1001
0000
0000
0000
,
1000
0000
0000
0000
,
0010
0000
0010
0000
,
0010
0000
0000
0000
,
1001
0000
0000
0000
,
0001
0000
0000
0000
,
0100
0000
0100
0000
,
0100
0000
0000
0000
,
0001
0000
0010
0000
,
0001
0000
0000
0000
,
1000
0000
0010
0000
,
1000
0000
0000
0000
,
0001
0000
0100
0000
,
0001
0000
0000
0000
,
1000
0000
0100
0000
,
1000
0000
0000
0000
,
0000
0000
0000
0000
,
0000
0000
0000
0000
,
0000
0000
0000
0000
,
0000
0000
0000
0000
,
1000
0000
0100
0000
,
0010
0000
0001
0000
,
0100
0000
0010
0000
,
1000
0000
0001
1000
,
1001
0000
0000
0000
,
0001
0001
0001
0000
,
1000
0000
0100
0000
,
0010
0000
0001
0000
,
1001
0000
0000
0000
,
0001
0000
0000
0000
,
0001
0000
0100
0000
,
0010
0000
1000
0000
,
1001
0000
0000
0000
,
0000
0000
0000
0000
,
1000
1000
1000
0000
,
0000
0000
0000
0000
,
0001
0001
0001
0000
,
0000
0000
0000
0000
,
0010
0000
0010
0000
,
0100
0000
0100
1001
;

//--------------- dance-single - ----------------
#NOTES:
     dance-single:
     :
     Easy:
     5:
     0.225674,0.284045,0.137719,0.194426,0,195,178,17,24,0,0,0.225674,0.284045,0.137719,0.194426,0,195,178,17,24,0,0:
0000
0000
0000
0000
,
0000
0000
0000
0000
,
0000
0000
0000
0000
,
0000
0000
0000
0000
,
0000
0000
0000
0000
,
0000
0000
0000
0000
,
0000
0000
0000
0000
,
0000
0000
0000
0000
,
0001
0000
0000
0001
0000
0000
0000
0000
,
1000
0000
0000
1000
0000
0000
0000
0000
,
0100
0000
0010
0000
,
0001
1000
0010
0100
,
0010
0000
0000
0010
0000
0000
0000
0000
,
0100
0000
0000
0100
0000
0000
0000
0000
,
0001
0000
1000
0000
,
1000
0010
0100
0001
,
2000
0000
0001
0001
,
3002
0000
1000
1000
,
0103
0010
1000
0001
,
0020
0000
0100
0130
,
0220
0000
0000
0330
,
2002
0000
0000
3003
,
2000
0000
3200
0000
,
1300
0010
1000
0001
,
1001
0001
0100
0001
,
1000
0100
2000
3000
,
1000
0100
0100
0010
,
0010
0001
0001
1000
,
1001
1000
0010
1000
,
0001
0010
0002
0003
,
0001
0100
0100
0010
,
0010
0220
0000
0330
,
1000
0100
0010
0100
,
1000
0001
0200
0300
,
0001
1000
0001
0000
,
1000
0001
1000
0000
,
0001
0100
0010
0100
,
0001
1000
0200
0300
,
1000
0100
1000
0000
,
0001
0010
0001
0000
,
1001
0000
1100
0000
,
1001
0001
1000
0010
,
1000
0100
0010
0001
,
1000
2000
0000
3010
,
1000
0001
1000
0100
,
1000
0001
0100
0001
,
0010
0010
0100
0100
,
1000
1000
0001
1000
,
1001
0000
0000
0000
,
0200
0300
0200
0300
0200
0000
0300
0000
,
1001
0001
0100
0001
,
1000
0100
1000
0001
,
1001
0001
0010
0001
,
1000
0010
1000
0100
,
2000
0000
0001
3000
0002
0000
1000
0003
,
0110
2002
0000
3003
,
0001
0100
0100
0001
,
1000
0100
0010
0100
,
1000
0001
0001
1000
,
0010
0100
0002
0003
,
1000
0100
0100
1000
,
0001
0000
0100
0000
0010
0000
0100
0001
,
0000
0000
0000
1001
0000
0000
0000
0110
,
0000
0000
0110
1001
;

//--------------- dance-single - ----------------
#NOTES:
     dance-single:
     :
     Medium:
     8:
     0.341404,0.387334,0.226831,0.599482,0,295,267,28,74,0,0,0.341404,0.387334,0.226831,0.599482,0,295,267,28,74,0,0:
0000
0000
0000
0000
,
0000
0000
0000
0000
,
0000
0000
0000
0000
,
0000
0000
0000
0000
,
2000
0001
0100
3001
,
1000
0100
0010
0001
1000
0010
1000
0020
,
0000
0130
0010
0200
0000
0301
0010
0002
,
0000
0013
0100
0010
0100
0000
0110
0000
,
1001
0000
0000
0002
0000
0000
0000
0100
,
0000
0000
0000
1000
0000
0000
0013
0000
,
0002
0023
0230
2300
,
3001
1000
0001
0000
1000
0001
1000
0000
,
2000
0000
0000
0100
0000
0000
0000
0001
,
0000
0000
0000
0010
0000
0000
3001
0000
,
2000
3020
0230
0302
,
1003
0001
1000
0000
0001
1000
0001
0000
,
2000
3200
0302
0203
,
2300
3020
0032
0023
,
2030
3100
0200
0310
,
0020
0000
0031
0000
0001
0100
0001
0000
,
0002
0203
2300
3200
,
0302
0023
2030
3020
,
0032
0003
2002
3003
,
1010
0000
1010
0000
1000
0010
0100
0001
,
1000
0100
0001
0100
,
1000
0000
0010
0000
0200
0001
0301
0000
,
1000
0100
1000
0000
0001
0100
0001
0000
,
1000
0010
0001
0010
,
1000
0001
0100
1000
,
0100
0000
0001
0000
0010
0001
1000
0000
,
1000
0010
1000
0000
0001
0010
0001
0000
,
1001
2002
0000
3003
,
0001
0100
1000
0100
,
0001
0000
0010
0000
0200
1000
1300
0000
,
0001
0100
0001
0000
1000
0100
1000
0000
,
0001
0010
1000
0010
,
0001
1000
0100
0001
,
0100
0000
1000
0000
0010
1000
0001
0000
,
0001
0010
0001
0000
1000
0010
1000
0000
,
1001
0220
0000
0330
,
2002
3003
2200
3300
,
0001
0100
0001
0100
0010
1000
0010
1000
,
0100
0100
0010
0010
,
0001
1000
0001
1000
0010
0100
0010
0100
,
0001
0002
0023
0230
,
2300
3020
0230
0302
,
1003
0000
0001
1000
0001
0100
0010
0000
,
1000
0100
0010
0000
0001
1000
0010
1000
,
0001
0000
0000
0000
,
2000
0000
3002
0000
2003
3000
2002
3003
,
1000
0001
0100
0000
0001
1000
0100
0000
,
1000
0010
0001
0010
,
1000
0001
1001
0101
,
1100
0110
0012
1003
,
1000
0001
0010
0000
0001
1000
0010
0000
,
0100
0220
0000
0330
,
1001
1001
2002
3003
,
1000
0100
1000
0100
0010
0001
1000
0000
,
1001
1001
2002
3003
,
0001
0100
0001
0100
0020
1000
1030
0000
,
2000
3200
0302
0203
,
2300
3020
0032
0023
,
1030
0000
1000
1100
0000
0000
0001
0101
,
0000
0000
0110
1001
;

//--------------- dance-single - ----------------
#NOTES:
     dance-single:
     :
     Hard:
     11:
     0.477965,0.543331,0.348347,0.405055,0.07696,413,370,43,50,0,0,0.477965,0.543331,0.348347,0.405055,0.07696,413,370,43,50,0,0:
0000
0000
0000
0000
,
0000
0000
0000
0000
,
0000
0000
0000
0000
,
0000
0000
0000
0000
,
0101
0000
1100
0000
0202
0000
0303
1000
,
0001
0000
0100
0000
0010
1000
0010
0000
0100
0000
0001
0000
0010
0000
0022
0000
,
0033
1000
0010
1000
0001
0100
0001
1000
,
0100
0000
1000
0000
0001
0000
0010
0000
0001
1000
0001
0000
1000
0001
1000
0000
,
1001
0000
0000
1001
0000
0000
1000
1100
,
0000
0000
0001
0101
0000
0000
1001
0000
,
0001
0100
1000
0100
0001
0010
0100
1000
,
0020
0000
0000
0000
0130
0000
0001
0000
1000
0100
0010
0000
0001
0000
1000
0000
,
1001
0000
0000
1001
0000
0000
0001
0011
,
0000
0000
1000
1010
0000
0000
1001
0000
,
1000
0100
0001
0100
1000
0010
0100
0001
,
0020
0000
0000
0000
0130
0000
1000
0000
0001
0100
0010
0000
1000
0000
0001
0000
,
0010
0000
0010
0000
0001
1000
0001
1000
,
0010
0000
0010
0000
1000
0001
0010
0200
,
0000
0301
0100
2000
0000
3010
0100
2000
,
0000
3100
0001
1000
0100
0010
0002
0000
,
1003
0000
1000
0000
0001
0100
0001
0200
,
0000
0310
1000
0020
0000
1030
0001
0010
,
0200
0000
0000
1000
2000
0000
3300
0000
,
1001
0000
0110
0000
1001
1000
0001
0010
,
0200
1000
0010
0001
,
0320
0000
0100
0000
0032
1000
1003
0000
,
0001
0100
2000
0000
3100
0100
0001
0010
,
1000
0001
0100
1000
0001
0100
0010
1000
,
0001
2001
3100
1002
,
0103
0000
0110
0000
1001
1000
0010
0100
,
0001
1000
0200
0000
0301
0001
0100
1000
,
0010
0100
0110
0000
1001
0001
1000
0010
,
0200
0001
0010
1000
,
0320
0000
0100
0000
2030
0001
3001
0000
,
1000
0100
0002
0000
0103
0100
1000
0010
,
0001
1000
0100
0001
1000
0100
0010
0001
,
1000
2001
3010
1002
,
0013
0000
0110
0000
1001
0001
0010
0100
,
1000
0001
0200
0000
1000
1300
0100
0001
,
1000
0100
0220
0330
1001
1000
0010
0100
,
0002
1003
2000
3001
,
0001
0100
1000
0100
0010
0100
0001
0010
,
0100
0000
1000
0000
0001
0100
0010
0000
2000
0000
0000
0100
0000
0000
3001
0000
,
0000
0002
0023
0230
,
1300
0000
0000
1000
0010
0000
0000
0010
0100
0000
0000
0100
0001
0000
0000
0001
,
0010
0000
0000
0010
0100
0000
0000
0100
1000
0000
0000
1000
0001
0000
0000
0001
,
0100
1000
0100
0001
1000
0100
0010
0001
,
1000
0001
1000
0000
0001
0100
0001
0000
1000
0100
1000
0000
0100
0010
0002
0000
,
0103
0000
0000
0000
,
1001
0110
2002
3003
,
1000
0100
0002
0000
0103
0100
1000
0010
,
0001
0010
0100
1000
0100
0010
1000
0001
,
0010
1002
0100
0013
,
2010
0000
0100
0000
3001
1000
0010
1000
,
0100
0001
0200
0000
1300
0010
0001
0010
,
1000
0001
1001
0000
1000
0100
0010
0001
,
1000
0000
0101
0000
2200
0000
3300
1000
,
0001
0010
0001
0100
0001
1000
0100
0010
,
0011
0000
1010
0000
0022
0000
0033
0001
,
1000
0010
0001
0010
2000
0001
3001
0000
,
1001
0000
0110
0000
2002
0000
3003
0001
,
1000
0010
1000
0100
1000
0001
0100
0010
,
1000
0100
0001
0100
1000
0010
0001
1000
,
0100
0001
1000
0100
0010
0001
0100
1000
;
