#VERSION:0.83;
#TITLE:I Am Your Grandma [MODS-];
#SUBTITLE:A Video Diary Log;
#ARTIST:Jillian Mayer;
#TITLETRANSLIT:;
#SUBTITLETRANSLIT:;
#ARTISTTRANSLIT:;
#GENRE:;
#CREDIT:;
#MUSIC:I Am Your Grandma.ogg;
#BANNER:I Am Your Grandma-bn.png;
#BACKGROUND:I Am Your Grandma-bg.png;
#CDTITLE:;
#SAMPLESTART:9.097;
#SAMPLELENGTH:9.409;
#SELECTABLE:YES;
#OFFSET:-0.506;
#BPMS:0.000=110.000;
#STOPS:35.000=0.042
,35.063=0.042
,35.125=0.042
,35.188=0.042
,35.250=0.042
,35.313=0.042
,35.375=0.042
,35.438=0.042
,35.500=0.042
,35.563=0.042
,35.625=0.042
,35.688=0.042
,35.750=0.042
,35.813=0.042
,35.875=0.042
,35.938=0.042
,36.000=0.042
,36.063=0.042
,36.125=0.042
;
#SPEEDS:0.000=1.000=0.000=0;
#SCROLLS:0.000=1.000;
#TICKCOUNTS:0.000=4;
#TIMESIGNATURES:0.000=4=4;
#LABELS:0.000=Song Start;
#ATTACKS:TIME=28.310:LEN=2.750:MODS=*200 bumpy :TIME=12.790:LEN=1.000:MODS=*700 Beat :TIME=32.680:LEN=2.750:MODS=*200 beat :TIME=37.040:LEN=0.750:MODS=*200 bumpy
;
#COMBOS:0.000=1;
#ORIGIN:;
#PREVIEWVID:;
#JACKET:;
#CDIMAGE:;
#DISCIMAGE:;
#BGCHANGES:-1.506=I Am Your Grandma.avi=1.000=0=0=0=StretchNoLoop====,
99999.000=-nosongbg-=1.000=0=0=0=StretchNoLoop====
;
#FGCHANGES:;

//--------------- dance-single - NOWHERE Dance Club ----------------
#NOTEDATA:;
#STEPSTYPE:dance-single;
#DESCRIPTION:NOWHERE Dance Club;
#DIFFICULTY:Medium;
#METER:8;
#RADARVALUES:0.232449,0.354427,0.161103,0.161103,0.144993,101,91,10,10,40,10,0,0,0,0.232449,0.354427,0.161103,0.161103,0.144993,101,91,10,10,40,10,0,0,0;
#CHARTNAME:;
#CHARTSTYLE:;
#CREDIT:;
#NOTES:
0000
0000
0000
0000
,
0000
0000
0000
0000
,
0000
0000
0000
0000
,
0000
0000
0000
0000
,
0001
1000
0000
0000
0000
0001
0000
0010
0000
0200
0000
0000
,
0000
0000
0000
0000
0000
1300
0010
0100
,
0001
1000
1001
0000
0000
0000
1000
0100
,
0010
0000
0001
0100
0010
0000
1000
0100
,
0001
0000
0000
0000
0000
0000
0000
0000
0000
0000
0000
0000
0100
0000
0000
0000
0000
0000
0000
0000
0000
0000
0000
0000
1000
0000
0000
0000
0000
0000
0000
0000
0000
0000
0000
0000
0010
0000
0000
0000
0000
0000
0000
0000
0000
0000
0000
0000
1000
0000
0000
0000
0000
0000
0000
0000
0000
0000
0000
0000
0100
0000
0000
0000
0000
0000
0000
0000
0000
0000
0000
0000
2000
0000
0000
0M00
00M0
0000
0000
00M0
0000
0M00
00M0
0000
0M0M
0000
00M0
0M00
000M
00M0
000M
0M00
0M00
000M
00M0
0000
,
000M
0000
0M00
3000
0000
0000
0000
0000
0000
0000
0000
0000
0000
0000
0000
0000
0000
0000
0000
0000
0000
0000
0000
0000
1001
0000
0000
0000
0000
0000
0000
0000
0000
0000
0000
0000
0000
0000
0000
0000
0000
0000
0000
0000
0000
0000
0000
0000
0000
0000
0000
0000
0000
0000
0000
0000
0000
0000
0000
0000
0000
0000
0000
0000
0000
0000
0000
0000
0000
0000
0000
0000
0000
0000
0000
0000
0000
0000
0000
0000
0000
0000
0000
0000
0000
0000
0000
0000
0000
0000
0000
0000
0000
0000
0000
0000
1000
0000
0000
0000
0000
0000
0000
0000
0000
0000
0000
0000
0000
0000
0000
0000
0000
0000
0000
0000
0000
0000
0000
0000
0100
0000
0000
0000
0000
0000
0000
0000
0000
0000
0000
0000
0000
0000
0000
0000
0000
0000
0000
0000
0000
0000
0000
0000
0100
0000
0000
0000
0000
0000
0000
0000
0000
0000
0000
0000
0000
0000
0000
0000
0000
0000
0000
0000
0000
0000
0000
0000
0010
0000
0000
0000
0000
0000
0000
0000
0000
0000
0000
0000
0000
0000
0000
0000
0000
0000
0000
0000
0000
0000
0000
0000
,
0001
0000
0000
0011
0000
0001
0100
0010
,
0010
0010
1010
0000
1000
0010
0100
0001
,
0010
0000
0000
2002
0000
0000
0010
0000
,
0000
0000
0000
3013
,
0000
MMMM
0000
2002
0000
0000
0100
0000
,
0000
0000
0000
3103
,
0000
MMMM
0000
0202
0000
0000
0010
0000
,
0303
0000
0001
0100
0010
0000
1000
0100
,
0010
0000
0001
0200
0020
0000
1000
0000
,
1000
0000
0000
0000
0000
0000
0000
0000
0000
0001
0000
0000
0001
0000
0000
0000
0000
0000
1000
0330
0000
0000
0000
0000
,
MMMM
0000
MMMM
1001
0000
0001
0100
0010
,
1000
1100
0000
0000
0001
0010
0100
1000
,
0001
0011
0000
0001
0000
0100
0010
1000
,
0010
1000
0010
0000
1000
0010
0100
0001
,
1000
0001
0000
0000
0000
0000
0000
0000
,
0000
0000
0000
0000
,
0000
0000
0000
0000
,
0000
0MM0
0000
M00M
0MM0
0000
0000
0000
;

//--------------- dance-single - NOWHERE Dance Club ----------------
#NOTEDATA:;
#STEPSTYPE:dance-single;
#DESCRIPTION:NOWHERE Dance Club;
#DIFFICULTY:Hard;
#METER:9;
#RADARVALUES:0.23475,0.398731,0.225545,0.177214,0.153048,102,88,14,11,38,9,0,0,0,0.23475,0.398731,0.225545,0.177214,0.153048,102,88,14,11,38,9,0,0,0;
#CHARTNAME:;
#CHARTSTYLE:;
#CREDIT:;
#NOTES:
0000
0000
0000
0000
,
0000
0000
0000
0000
,
0000
0000
0000
0000
,
0000
0000
0000
0000
,
0001
1000
0000
0000
0000
0001
0000
0010
0000
0200
0000
0000
,
0000
0000
0000
0000
0000
1300
0010
0100
,
0001
1000
1100
0000
0000
0000
1000
0100
,
0010
0000
0001
0100
0010
0000
1000
0100
,
0001
0000
0000
0000
0000
0000
0000
0000
0000
0000
0000
0000
0100
0000
0000
0000
0000
0000
0000
0000
0000
0000
0000
0000
1000
0000
0000
0000
0000
0000
0000
0000
0000
0000
0000
0000
0010
0000
0000
0000
0000
0000
0000
0000
0000
0000
0000
0000
1000
0000
0000
0000
0000
0000
0000
0000
0000
0000
0000
0000
0100
0000
0000
0000
0000
0000
0000
0000
0000
0000
0000
0000
2000
0000
0000
0M00
00M0
0000
000M
00M0
0000
0M00
00M0
0000
0M0M
0000
00M0
0M00
000M
00M0
000M
0M00
0M00
000M
00M0
0000
,
000M
0000
0M00
3000
0000
0000
0000
0000
0000
0000
0000
0000
0000
0000
0000
0000
0000
0000
0000
0000
0000
0000
0000
0000
1001
0000
0000
0000
0000
0000
0000
0000
0000
0000
0000
0000
0000
0000
0000
0000
0000
0000
0000
0000
0000
0000
0000
0000
0000
0000
0000
0000
0000
0000
0000
0000
0000
0000
0000
0000
0000
0000
0000
0000
0000
0000
0000
0000
0000
0000
0000
0000
0000
0000
0000
0000
0000
0000
0000
0000
0000
0000
0000
0000
0000
0000
0000
0000
0000
0000
0000
0000
0000
0000
0000
0000
1000
0000
0000
0000
0000
0000
0000
0000
0000
0000
0000
0000
0000
0000
0000
0000
0000
0000
0000
0000
0000
0000
0000
0000
0010
0000
0000
0000
0000
0000
0000
0000
0000
0000
0000
0000
0000
0000
0000
0000
0000
0000
0000
0000
0000
0000
0000
0000
0100
0000
0000
0000
0000
0000
0000
0000
0000
0000
0000
0000
0000
0000
0000
0000
0000
0000
0000
0000
0000
0000
0000
0000
0001
0000
0000
0000
0000
0000
0000
0000
0000
0000
0000
0000
0000
0000
0000
0000
0000
0000
0000
0000
0000
0000
0000
0000
,
0011
0000
0000
0021
0000
0031
0100
1000
,
0100
0001
0010
0000
0001
0100
0010
1000
,
0010
0000
0000
0202
0000
0000
1000
0000
,
0000
0000
0000
1303
,
0000
MMMM
0000
2002
0000
0000
0010
0000
,
0000
0000
0000
3013
,
0000
MMMM
0000
2200
0000
0000
0010
0000
,
3300
0000
0001
0100
0010
0000
1000
0100
,
0010
0000
0000
0220
0000
0000
1000
0000
,
0000
0000
0000
0000
0000
0000
0000
0000
0000
0001
0000
0000
0000
0000
0000
1000
0000
0000
0001
0330
0000
0000
0000
0000
,
0000
MMMM
0000
1001
0000
0001
0100
0010
,
1000
1010
0000
0000
1000
0100
0010
0001
,
1000
1001
0000
0001
0000
0100
0010
0100
,
0110
0110
0110
0000
100M
0100
0001
0010
,
1000
0001
0000
0000
0000
0000
0000
0000
,
0000
0000
0000
0000
,
0000
0000
0000
0000
,
0000
0MM0
0000
M00M
0MM0
0000
0000
0000
;

//--------------- dance-single - NOWHERE Dance Club ----------------
#NOTEDATA:;
#STEPSTYPE:dance-single;
#DESCRIPTION:NOWHERE Dance Club;
#DIFFICULTY:Challenge;
#METER:10;
#RADARVALUES:0.239353,0.398731,0.209434,0.225545,0.169158,104,90,13,14,43,12,0,0,0,0.239353,0.398731,0.209434,0.225545,0.169158,104,90,13,14,43,12,0,0,0;
#CHARTNAME:;
#CHARTSTYLE:;
#CREDIT:;
#NOTES:
0000
0000
0000
0000
,
0000
0000
0000
0000
,
0000
0000
0000
0000
,
0000
0000
0000
0000
,
0001
1000
0000
0000
0000
0001
0000
0010
0000
0200
0000
0000
,
0000
0000
0000
0000
0000
1300
0010
0100
,
0001
1000
1101
0000
0000
0000
1000
0100
,
0010
0000
0001
0100
0010
0000
1000
0100
,
0001
0000
0000
0000
0000
0000
0000
0000
0000
0000
0000
0000
0100
0000
0000
0000
0000
0000
0000
0000
0000
0000
0000
0000
1000
0000
0000
0000
0000
0000
0000
0000
0000
0000
0000
0000
0010
0000
0000
0000
0000
0000
0000
0000
0000
0000
0000
0000
0100
0000
0000
0000
0000
0000
0000
0000
0000
0000
0000
0000
0001
0000
0000
0000
0000
0000
0000
0000
0000
0000
0000
0000
2000
0000
0000
0M00
00M0
0000
000M
00M0
0000
0M00
00M0
0000
0M0M
0000
00M0
0M00
000M
00M0
000M
0M00
0M00
000M
00M0
0000
,
000M
0000
0M00
3000
0000
0000
0000
0000
0000
0000
0000
0000
0000
0000
0000
0000
0000
0000
0000
0000
0000
0000
0000
0000
1001
0000
0000
0000
0000
0000
0000
0000
0000
0000
0000
0000
0000
0000
0000
0000
0000
0000
0000
0000
0000
0000
0000
0000
0000
0000
0000
0000
0000
0000
0000
0000
0000
0000
0000
0000
0000
0000
0000
0000
0000
0000
0000
0000
0000
0000
0000
0000
0000
0000
0000
0000
0000
0000
0000
0000
0000
0000
0000
0000
0000
0000
0000
0000
0000
0000
0000
0000
0000
0000
0000
0000
1000
0000
0000
0000
0000
0000
0000
0000
0000
0000
0000
0000
0000
0000
0000
0000
0000
0000
0000
0000
0000
0000
0000
0000
0100
0000
0000
0000
0000
0000
0000
0000
0000
0000
0000
0000
000M
0000
0000
0000
0000
0000
0000
0000
0000
0000
0000
0000
0100
0000
0000
0000
0000
0000
0000
0000
0000
0000
0000
0000
0000
0000
0000
0000
0000
0000
0000
0000
0000
0000
0000
0000
0001
0000
0000
0000
0000
0000
0000
0000
0000
0000
0000
0000
0000
0000
0000
0000
0000
0000
0000
0000
0000
0000
0000
0000
,
0010
0000
0000
0011
0000
0010
0100
1000
,
0010
M000
0010
0000
0001
0000
0000
0000
0100
0000
0001
0000
0010
0000
0001
0000
,
1000
0000
0000
0202
0000
0000
1000
0000
,
0000
0000
0000
1303
,
0000
MMMM
0000
2002
0000
0000
0010
0000
,
0000
0000
0000
3013
,
0000
MMMM
0000
2200
0000
0000
0010
0000
,
3300
0000
0001
0100
0010
0000
1000
0100
,
0010
0000
0001
0200
0020
0000
1000
0000
,
1000
0000
0000
0000
0000
0000
0001
0000
0000
0001
0000
0000
0001
0000
0000
0000
0000
0000
1000
0330
0000
0000
0000
0000
,
MMMM
0000
MMMM
1001
0000
0001
0100
0010
,
2200
3300
0000
0000
0001
0010
0100
1000
,
0022
0033
0000
1000
0000
0100
0010
0101
,
1010
0101
1010
0000
0001
0100
1000
0010
,
0001
1000
0000
0000
0000
0000
0000
0000
,
0000
0000
0000
0000
,
0000
0000
0000
0000
,
0000
0MM0
0000
M00M
0MM0
0000
0000
0000
;
