#VERSION:0.83;
#TITLE:Heads Will Roll [MODS+];
#SUBTITLE:;
#ARTIST:Yeah Yeah Yeahs;
#TITLETRANSLIT:;
#SUBTITLETRANSLIT:;
#ARTISTTRANSLIT:;
#GENRE:;
#ORIGIN:;
#CREDIT:;
#BANNER:Heads Will Roll-banner.png;
#BACKGROUND:Heads Will Roll-bg.png;
#PREVIEWVID:;
#JACKET:Heads Will Roll-jacket.png;
#CDIMAGE:;
#DISCIMAGE:;
#LYRICSPATH:;
#CDTITLE:;
#MUSIC:Heads Will Roll.ogg;
#OFFSET:-0.170000;
#SAMPLESTART:87.420006;
#SAMPLELENGTH:12.000000;
#SELECTABLE:YES;
#DISPLAYBPM:132.000000;
#BPMS:0.000=131.983;
#STOPS:;
#DELAYS:;
#WARPS:;
#TIMESIGNATURES:0.000=4=4;
#TICKCOUNTS:0.000=4;
#COMBOS:0.000=1;
#SPEEDS:0.000=1.000=0.000=0;
#SCROLLS:0.000=1.000;
#FAKES:;
#LABELS:0.000=Song Start;
#BGCHANGES:;
#FGCHANGES:16.000=face=1.000=0=0=1=====,
32.000=face=1.000=0=0=1=====,
48.000=face=1.000=0=0=1=====,
64.000=face=1.000=0=0=1=====,
80.000=face=1.000=0=0=1=====,
96.000=face=1.000=0=0=1=====,
112.000=face=1.000=0=0=1=====,
128.000=face=1.000=0=0=1=====,
144.000=face=1.000=0=0=1=====,
160.000=face=1.000=0=0=1=====,
176.000=face=1.000=0=0=1=====,
192.000=face=1.000=0=0=1=====,
208.000=face=1.000=0=0=1=====,
224.000=face=1.000=0=0=1=====,
240.000=face=1.000=0=0=1=====,
256.000=face=1.000=0=0=1=====,
272.000=face=1.000=0=0=1=====,
;
#KEYSOUNDS:;
#ATTACKS:
;

//---------------dance-single - ----------------
#NOTEDATA:;
#CHARTNAME:;
#STEPSTYPE:dance-single;
#DESCRIPTION:;
#CHARTSTYLE:;
#DIFFICULTY:Hard;
#METER:12;
#RADARVALUES:0.461429,0.518163,0.193645,0.085204,0.127806,417.000000,392.000000,25.000000,11.000000,0.000000,0.000000,60.000000,0.000000,0.000000,0.461429,0.518163,0.193645,0.085204,0.127806,417.000000,392.000000,25.000000,11.000000,0.000000,0.000000,60.000000,0.000000,0.000000;
#CREDIT:BGS's Ghost;
#DISPLAYBPM:0.000000;
#NOTES:
0000
0000
0000
0000
,
0000
0000
0000
0000
,
0000
0000
0000
0000
,
0000
0000
0000
0000
,
2000
0000
3200
0000
,
0302
0000
0203
0000
,
2300
0000
3020
0000
,
0032
0000
0023
0000
,
1030
0000
0000
0001
1000
0001
0000
0000
0000
0000
0000
0000
,
0002
0000
0000
0013
,
0010
0000
0000
0001
1000
0001
0000
0000
0000
0000
0000
0000
,
0200
0000
0000
0301
,
1000
0100
1000
0000
0001
0000
0000
0000
,
0001
0100
0001
0000
1000
0000
0000
0000
,
1000
0000
0100
0000
1000
0000
0000
0000
0001
0000
0000
0000
1000
0000
0010
2000
,
0000
0000
0000
3100
,
1000
0100
1000
0100
0010
0000
0010
0000
,
0001
0000
0000
0000
0001
0000
0000
0000
0100
0000
0001
0100
0001
0000
0100
0000
,
0010
1000
0001
1000
0001
0010
0100
0000
,
1000
1000
0010
0000
0100
0100
0001
1000
,
0001
0010
0001
0000
0101
0000
0100
0000
,
0010
0000
0000
0000
1010
0000
0000
0000
1000
0000
0000
0000
0001
0000
0010
0001
,
0010
1001
0100
1001
,
0010
0000
1001
0000
1000
0100
1100
0000
,
0001
0100
0010
0000
1000
1000
0100
0000
,
0010
0000
0001
0000
0100
0010
0010
0000
,
1000
0000
0110
0000
0001
0100
0001
0000
,
1000
0000
0010
0000
1000
0000
0100
0010
,
0001
1000
0010
0000
0100
0000
0101
0000
,
0001
0000
0000
0000
1100
0000
0000
0000
1000
0000
0000
0000
0010
0000
1000
0001
,
1000
0100
0110
0010
,
0011
0000
0001
0000
0100
0010
0110
0010
,
1000
1000
0001
0001
0100
0100
0001
0001
,
1000
1000
0001
0001
0010
0010
0001
0001
,
1000
1000
0010
0000
0000
1010
0000
0101
,
0000
0000
1000
0100
0001
0100
1000
1000
,
0001
0001
1000
1000
0100
0100
1000
1000
,
0001
0001
1000
1000
0010
0010
1000
1000
,
0001
0000
0001
0000
0010
0000
0001
0010
0001
0000
0010
0000
0000
0000
1100
0000
,
0000
0000
1000
0100
0010
0100
1000
0001
,
4000
3040
4030
3040
0430
0340
0430
0340
,
0430
0304
0403
0304
0043
0034
0043
0034
,
0043
0430
0340
0430
4300
3400
4300
3400
,
4300
3004
4003
3004
0403
0304
0403
0304
,
0403
0340
0430
0340
4030
3040
4030
3040
,
4030
3400
4300
3400
0340
0034
0043
0034
,
0403
0304
0403
0304
4003
3040
4030
3040
,
0430
0340
0430
0340
1030
0000
1000
0000
,
1000
0000
0000
0000
0000
0000
0001
0000
1000
0000
0001
0000
0000
0000
0000
0000
0000
0000
0100
0000
0000
0010
0000
0000
,
1000
0100
1000
1000
0001
0000
0001
0000
,
0001
0000
0000
0000
0000
0000
0100
0000
0010
0000
0100
0000
0000
0000
0000
0000
0000
0000
0010
0000
0000
0010
0000
0000
,
1000
0100
0010
0001
0100
0000
0100
0000
,
0100
0000
0000
0000
0000
0000
0010
0000
1000
0000
0010
0000
0000
0000
0000
0000
0000
0000
1000
0000
0000
0100
0000
0000
,
0010
0001
1000
0001
0010
0000
0010
0000
,
0010
0000
0000
0000
0000
0000
0001
0000
0100
0000
0001
0000
0000
0000
0000
0000
0000
0000
1000
0000
0000
0100
0000
0000
,
1000
0010
0100
0001
0010
0000
0011
0000
,
0011
0000
0000
0000
0000
0000
0001
0000
1000
0000
0001
0000
0000
0000
0000
0000
0000
0000
0100
0000
0000
0010
0000
0000
,
1000
0100
0010
0100
1000
0000
1100
0000
,
1100
0000
0000
0000
0000
0000
0100
0000
0010
0000
0100
0000
0000
0000
0000
0000
0000
0000
1000
0000
0000
0010
0000
0000
,
0100
0001
1000
0100
0010
0000
0110
0000
,
0110
0000
0000
0000
0000
0000
0001
0000
0010
0000
0001
0000
0000
0000
0000
0000
0000
0000
1000
0000
0000
0010
0000
0000
,
0100
0010
1000
0001
0010
0000
0011
0000
,
0011
0000
0000
0000
0000
0000
1000
0000
0100
0000
1000
0000
0000
0000
0000
0000
0000
0000
0010
0000
0000
1000
0000
0000
,
0100
0010
0001
0100
0010
0000
0110
0000
,
1001
0000
1000
0000
0010
0000
1000
0001
1000
0000
1000
0000
0010
0000
0000
0000
,
0100
0000
0100
0000
0001
0000
0100
0010
0100
0000
0100
0000
0001
0000
0000
0000
,
0010
0000
0010
0000
0001
0000
0010
0100
0010
0000
0010
0000
0001
0000
0000
0000
,
1000
0000
1000
0000
0100
0000
1000
0001
1000
0000
1000
0000
0100
0000
0000
0000
,
0100
0000
0100
0000
1000
0000
0100
0010
0100
0000
0100
0000
1000
0000
0000
0000
,
0001
0000
0001
0000
0100
0000
0001
1000
0001
0000
0001
0000
0100
0000
0000
0000
,
0010
0000
0000
1000
0100
1000
0000
0000
0000
0000
0000
0000
;

//---------------dance-single - ----------------
#NOTEDATA:;
#CHARTNAME:;
#STEPSTYPE:dance-single;
#DESCRIPTION:;
#CHARTSTYLE:;
#DIFFICULTY:Challenge;
#METER:15;
#RADARVALUES:0.453683,0.545434,0.224629,0.092950,0.170408,410.000000,377.000000,29.000000,12.000000,5.000000,8.000000,38.000000,0.000000,0.000000,0.453683,0.545434,0.224629,0.092950,0.170408,410.000000,377.000000,29.000000,12.000000,5.000000,8.000000,38.000000,0.000000,0.000000;
#CREDIT:BGS's Ghost;
#DISPLAYBPM:132.000000;
#NOTES:
0000
0000
0000
0000
,
0000
0000
0000
0000
,
0000
0000
0000
0000
,
0000
0000
0000
0000
,
0002
0000
0203
0000
,
0320
0000
2030
0000
,
3200
0000
0320
0000
,
0032
0000
0003
0000
,
1001
0000
0000
1000
0010
1000
0000
0000
0000
0000
0000
0000
,
0002
0000
0000
0103
,
0110
0000
0000
0100
0001
0100
0000
0000
0000
0000
0000
0000
,
0002
0000
0000
0013
,
0001
0100
0001
0000
0101
0000
0000
0000
,
1000
1000
0010
0000
1010
0000
0000
0000
,
1000
0000
0001
0000
0001
0000
0000
0000
1001
0000
0000
0000
0001
0000
0100
0002
,
0000
0000
0000
0103
,
0001
0100
0010
0100
0001
1000
0010
0100
,
0010
0000
1000
0000
0001
0000
0010
0000
0001
0000
0100
01M0
1000
0000
0001
0000
,
0100
0001
1000
0100
0010
0001
0100
0010
,
0100
0001
0010
0100
1000
0001
0100
0010
,
1000
0100
0010
0100
1000
0010
0100
0001
,
0010
0000
0100
0000
1000
0000
0001
0000
0100
0000
0010
0000
1000
0000
0100
01M0
,
0001
0010
0100
0010
0001
0100
0010
0100
,
0001
1000
0100
0010
0100
1100
1001
0001
,
0010
0100
1000
0100
0010
0100
1000
0001
,
0100
0010
1000
0100
0010
0011
1001
1000
,
0001
0010
0100
0010
0001
0100
0010
1000
,
0001
0010
0100
1000
0010
1000
0100
0010
,
0001
0100
0010
0100
0001
1000
0010
1000
,
0100
0000
0010
0000
0001
0000
0100
0000
0010
0000
1000
0000
0001
0000
0010
0M10
,
1000
0100
0010
0100
1000
0001
0100
0010
,
1000
0001
0010
0100
1000
1010
0110
0100
,
0010
0000
0010
0000
1000
0000
0100
0000
0010
0000
0010
0000
0001
0000
0100
M100
,
0010
0010
0001
0100
0010
0010
1000
0100
,
0010
0010
0001
0001
2000
0101
0000
0101
,
3000
1000
0100
0010
0001
0100
0010
1000
,
0100
0100
0010
0001
0100
0100
0010
1000
,
0100
0100
0010
0001
0100
0100
0010
1000
,
0100
0000
0100
0000
0010
0000
0100
M100
0002
0000
1100
0000
0000
0000
1103
0000
,
0000
0000
0101
0000
0101
0000
1000
0100
,
0040
0004
0000
0000
0000
0000
0030
0003
4000
0004
0000
0000
0000
0000
0000
0003
,
0000
0400
0000
0000
0000
0000
3000
0000
0040
0000
0000
0000
0000
0000
0000
0300
,
0000
0004
0000
0000
0000
0000
0030
0000
4000
0000
0000
0000
0000
0000
0000
0003
,
0000
0040
0000
0000
0000
0000
3000
0000
0400
0000
0000
0000
0000
0000
0300
0030
,
4000
0004
0000
0000
0000
0000
3000
0003
0040
0400
0000
0000
0000
0000
0030
0000
,
4000
0000
0000
0000
0000
0000
3000
0300
0040
0004
0000
0000
0000
0000
0030
0003
,
4000
0040
0000
0000
0000
0000
3000
0030
0400
0004
0000
0000
0000
0000
0300
0000
,
4000
0000
0000
0000
0000
0000
3000
0003
0100
0000
0000
0000
0101
0000
0000
0000
,
0111
0000
0000
0000
0000
0000
0001
0000
1000
0000
0100
0000
0000
0000
0000
0100
0000
0000
0010
0000
0000
0010
0000
0000
,
0001
1000
0010
1000
0100
0000
1100
0000
,
1110
0000
0000
0000
0000
0000
0100
0000
0010
0000
0001
0000
0000
0000
0000
1000
0000
0000
0010
0000
0000
0010
0000
0000
,
0100
0001
1000
0100
0010
0000
0011
0000
,
1011
0000
0000
0000
0000
0000
0001
0000
0100
0000
0010
0000
0000
0000
0000
1000
0000
0000
0100
0000
0000
0100
0000
0000
,
1000
0010
0100
0001
0010
0000
0011
0000
,
0111
0000
0000
0000
0000
0000
0100
0000
1000
0000
0010
0000
0000
0000
0000
0100
0000
0000
0001
0000
0000
0001
0000
0000
,
1000
0100
1000
0100
0010
0000
0011
0000
,
0004
4000
0000
0000
0000
0000
0003
0000
0040
0000
0000
0000
0000
0000
0000
3000
,
0000
0400
0000
0000
0000
0000
0030
0000
0004
0000
0000
0000
0000
0000
0000
0300
,
0000
0040
0000
0000
0000
0000
0003
0000
0400
0000
0000
0000
0000
0000
0000
0000
,
0030
4000
0000
0000
0000
0000
0300
0000
0040
0000
0000
0000
0000
0000
0000
3000
,
0000
0400
0000
0000
0000
0000
0030
0000
0004
0000
0000
0000
0000
0000
0000
0300
,
0000
4000
0000
0000
0000
0000
0000
3000
0003
0000
0000
0000
0101
0000
0000
0000
,
0400
0004
0000
0000
0000
0000
0300
0000
4000
0000
0000
0000
0000
0000
0000
0003
,
0000
0400
0000
0000
0000
0000
0000
0300
3000
0000
0000
0000
1100
0000
0000
0000
,
1000
0000
0100
0000
0010
0000
0001
1000
0100
0000
1000
0000
0010
0000
0100
0000
,
0001
0000
1000
0000
0010
0000
1000
0100
0010
0000
0001
0000
0100
0000
0010
0000
,
0100
0000
0001
0000
0010
0000
0100
1000
0001
0000
0100
0000
0010
0000
0100
0000
,
0001
0000
1000
0000
0010
0000
1000
0100
0010
0000
0001
0000
0100
0000
0001
0000
,
1000
0000
0001
0000
0010
0000
0100
1000
0010
0000
0100
0000
0010
0000
1000
0000
,
0001
0000
1000
0000
0100
0000
0010
0100
0010
0000
0001
0000
0100
0000
0010
0000
,
1010
0000
0000
1000
0001
0100
0000
0000
0000
0000
0000
0000
;

//---------------dance-single - ----------------
#NOTEDATA:;
#CHARTNAME:;
#STEPSTYPE:dance-single;
#DESCRIPTION:;
#CHARTSTYLE:;
#DIFFICULTY:Medium;
#METER:9;
#RADARVALUES:0.340816,0.354532,0.007746,0.069712,0.058094,308.000000,307.000000,1.000000,9.000000,0.000000,0.000000,45.000000,0.000000,0.000000,0.340816,0.354532,0.007746,0.069712,0.058094,308.000000,307.000000,1.000000,9.000000,0.000000,0.000000,45.000000,0.000000,0.000000;
#CREDIT:BGS's Ghost;
#DISPLAYBPM:132.000000;
#NOTES:
0000
0000
0000
0000
,
0000
0000
0000
0000
,
0000
0000
0000
0000
,
0000
0000
0000
0000
,
0002
0003
0002
0003
,
2000
0000
3000
1000
,
0200
0300
0200
0300
,
0020
0000
0030
0010
,
0001
0000
0000
0100
0000
0100
0000
0000
0000
0000
0000
0000
,
0002
0000
0003
1000
,
1000
0000
0000
0100
0000
0100
0000
0000
0000
0000
0000
0000
,
0020
0000
0030
0100
,
1000
1000
0100
0000
0000
0000
1000
0000
,
0001
0001
0100
0000
0000
0000
0001
0000
,
0010
0000
0001
0000
0100
0000
0000
0000
0000
0000
0000
0000
0010
0000
0000
0020
,
0000
0000
0030
0010
,
1000
0100
1000
0000
0001
0000
0001
0000
,
0100
0000
0100
0000
0010
0000
1000
1000
,
1000
0000
0100
1000
0100
0000
0010
0000
,
0001
0000
0001
0000
1000
0000
1000
0010
,
1000
0010
1000
0000
0001
0000
0010
0000
,
0100
0000
0100
0000
1000
0000
0001
0001
,
0001
0100
0010
1000
,
0010
0000
0100
0000
0001
0010
0010
0000
,
0001
0001
1000
0000
0001
0001
1000
0000
,
0010
0000
1000
0000
0100
0010
0010
0000
,
0100
0100
1000
0000
0100
0100
1000
0000
,
0001
0000
0100
0000
0010
0000
1000
1000
,
0001
1000
1000
0000
0001
0000
0110
0000
,
0001
0000
0100
0000
0010
0000
1000
1000
,
1000
0100
0010
0001
,
0100
0000
0010
0000
0100
0001
0001
0000
,
1000
1000
0100
0000
1000
1000
0001
0000
,
1000
1000
0010
0000
1000
1000
0001
0000
,
1000
1000
0100
0000
0000
0010
0000
0010
,
0000
0000
0001
0000
1000
0001
1000
0000
,
0001
0001
0100
0000
0001
0001
1000
0000
,
0001
0001
0010
0000
0001
0001
1000
0000
,
0001
0001
0100
0000
0000
0010
0000
0010
,
0000
0000
1000
0000
0100
0010
0010
0000
,
0004
0403
0304
0003
4000
3400
4300
3000
,
0004
0403
0304
0003
4000
3400
4300
3000
,
0004
0043
0034
0003
4000
3040
4030
3000
,
0004
0043
0034
0003
4000
3040
4030
3000
,
0400
4300
3400
0300
0040
0034
0043
0030
,
0400
4300
3400
0300
0040
0034
0043
0030
,
0004
0403
0304
0003
4000
3040
4030
3000
,
0004
0403
0304
0003
1000
0000
1000
0000
,
1000
0000
0000
0001
0000
0001
0000
0000
0000
0100
0000
0000
,
0010
0000
1000
1000
0100
0000
0100
0000
,
0100
0000
0000
0010
0000
0010
0000
0000
0000
0001
0000
0000
,
0100
0000
0010
0010
0100
0000
0100
0000
,
0100
0000
0000
0001
0000
0001
0000
0000
0000
1000
0000
0000
,
0100
0000
0010
0000
0100
1000
1000
0000
,
1000
0000
0000
0010
0000
0010
0000
0000
0000
0100
0000
0000
,
0001
0000
1000
0000
0001
0010
0001
0010
,
0001
0000
0000
0100
0000
0100
0000
0000
0000
0010
0000
0000
,
1000
0000
0100
0100
1000
0000
0010
0010
,
1000
0000
0000
0001
0000
0001
0000
0000
0000
0100
0000
0000
,
0010
0000
1000
0100
1000
0000
1000
0000
,
1000
0000
0000
0000
0000
0000
0010
0000
0000
0000
0010
0000
0000
0000
0000
0000
0000
0000
0100
0000
0000
0100
0000
0000
,
0001
0000
1000
1000
0001
0000
0010
0010
,
0001
0000
0000
0100
0000
0100
0000
0000
0000
0010
0000
0000
,
1000
0000
0001
0010
0001
0000
0001
0000
,
0001
0000
0000
1000
0000
1000
0000
0000
0000
0010
0000
0000
,
0100
0100
0010
0000
1000
0000
1000
0000
,
1000
0000
0000
0001
0000
0001
0000
0000
0000
0010
0000
0000
,
0001
0100
0001
0000
0010
0000
0010
0000
,
0010
0000
0000
0100
0000
0100
0000
0000
0000
1000
0000
0000
,
0010
1000
0010
0000
0100
0000
0100
0000
,
0100
0000
0000
0010
0000
0010
0000
0000
0000
0000
0000
0000
;

//---------------dance-single - ----------------
#NOTEDATA:;
#CHARTNAME:;
#STEPSTYPE:dance-single;
#DESCRIPTION:;
#CHARTSTYLE:;
#DIFFICULTY:Easy;
#METER:6;
#RADARVALUES:0.232374,0.245445,0.046475,0.077458,0.003873,210.000000,204.000000,6.000000,10.000000,0.000000,0.000000,30.000000,0.000000,0.000000,0.232374,0.245445,0.046475,0.077458,0.003873,210.000000,204.000000,6.000000,10.000000,0.000000,0.000000,30.000000,0.000000,0.000000;
#CREDIT:BGS's Ghost;
#DISPLAYBPM:132.000000;
#NOTES:
0000
0000
0000
0000
,
0000
0000
0000
0000
,
0000
0000
0000
0000
,
0000
0000
0000
0000
,
2000
3000
2000
3000
,
0002
0000
0000
0003
,
2000
3000
0002
0003
,
2000
0000
0000
3000
,
0001
1001
0000
1000
,
0200
0000
0000
0300
,
1000
1001
0000
0001
,
0200
0000
0000
0300
,
0001
0011
0000
0000
,
1000
1010
0000
0000
,
0001
0101
0000
1000
,
1100
0000
0000
0000
,
1000
1000
0100
0010
,
0001
0001
1000
0001
,
0100
0100
0010
1000
,
0001
0001
0010
0001
,
0100
0100
0001
1000
,
0100
0100
0010
0001
,
0100
0010
0100
0010
,
1000
0100
1000
0000
,
0010
0100
0001
0010
,
0000
0010
0001
0100
,
0010
1000
0100
0010
,
0000
0100
1000
0010
,
0100
0001
1000
0000
,
0100
1000
0000
1000
,
0002
0000
0000
0003
,
2000
0000
0000
3000
,
0001
0001
0100
0100
,
0001
0001
1000
1000
,
0001
0001
0000
0010
,
0010
0000
0001
0000
,
1000
1000
0100
0100
,
1000
1000
0001
0001
,
1000
1000
0000
0010
,
0010
0100
0001
0010
,
0400
0300
4000
3000
0400
0300
4000
3000
,
0004
0003
0400
0300
0004
0003
0400
0300
,
0040
0030
4000
3000
0040
0030
4000
3000
,
0004
0003
0040
0030
0004
0003
0040
0030
,
0400
0300
0040
0030
0400
0300
0040
0030
,
0004
0003
4000
3000
0004
0003
4000
3000
,
0040
0030
0400
0300
0040
0030
0400
0300
,
0004
0003
4000
3000
0001
0000
0001
0000
,
0001
0100
0001
0000
,
1000
0000
0100
0100
,
0100
1000
0100
0000
,
0010
0000
0001
0001
,
0001
1000
0001
0000
,
0100
0000
0010
0010
,
0010
1000
0010
0000
,
1000
0000
1000
1000
,
1000
0001
1000
0000
,
0100
0000
0010
0010
,
0010
0001
0010
0000
,
0100
0000
1000
1000
,
1000
0010
1000
0000
,
0001
0000
0100
0100
,
0100
0001
0100
0000
,
0010
0000
1000
1000
,
1000
0100
0010
0000
,
0001
0000
0001
0001
,
0001
0100
0010
0000
,
1000
0000
1000
1000
,
1000
0100
0010
0000
,
0001
0000
0001
0001
,
0001
0000
0000
1000
0000
1000
0000
0000
0000
0000
0000
0000
;

//---------------dance-single - ----------------
#NOTEDATA:;
#CHARTNAME:;
#STEPSTYPE:dance-single;
#DESCRIPTION:;
#CHARTSTYLE:;
#DIFFICULTY:Beginner;
#METER:3;
#RADARVALUES:0.130572,0.162662,0.007746,0.000000,0.000000,118.000000,117.000000,1.000000,0.000000,0.000000,0.000000,8.000000,0.000000,0.000000,0.130572,0.162662,0.007746,0.000000,0.000000,118.000000,117.000000,1.000000,0.000000,0.000000,0.000000,8.000000,0.000000,0.000000;
#CREDIT:BGS's Ghost;
#DISPLAYBPM:132.000000;
#NOTES:
0000
0000
0000
0000
,
0000
0000
0000
0000
,
0000
0000
0000
0000
,
0000
0000
0000
0000
,
1000
0000
0001
0000
,
1000
0000
0000
0000
,
0001
0000
1000
0000
,
0001
0000
0000
0000
,
1000
1000
0000
0000
,
0001
0000
0000
0000
,
0100
0100
0000
0000
,
0001
0000
0000
0000
,
1000
1000
0000
0000
,
0010
0010
0000
0000
,
1000
1000
0000
0001
,
0001
0000
0000
0000
,
0000
0001
0000
0001
,
0000
0100
0000
0001
,
0000
1000
0000
1000
,
0000
0100
0000
1000
,
0000
0001
0000
0001
,
0000
0010
0000
0001
,
0000
1000
0000
1000
,
0000
0010
0000
1000
,
0000
0100
0000
0100
,
0000
0010
0000
0001
,
0000
0100
0000
0100
,
0000
0010
0000
1000
,
0000
0001
0000
0001
,
0000
1000
0000
0100
,
0000
1000
0000
1000
,
0000
0001
0000
0100
,
0100
0000
0100
0000
,
0010
0000
0010
0000
,
1000
0000
1000
0000
,
0001
0000
0001
0000
,
0010
0000
0010
0000
,
0100
0000
0100
0000
,
1000
0000
1000
0000
,
0001
0000
0000
0001
,
4000
3000
0000
0000
0000
0000
0000
0000
,
4000
3000
0000
0000
0000
0000
0000
0000
,
0004
0003
0000
0000
0000
0000
0000
0000
,
0004
0003
0000
0000
0000
0000
0000
0000
,
4000
3000
0000
0000
0000
0000
0000
0000
,
4000
3000
0000
0000
0000
0000
0000
0000
,
0004
0003
0000
0000
0000
0000
0000
0000
,
0004
0003
0000
0000
1000
0000
1000
0000
,
0000
1000
0000
0100
,
0000
1000
0000
0100
,
0000
0010
0000
0001
,
0000
0010
0000
0001
,
0000
1000
0000
0001
,
0000
1000
0000
0001
,
0000
0100
0000
0001
,
0000
0100
0000
0001
,
0000
1000
0000
0010
,
0000
1000
0000
0010
,
0000
0100
0000
0001
,
0000
0100
0000
0001
,
0000
1000
0000
0001
,
0000
1000
0000
0001
,
0000
1000
0000
0100
,
0000
1000
0000
0100
,
0100
0000
0000
0000
,
1000
0000
0000
0000
,
0001
0000
0000
0000
,
0100
0000
0000
0000
,
0010
0000
0000
0000
,
1000
0000
0000
0000
,
1001
0000
0000
0000
;

//---------------dance-double - ----------------
#NOTEDATA:;
#CHARTNAME:;
#STEPSTYPE:dance-double;
#DESCRIPTION:;
#CHARTSTYLE:;
#DIFFICULTY:Hard;
#METER:12;
#RADARVALUES:0.465855,0.518163,0.464749,0.085204,0.127806,421.000000,361.000000,60.000000,11.000000,0.000000,0.000000,60.000000,0.000000,0.000000,0.465855,0.518163,0.464749,0.085204,0.127806,421.000000,361.000000,60.000000,11.000000,0.000000,0.000000,60.000000,0.000000,0.000000;
#CREDIT:BGS's Ghost;
#DISPLAYBPM:132.000000;
#NOTES:
// measure 0
00000000
00000000
00000000
00000000
,  // measure 1
00000000
00000000
00000000
00000000
,  // measure 2
00000000
00000000
00000000
00000000
,  // measure 3
00000000
00000000
00000000
00000000
,  // measure 4
00000002
00000000
00000200
00000003
,  // measure 5
00000020
00000300
00020000
00000030
,  // measure 6
00002000
00030000
00200000
00003000
,  // measure 7
02000000
00300000
20000000
33000000
,  // measure 8
00110000
00000000
00000000
00100000
00001000
00010000
00000000
00000000
00000000
00000100
00000000
00000000
,  // measure 9
00000010
00000001
00000100
00000010
,  // measure 10
00001010
00000000
00000000
00001000
00000001
00001000
00000000
00000000
00000000
00010000
00000000
00000000
,  // measure 11
01000000
01000000
00100000
01000000
,  // measure 12
00010000
00100000
02000000
00000000
10000000
00000000
13000000
00000000
,  // measure 13
10000000
00100000
02000000
00000000
00001000
00000000
03001000
00000000
,  // measure 14
00010000
00000000
00000100
00000000
00000010
00000000
00000000
00000000
00000011
00000000
00000000
00000000
00000001
00000000
00001000
00000010
,  // measure 15
00000000
00000100
00000001
00000010
,  // measure 16
00000100
00010000
00001000
00000100
00000001
00000000
00000011
00000000
,  // measure 17
00000010
00000000
00000000
00000000
00000100
00000000
00000000
00000000
00010000
00000000
00001000
01000000
00010000
00000000
00100000
00000000
,  // measure 18
01000000
10000000
10000000
00000000
00010000
00010000
01000000
00000000
,  // measure 19
00100000
00000000
10100000
00000000
01000000
00000000
01010000
01000000
,  // measure 20
00001000
00010000
00001000
00000000
00000010
00000000
00000011
00000000
,  // measure 21
00000001
00000000
00000000
00000000
00000101
00000000
00000000
00000000
00000100
00000000
00000010
00000000
00001000
00000000
00000100
00000010
,  // measure 22
00000100
00010100
00010000
00010010
,  // measure 23
00000010
00000000
00000110
00000000
00000100
00001000
00010000
00100000
,  // measure 24
10000000
10000000
00010000
00000000
00100000
00100000
00010000
00000000
,  // measure 25
01000000
00000000
00100000
00000000
10000000
01000000
11000000
00000000
,  // measure 26
10000000
01000000
00010000
00000000
00001000
00000100
00000001
00000000
,  // measure 27
00000010
00000000
00000110
00000000
00000100
00000000
00010000
00001000
,  // measure 28
00010000
00000100
00010100
00000000
01001000
00000000
01000000
00010000
,  // measure 29
00100000
00000000
00000000
00000000
01000000
00000000
00000000
00000000
10000000
00000000
00010000
00000000
01000000
00000000
00100000
10000000
,  // measure 30
00100000
00000000
01100000
00000000
01000000
00010000
00100000
00000000
,  // measure 31
00001000
00000000
00010000
00000000
00000100
00000010
00000001
00000100
,  // measure 32
00000010
00010000
00000100
00001000
00000010
00010000
00000100
00001000
,  // measure 33
00000010
00010000
00000100
00001000
00000010
00010000
00000100
00001000
,  // measure 34
00000010
00010000
00000100
00000000
00000000
00001100
00000000
00011000
,  // measure 35
00000000
01000000
00010000
10000000
01000000
10000000
00010000
00000000
,  // measure 36
00100000
00001000
01000000
00010000
00100000
00001000
01000000
00010000
,  // measure 37
00100000
00001000
01000000
00010000
00100000
00001000
01000000
00010000
,  // measure 38
00100000
00000000
00001000
00000000
01000000
00000000
00010000
10000000
00010000
00000000
00110000
00000000
00000000
00000000
00021000
00000000
,  // measure 39
00000000
00001000
00000100
00031000
,  // measure 40
00400000
00340000
00430000
00340000
40030000
30400000
40300000
30400000
,  // measure 41
04300000
03004000
04003000
03004000
00043000
00030400
00040300
00030400
,  // measure 42
00000340
00000034
00000043
00000034
00004003
00003040
00004030
00003040
,  // measure 43
00000430
00000304
00000403
00000304
00040003
00030400
00040300
00030400
,  // measure 44
04000300
03004000
00043000
00034000
04003000
03040000
40030000
30040000
,  // measure 45
00430000
00304000
00043000
00034000
00403000
00300040
00040030
00030040
,  // measure 46
00004030
00003004
00000043
00000034
00004003
00003400
00000340
00000430
,  // measure 47
00040300
00030040
00004030
00003040
00010030
00000000
00011000
00000000
,  // measure 48
01010000
00000000
00000000
00000000
00000000
00000000
10000000
00000000
01000000
00000000
10000000
00000000
00000000
00000000
00000000
00000000
00000000
00000000
00010000
00000000
00000000
01000000
00000000
00000000
,  // measure 49
00100000
10000000
11000000
01010000
,  // measure 50
10010000
00000000
00000000
00001000
00010000
00001000
00000000
00000000
00000000
00000010
00000000
00000000
,  // measure 51
00000011
00000001
00000101
00000110
,  // measure 52
00000101
00000000
00000000
00001000
00000100
00001000
00000000
00000000
00000000
00000010
00000000
00000000
,  // measure 53
00010000
00001000
00101000
00110000
,  // measure 54
00101000
00000000
00000000
10000000
00100000
10000000
00000000
00000000
00000000
00010000
00000000
00000000
,  // measure 55
00110000
00100000
11000000
10010000
,  // measure 56
01010000
00000000
00000000
10000000
00010000
10000000
00000000
00000000
00000000
00100000
00000000
00000000
,  // measure 57
01000000
00001000
00010000
00000000
00000100
00000000
00010100
00000000
,  // measure 58
00001100
00000000
00000000
00001000
00000010
00001000
00000000
00000000
00000000
00000001
00000000
00000000
,  // measure 59
00000011
00000010
00000110
00001100
,  // measure 60
00001001
00000000
00000000
00000001
00000100
00000001
00000000
00000000
00000000
00000100
00000000
00000000
,  // measure 61
00000010
00010000
00001000
00000000
00011000
00000000
10010000
00000000
,  // measure 62
00011000
00000000
00000000
10000000
00010000
10000000
00000000
00000000
00000000
01000000
00000000
00000000
,  // measure 63
01100000
00010000
10010000
01001000
,  // measure 64
10100000
00000000
00000000
10000000
01000000
10000000
00000000
00000000
00000000
00100000
00000000
00000000
,  // measure 65
01000000
00001000
00010000
00000000
00010100
00000000
00001100
00000000
,  // measure 66
00000110
00000000
00000000
00000010
00000001
00000010
00000000
00000000
00000000
00000001
00000000
00000000
,  // measure 67
00000100
00000010
00001010
00010010
,  // measure 68
00001010
00000000
00000000
00001000
00000100
00001000
00000000
00000000
00000000
00000010
00000000
00000000
,  // measure 69
00000110
00000101
00001001
00001100
,  // measure 70
00000110
00000000
00000000
00000010
00000001
00000010
00000000
00000000
00000000
00000000
00000000
00000000
;
