#VERSION:0.83;
#TITLE:He's The Cartoon Cat [MODS];
#SUBTITLE:;
#ARTIST:CG5;
#TITLETRANSLIT:;
#SUBTITLETRANSLIT:;
#ARTISTTRANSLIT:;
#GENRE:;
#CREDIT:RatherBOO;
#MUSIC:CartoonCat.ogg;
#BANNER:CartoonCat-bn.png;
#BACKGROUND:CartoonCat-bg.png;
#CDTITLE:;
#SAMPLESTART:34.336;
#SAMPLELENGTH:22.500;
#SELECTABLE:YES;
#OFFSET:-0.050;
#BPMS:0.000=84.000
,186.000=68.000
;
#STOPS:;
#SPEEDS:0.000=1.000=0.000=0,
93.750=0.500=1.250=0,
95.000=1.000=1.000=0,
96.000=1.000=0.000=0,
127.500=1.250=16.500=0,
144.000=0.500=6.750=0,
150.750=1.000=1.250=0,
152.000=1.000=0.000=0,
168.000=0.500=16.000=0,
184.000=1.000=2.000=0,
186.000=1.000=0.000=0
;
#SCROLLS:0.000=1.000;
#TICKCOUNTS:0.000=4;
#TIMESIGNATURES:0.000=4=4;
#LABELS:0.000=Song Start;
#ATTACKS:TIME=34.336:LEN=31.643:MODS=50% Beat :TIME=68.621:LEN=8.786:MODS=50% Beat :TIME=80.050:LEN=10.200:MODS=50% Beat :TIME=91.479:LEN=10.360:MODS=*0.1 Mini :TIME=108.621:LEN=10.214:MODS=50% Beat :TIME=120.050:LEN=20.676:MODS=*0.1 -100% Mini :TIME=132.192:LEN=10.000:MODS=*1 50% stealth
;
#COMBOS:0.000=1;
#ORIGIN:;
#TAGS:;
#PREVIEWVID:;
#JACKET:CartoonCat-jacket.png;
#CDIMAGE:;
#DISCIMAGE:;
#BGCHANGES:14.500=CartoonCat.avi=1.000=1=0=0=StretchNoLoop==CrossFade==;
#FGCHANGES:;

//--------------- dance-single - RatherBOO ----------------
#NOTEDATA:;
#STEPSTYPE:dance-single;
#DESCRIPTION:RatherBOO;
#DIFFICULTY:Beginner;
#METER:2;
#RADARVALUES:0,0,0,0,0;
#NOTES:
0000
0000
0000
0000
,
0000
0000
0000
0000
,
0000
0000
0000
0000
,
0000
0000
0000
0000
,
1000
0000
0010
0000
,
1000
0001
1000
0000
,
0100
0000
1000
0000
,
0001
0010
0010
0000
,
0001
0000
0001
0000
,
1000
0001
1000
0000
,
0100
1000
1000
0000
,
0001
0000
0000
0000
,
1000
0001
0100
1000
,
0100
0001
1000
0001
,
1000
0010
1000
1000
,
0001
0000
0010
0000
0002
0000
0000
0003
,
0000
0010
0100
0010
,
0100
1000
0001
1000
,
1000
0001
0100
1000
,
0100
0001
0001
1000
,
0001
0001
0100
0100
,
0010
0010
1000
0001
,
1000
1000
0001
1000
,
0001
0000
0MM0
0000
,
1000
1000
0100
0100
,
1000
0001
1000
0000
,
0001
0001
0100
0000
,
0001
1000
0001
0000
,
1000
0100
1000
0100
,
1000
0001
1000
0001
,
0100
0001
0100
0001
,
1000
1000
0001
0000
,
2000
0000
0000
3000
,
0002
0000
0000
0003
,
0020
0000
0000
0030
,
0200
0300
1001
0000
,
000M
0000
00M0
0000
,
0M00
0000
M000
0000
,
0001
1000
0001
1000
,
0001
0000
0100
0000
0002
0000
0000
0003
,
0000
1000
0001
1000
,
0100
1000
1000
0001
,
0100
0000
0010
0000
,
0100
0000
0001
0000
,
1000
0000
0100
0000
,
0010
0000
0100
0000
,
0000
0000
1000
0000
,
0001
0000
1000
0000
,
0000
0001
0000
0000
;

//--------------- dance-single - RatherBOO ----------------
#NOTEDATA:;
#STEPSTYPE:dance-single;
#DESCRIPTION:RatherBOO;
#DIFFICULTY:Easy;
#METER:4;
#RADARVALUES:0,0,0,0,0;
#NOTES:
0000
0000
0000
0000
,
0000
0000
0000
0000
,
0000
0000
0000
0000
,
0000
0000
0000
0000
,
0001
0100
0001
0000
,
1000
0010
0010
0000
,
1000
0001
0001
0000
,
0100
0010
0100
0000
,
0001
1000
0010
0000
,
1000
0001
1000
0000
0100
0000
0000
0000
,
0010
0001
0010
0000
0001
0000
0000
0000
,
1000
0100
1000
0000
,
0001
0000
1000
0000
0001
0000
1000
0100
,
1000
0000
0001
0000
0010
0001
0010
0000
,
0001
0001
1000
0000
0010
0000
1000
0000
,
0001
0010
0001
0000
1000
0000
1000
0000
,
0020
0030
0000
0000
0100
0000
0000
0000
0001
0000
0000
0000
1000
0000
0000
0000
,
0001
0010
0001
0000
1000
0000
0001
0000
,
0010
0100
0010
0100
,
1000
0001
1000
0000
0100
0000
0010
0000
,
0001
0100
0001
0000
1000
0000
0010
0000
,
0100
0010
0100
0000
0001
0000
0001
0000
,
1000
0100
1000
0000
0001
0000
0001
0000
,
1000
0001
MMMM
0000
,
1000
1000
0001
0000
0100
0100
0010
0000
,
1000
0001
1000
0000
0001
0000
0010
0000
,
0100
1000
0100
0000
1000
0000
0001
0000
,
0100
0001
0000
0000
,
1000
0000
0010
0000
0100
0001
0100
0000
,
0001
0000
0010
0000
0100
1000
0100
0000
,
1000
0000
0010
0000
0100
0010
0100
0000
,
0001
1000
0001
0000
1001
0000
0000
0000
,
0002
0000
0000
0000
0000
0000
0000
0003
,
2000
0000
0000
0000
0000
0000
0000
3000
,
0020
0000
0000
0000
0000
0000
0000
0030
,
0100
0001
1001
0000
,
M000
0000
0M00
0000
,
00M0
0000
000M
0000
,
1000
0100
1000
0000
0001
0000
1000
0000
,
0001
0100
0001
0000
0100
0000
0010
0000
,
0000
1000
0001
0000
1000
0000
0001
0000
,
0000
1000
0001
0000
1000
0000
0001
0000
,
2000
3000
0020
0030
,
0200
0300
0002
0003
,
0020
0030
0200
0300
,
2000
3000
0002
0003
,
0000
0000
1000
0001
,
0100
0000
0001
1000
,
0100
1001
0000
0000
;

//--------------- dance-single - mods ----------------
#NOTEDATA:;
#STEPSTYPE:dance-single;
#DESCRIPTION:mods;
#DIFFICULTY:Medium;
#METER:7;
#RADARVALUES:0.20902,0.274161,0.113642,0.035513,0.003551,206,190,16,5,8,0,0,0,0,0.20902,0.274161,0.113642,0.035513,0.003551,206,190,16,5,8,0,0,0,0;
#CREDIT:RatherBOO;
#CHARTNAME:;
#CHARTHASH:16777215;
#BANNER:;
#CHARTSTYLE:;
#METERF:0.000000;
#NOTES:
0000
0000
0000
0000
,
0000
0000
0000
0000
,
0000
0000
0000
0000
,
0000
0000
0000
0000
,
1000
0001
0100
0010
,
1000
0010
1000
0000
0010
0000
0000
0000
,
0100
0001
0100
0000
0001
0000
0000
0000
,
1000
0001
0010
0000
,
0100
0010
0001
1000
,
0001
0010
0100
0000
1000
0000
1000
0000
,
0001
0100
0010
0000
1000
0000
0001
0000
,
1000
1000
0100
0000
,
1000
0000
1001
0000
1000
0001
0100
0000
,
0010
1000
0001
0100
0001
1000
0100
0000
,
0010
0001
1000
0100
0010
0000
0001
0000
,
1000
0000
0001
0000
1000
0000
0001
0000
1000
0000
0010
0000
2000
3000
0000
0000
,
1002
0003
0000
0000
0101
0000
0000
0000
0001
0000
1000
0000
0010
0000
0000
0000
,
1000
0001
0010
0001
1000
0001
0100
0001
,
1000
0100
0000
0000
0010
0000
0011
0000
,
0010
0001
0000
0100
0000
0001
1000
0000
,
0100
0100
1000
1000
0001
0001
0010
0000
,
0001
1000
0001
1000
0001
0000
0100
0000
,
0010
0100
0010
1000
0001
0000
0100
0000
,
0001
1000
MMMM
0000
,
1000
1000
0001
0001
1000
0000
0001
0000
,
1000
0100
0010
0001
1000
0000
0100
0000
,
1000
0001
0100
0010
1000
0000
0001
0000
,
1000
1000
0100
0000
,
1000
0000
0011
0000
1000
0010
0101
0000
,
1000
1000
0001
0000
1000
0000
0011
0000
,
1000
0010
0100
0001
1000
0000
1001
0000
,
1000
0001
1000
0000
0010
0000
0101
0000
,
2000
0000
0000
3000
0200
0000
0000
0300
,
0020
0000
0000
0030
0002
0000
0000
0003
,
0200
0000
0000
0300
0002
0000
0000
0003
,
1000
0001
1000
0000
1001
0000
0000
0000
,
000M
0000
00M0
0000
,
0M00
0000
M000
0000
,
1000
0001
0100
0010
1000
0000
0001
0000
,
0100
0100
0001
0001
1000
0010
2000
3000
,
0000
0001
0000
1000
0000
0001
0010
0000
,
0000
0001
0000
1000
0000
0010
1000
0000
,
0000
0001
0000
1000
0000
0010
0000
0000
,
0000
1000
0000
0001
0000
0010
0000
0000
,
0000
0001
0000
0010
0000
0100
0000
0000
,
0000
1000
0000
0010
0000
0100
0000
0000
,
0000
0000
0001
1000
,
0001
0000
1000
0100
1000
0000
0001
0000
,
1000
0001
0100
0000
0000
0000
0000
0000
;

//--------------- dance-single - XO- BR- FS- mods ----------------
#NOTEDATA:;
#STEPSTYPE:dance-single;
#DESCRIPTION:XO- BR- FS- mods;
#DIFFICULTY:Hard;
#METER:10;
#RADARVALUES:0,0,0,0,0;
#CREDIT:RatherBOO;
#NOTES:
0000
0000
0000
0000
,
0000
0000
0000
0000
,
0000
0000
0000
0000
,
0000
0000
0000
0000
,
0001
1000
0010
0000
1000
0000
0010
0000
,
1000
0010
0001
0010
1000
0000
0001
0000
,
1000
0100
0001
0100
1000
0000
0001
0000
,
1000
0001
1000
0000
0100
0000
0000
0000
,
1000
0001
1000
0000
0010
0000
0100
0000
,
0001
0010
0100
1000
0001
0000
1000
0000
,
0001
1000
0010
0100
0001
0000
1000
0000
,
0001
1000
0100
0000
0000
0000
0000
0000
,
1000
0000
0000
0000
0000
0000
1001
0000
0000
0000
0000
1000
0001
0000
0000
1000
0000
0000
1001
0000
0000
0000
0000
0000
,
0001
0010
0100
1000
0001
1000
0011
0000
,
1000
0000
0001
0100
0000
0001
1000
0000
0000
0100
0000
0000
0010
0000
0000
0000
0000
0000
1001
0000
0000
0000
0000
0000
,
0001
0100
0001
1000
0101
1010
0101
0000
,
2000
0000
0000
3000
0000
0000
0000
0000
0000
0000
0000
0000
1001
0000
0000
0000
0000
0000
0000
0000
0000
0000
0010
0000
0001
0000
0000
0000
0000
0000
1000
0000
0000
0000
0000
0000
0010
0000
0000
0000
0000
0000
1000
0000
0000
0000
0000
0000
,
0010
0000
0000
0100
0000
0000
0001
0000
0000
1000
0000
0000
0001
0000
0000
1000
0000
1000
0010
0000
0010
0100
0000
0000
,
0001
1000
1001
0000
1000
0010
0101
0000
,
1000
0001
0000
0100
0001
1000
1001
0001
,
0100
0000
0000
00M0
0000
0000
0100
0000
0000
0000
0000
0000
1000
0000
0000
0000
0000
0000
0001
0000
0000
0000
0000
0000
0100
0000
0000
00M0
0000
0000
0100
0000
0000
0000
0000
0000
1000
0000
0000
0000
0000
0000
0001
0000
0000
0000
1000
0000
,
0001
1000
0001
1000
0010
1000
0101
0000
,
1000
0000
0001
0100
0000
0000
0010
0000
0000
1000
0000
0000
0001
0000
0000
1000
0000
0000
1001
0000
0000
0000
0000
0000
,
0001
0001
1000
0000
MMMM
0000
0000
0000
,
1000
0000
0000
0010
0000
0000
0100
0000
0000
0001
0000
0000
1000
0000
0000
0000
0000
0001
1000
0000
0000
0001
0000
0000
,
1000
0000
0000
0100
0000
0000
0010
0000
0000
0001
0000
0000
1000
0000
0000
0000
0000
0001
1000
0000
0000
0001
0000
0000
,
1000
0000
0000
0010
0000
0000
0100
0000
0000
0001
0000
0000
1000
0000
0000
0000
0000
0001
0100
0000
0000
0000
0000
0000
,
0001
1000
1001
0000
0000
0000
0000
0000
,
0001
1000
0001
0100
0001
0010
0001
1000
,
0100
M000
0100
0000
0001
0000
0010
0000
0001
0000
1000
0000
0001
0000
1000
0000
,
0100
M000
0100
0000
0001
0000
0100
0000
0010
0000
1000
0000
0001
0000
0000
0000
,
1100
0011
1100
0001
0010
0000
0001
0001
,
2000
3000
0200
0300
0002
0003
0200
0300
2000
3000
0020
0030
2000
3000
0002
0003
,
0200
0300
0020
0030
2000
3000
0020
0030
2000
3000
0002
0003
2000
3000
0002
0003
,
0200
0300
2000
3000
0200
0300
0002
0003
2000
3000
0020
0030
0200
0300
0002
0003
,
2000
3000
0002
0003
2000
3000
0000
0000
2002
0000
0000
3003
0000
0000
0000
0000
,
M000
0000
0M00
0000
,
00M0
0000
000M
0000
,
1000
0000
0001
0100
0000
0010
1000
0000
0000
0010
0000
0000
1000
0000
0000
0000
0000
0000
1001
0000
0000
0001
0000
0000
,
0100
0001
1000
0001
1100
0011
1100
0000
,
0000
0000
0000
0001
0000
0000
0000
0000
0000
1000
0000
0001
0010
0000
0000
0001
0000
0000
0010
0000
0000
0001
0000
0000
,
1000
0000
0000
0010
0000
0000
1000
0000
0000
0001
0000
1000
0010
0000
0000
0100
0000
0000
0001
0000
0000
1000
0000
0000
,
0000
0001
0000
0001
0000
1000
0020
0030
,
0000
1000
0000
1000
0000
0001
0020
0030
,
0000
0001
0000
0001
0000
1000
0020
0030
,
0000
1000
0000
1000
0000
0001
0020
0030
,
0000
0000
0001
0010
,
0001
0000
1000
0010
1000
0000
0010
0000
,
0100
0001
1001
0000
0000
0000
0000
0000
;
