#TITLE:Haunted House Monster Party;
#SUBTITLE:;
#ARTIST:IMAscore;
#TITLETRANSLIT:;
#SUBTITLETRANSLIT:;
#ARTISTTRANSLIT:;
#GENRE:;
#CREDIT:MrTwinkles;
#BANNER:Haunted House Monster Party-bn.avi;
#BACKGROUND:Haunted House Monster Party-bg.png;
#LYRICSPATH:Haunted House Monster Party.lrc;
#CDTITLE:;
#MUSIC:Haunted House Monster Party.ogg;
#OFFSET:0.000000;
#SAMPLESTART:33.422001;
#SAMPLELENGTH:17.198000;
#SELECTABLE:YES;
#BPMS:0.000000=116.000000
;
#STOPS:
;
#BGCHANGES:0.000=Haunted House Monster Party-bga.avi=1.000=0=0=0=StretchNoLoop==Crossfade==,
99999=-nosongbg-=1.000=0=0=0 // don't automatically add -songbackground-
;
#KEYSOUNDS:;
#ATTACKS:;

//---------------dance-single - ----------------
#NOTES:
     dance-single:
     NOWHERE Dance Club:
     Beginner:
     4:
     0.182501,0.239959,0.027326,0.081979,0.000000,187.000000,183.000000,4.000000,12.000000,0.000000,0.000000,0.182501,0.239959,0.027326,0.081979,0.000000,187.000000,183.000000,4.000000,12.000000,0.000000,0.000000:
0000
0000
0000
0000
,
0000
0000
0000
0000
,
0000
0000
0000
0001
,
0000
1000
0000
0010
,
0000
0000
2000
0000
,
0000
0000
3200
0000
,
0000
0320
0000
0000
,
0000
0032
0000
0000
,
0000
1003
0000
0001
,
0000
1000
0000
0010
,
1000
0001
0000
0100
,
0000
0010
0000
0100
,
0010
1000
0000
0010
,
0000
0100
0000
0001
,
0000
0020
0000
0000
,
0000
0000
0000
0031
,
0001
1001
0001
0100
,
0010
1000
0000
0100
,
0010
0001
1000
0001
,
0100
0010
1000
0002
,
0000
0103
0000
0010
,
1000
1000
0000
0100
,
0010
0010
0000
0001
,
0010
0001
1000
0001
,
2000
3010
1000
0010
,
0100
0001
0000
0010
,
0100
1000
0001
1000
,
0010
0100
0001
2000
,
0000
3010
1000
0100
,
0010
0001
0000
0010
,
0100
1000
0001
0100
,
0001
1000
0100
0010
,
0010
0110
0000
0010
,
0000
0100
0000
0010
,
0001
0001
0000
1000
,
0000
0010
0000
0100
,
0010
1000
0000
0001
,
0000
0010
0000
0001
,
0100
0010
0000
1000
,
0000
0200
0000
0000
,
0000
0000
0000
0310
,
0001
1000
0000
0001
,
0100
0001
0000
1000
,
0100
1000
0001
0100
,
0001
1000
0000
0010
,
1000
0010
0000
1000
,
0001
0010
0000
0001
,
0010
0001
1000
0001
,
0001
1000
1000
0010
,
0010
0200
0000
0000
,
0000
0000
0300
0000
,
0000
0000
0000
0000
,
0000
0000
0000
0000
,
0000
2002
0000
3003
,
0000
0001
0100
0010
,
0100
0001
0001
1000
,
0000
0100
1000
0001
,
1000
0100
0100
0010
,
0000
0001
0010
0001
,
1000
0001
0001
0100
,
0000
0010
0100
0010
,
1000
0001
0001
1000
,
1000
0001
0010
0100
,
1000
0010
0000
0100
,
0000
0001
0001
0010
,
0100
1000
0001
0100
,
0001
1000
0000
0001
,
0000
0100
0000
0010
,
0000
1000
0000
0001
,
0000
0010
0010
0100
,
0100
0110
0000
0000
;

//---------------dance-single - ----------------
#NOTES:
     dance-single:
     NOWHERE Dance Club:
     Easy:
     6:
     0.246913,0.287951,0.136632,0.157126,0.000000,253.000000,233.000000,20.000000,23.000000,0.000000,0.000000,0.246913,0.287951,0.136632,0.157126,0.000000,253.000000,233.000000,20.000000,23.000000,0.000000,0.000000:
0000
0000
0000
0000
,
0000
0000
0000
0000
,
0000
0000
0000
0000
0000
0000
0001
0200
,
0000
0000
0302
0000
0000
2003
0000
0000
,
0000
0000
3020
0000
,
0000
0000
0000
0230
0000
0000
0000
0000
,
0000
0302
0000
0000
,
0000
0023
0000
0000
,
0031
1001
0001
0100
,
0010
1000
0000
0100
,
0010
0001
0100
0010
,
1000
0010
0000
0100
,
0010
1000
0001
0010
,
0100
1000
0000
0010
,
0100
0001
0010
0100
,
1000
0200
0310
0020
,
0031
0000
0100
0000
0010
0100
0010
0000
,
1000
0000
0001
0000
1000
0001
1000
0000
,
0100
0000
0010
0000
0001
0010
0001
0000
,
1000
0010
0100
0001
,
0000
0000
1001
0000
1000
0001
1000
0000
,
0100
0000
0010
0000
0100
0010
0100
0000
,
0010
0000
0001
0000
0010
0001
0010
0000
,
0001
0100
0010
1000
,
0010
0000
0110
0000
0010
1000
0010
0000
,
1000
0000
0001
0000
0010
0001
0010
0000
,
0001
0000
1000
0000
0010
1000
0010
0000
,
1000
0100
0010
0001
,
0000
0000
1001
0000
1000
0001
1000
0000
,
0001
0000
0100
0000
0001
0100
0001
0000
,
1000
0000
0100
0000
1000
0100
1000
0000
,
0100
0010
0001
1000
,
0010
0110
0000
1001
,
0000
0001
0100
0010
,
1000
1000
0000
0001
,
0000
0010
0100
1000
,
0010
0200
0000
0320
,
0000
2030
0000
3002
,
0000
0023
0000
0000
,
0000
0031
1000
0001
,
1000
0000
0010
0000
0100
0010
0100
0000
,
0010
0000
1000
0000
0001
1000
0001
0000
,
0010
0000
0100
0000
0010
0100
0010
0000
,
0100
0010
0001
2000
,
0001
0000
3001
0000
1000
0001
1000
0000
,
0010
0000
0100
0000
0010
0100
0010
0000
,
0100
0000
0001
0000
1000
0001
1000
0000
,
0001
0010
0100
2000
,
3001
0002
1003
2000
,
3001
2002
0000
0000
,
3003
0000
0000
0000
,
0000
0000
0000
0000
,
0002
0000
0000
0000
,
0000
0010
0010
0010
,
0013
0011
0000
0001
,
1000
1001
0000
0001
,
0100
0110
0000
0010
,
1000
0002
1003
2000
,
3001
1001
0000
1000
,
0100
1100
0000
1000
,
0001
0011
0000
0001
,
0100
0010
0010
1000
,
1000
0001
0000
0010
,
0001
1001
0000
0001
,
0100
0110
0000
0010
,
1000
1001
0000
0001
,
0010
0011
0000
0001
,
0100
0101
0000
0001
,
1000
1001
0000
0001
,
0010
0100
0100
0010
,
0010
0110
0000
0000
;

//---------------dance-single - ----------------
#NOTES:
     dance-single:
     MrTwinkles:
     Medium:
     9:
     0.406967,0.480773,0.491874,0.642169,0.150295,417.000000,345.000000,72.000000,94.000000,4.000000,0.000000,0.406967,0.480773,0.491874,0.642169,0.150295,417.000000,345.000000,72.000000,94.000000,4.000000,0.000000:
// measure 0
0000
0000
0000
0000
,  // measure 1
0000
0000
0000
0000
,  // measure 2
0000
0000
0000
0000
0000
0000
0000
0002
0000
0000
0020
0000
0000
0000
0030
0000
,  // measure 3
0003
0000
2000
0000
3000
2000
0000
0000
,  // measure 4
3000
0000
0020
0000
0030
2020
0000
0000
,  // measure 5
3030
0000
0000
2020
0000
0000
3030
0000
,  // measure 6
0000
0202
0000
0303
,  // measure 7
0000
0000
0220
0000
0000
0000
0330
0010
,  // measure 8
0100
0001
0011
0000
0002
0000
0203
0000
,  // measure 9
2300
3200
0302
2003
,  // measure 10
3200
0302
2003
3200
,  // measure 11
0302
0000
0000
0000
0203
0000
0000
0000
2300
0000
0000
3000
0002
0000
0003
0000
,  // measure 12
1000
0100
1000
0000
1100
0000
0000
0002
,  // measure 13
0103
0002
0003
0001
0020
0030
1001
0000
,  // measure 14
1010
0000
0000
0000
2002
0000
0003
0000
0000
3000
0001
0000
0100
0000
0001
0000
,  // measure 15
0100
0010
1000
0010
1000
0100
1100
0000
,  // measure 16
0011
0000
1001
0000
1000
0001
0101
0000
,  // measure 17
1000
0100
0000
0100
1000
0000
0000
0000
1000
0000
0001
0000
1001
0000
0000
0000
,  // measure 18
0001
0010
0000
0010
0001
0000
0000
0000
0001
0000
1000
0000
1010
0000
0000
0000
,  // measure 19
1001
0000
0002
0003
2000
3000
0020
0000
,  // measure 20
0030
0000
0200
0300
0001
0010
0011
0000
,  // measure 21
0010
0001
0000
1000
0010
0000
0000
0000
0010
0000
1000
0000
1100
0000
0000
0000
,  // measure 22
1000
0010
0000
0100
0001
0000
0000
0000
0001
0000
1000
0000
1010
0000
0000
0000
,  // measure 23
0102
0003
2010
3000
0102
0003
1000
0100
,  // measure 24
0010
0001
2002
3003
0100
0001
0101
0000
,  // measure 25
0100
0001
0000
0001
0100
0000
0000
0000
0010
0000
1000
0000
1100
0000
0000
0000
,  // measure 26
1000
0100
0000
0100
1000
0000
0000
0000
0001
0000
1000
0000
1010
0000
0000
0000
,  // measure 27
0022
0030
0003
0000
2200
0300
3000
0000
0022
0030
0003
0000
2200
0300
3000
0000
,  // measure 28
0000
2000
3020
0030
1000
0010
0110
0000
,  // measure 29
0001
0100
0000
0100
0001
0000
0000
0000
0001
0000
1000
0000
1100
0000
0000
0000
,  // measure 30
1000
0100
0000
0100
1000
0000
0000
0000
1001
0000
0001
0000
0012
0000
0003
0000
,  // measure 31
2100
3000
1000
0010
1000
0001
0100
0001
,  // measure 32
1000
0000
2MM2
0000
3003
0000
1000
1000
,  // measure 33
0010
0000
0100
0000
0001
0001
0010
0000
,  // measure 34
0100
0000
1000
1000
0010
0000
0100
0000
,  // measure 35
0001
0001
0010
0000
0001
0000
1000
1000
,  // measure 36
0010
0000
0220
0300
0030
0100
0002
0000
,  // measure 37
0003
0010
0200
0000
0000
0300
2000
0000
,  // measure 38
0000
3000
0002
0000
0000
0000
0003
0000
,  // measure 39
0000
0000
1010
1000
0100
1000
0001
1000
,  // measure 40
0100
0010
0001
0010
0011
1000
1100
0000
,  // measure 41
2002
3000
0103
0000
0010
1000
1010
0000
,  // measure 42
0001
0000
0010
0000
0100
0000
1000
0000
2200
0300
3000
0000
0022
0030
0003
0000
,  // measure 43
2200
0300
3000
0000
0022
0030
0003
0000
2200
0300
3000
0000
0100
0000
0000
0000
,  // measure 44
1001
0000
2000
3000
0001
1000
1010
0000
,  // measure 45
1000
0010
0000
0010
1000
0000
0000
0000
0100
0000
0010
0000
0011
0000
0000
0000
,  // measure 46
0001
0010
0000
0010
0001
0000
0000
0000
0001
0000
1000
0000
2100
0000
3000
0000
,  // measure 47
0012
0003
0001
0010
0001
1000
0100
1000
,  // measure 48
0001
0000
0100
0000
0001
0000
1000
0000
0010
0000
1000
0000
0001
0010
0001
0000
,  // measure 49
1000
0100
1000
0000
2200
0000
0000
0000
0000
0000
0000
0000
0000
0000
0000
0000
,  // measure 50
0000
0000
0000
3300
0000
0000
0000
0000
0000
0000
0000
0000
0000
0000
0000
0000
,  // measure 51
0000
0000
0000
0000
0000
00MM
0000
0000
0000
0000
0000
0000
0000
0000
0000
0000
,  // measure 52
0000
0000
0000
0000
,  // measure 53
0000
0000
0000
0000
0010
0000
0001
0000
0001
0000
1000
0000
1100
0000
0000
1000
,  // measure 54
0010
0000
1000
0001
0000
0000
0000
0000
1000
0000
0010
0000
0010
0000
1000
0000
,  // measure 55
1200
0300
0020
0030
0001
0001
1000
1100
,  // measure 56
1000
0000
0000
0000
0001
0000
0000
0100
0010
0000
0000
0010
0100
0000
0001
0000
,  // measure 57
0101
0000
2000
0000
3020
1030
0100
0010
,  // measure 58
0011
0000
2000
0000
3000
0001
0001
1000
,  // measure 59
1100
0000
0002
0003
0010
0000
0001
1000
,  // measure 60
1100
0000
0000
0000
0002
0000
0000
0003
0100
0000
0001
0000
0010
0000
0100
0000
,  // measure 61
1100
0000
1000
0001
0011
0000
0001
1000
,  // measure 62
1100
0010
0002
0003
0001
0100
0100
0001
,  // measure 63
0021
0030
0200
0300
1000
1000
0001
0011
,  // measure 64
0001
0000
0000
0000
1000
0000
0000
0010
0100
0000
0000
0100
0010
0000
1000
0000
,  // measure 65
1010
0000
0002
0000
0203
0301
0010
0100
,  // measure 66
1100
0000
0002
0000
0003
1000
1000
0001
,  // measure 67
0011
0000
2000
3000
0100
0000
1000
0001
,  // measure 68
0011
0000
0000
0000
2000
0000
0000
3000
0010
0000
1000
0000
0100
0000
0010
0000
,  // measure 69
0011
0000
0001
1000
1100
0000
1000
0001
,  // measure 70
0011
0100
2000
3000
0000
0000
0000
0000
;

//---------------dance-single - ----------------
#NOTES:
     dance-single:
     MrTwinkles:
     Hard:
     12:
     0.486994,0.576927,0.649000,0.649000,0.259600,499.000000,404.000000,95.000000,95.000000,12.000000,0.000000,0.486994,0.576927,0.649000,0.649000,0.259600,499.000000,404.000000,95.000000,95.000000,12.000000,0.000000:
0000
0000
0000
0000
,
0000
0000
0000
0000
,
0000
0000
0000
0000
0000
0000
0000
0002
0000
0000
0020
0000
0003
0000
0002
0000
,
0030
0000
2000
0000
3003
2200
0000
0000
,
3300
0000
0002
0000
0003
0022
0000
0000
,
0033
0000
0000
2020
0000
0000
3030
0000
,
0000
0202
0000
0303
,
0000
0000
0000
0000
0220
0000
0000
0000
0000
0000
0000
0000
0330
0000
0010
1000
,
0100
0010
0011
0000
0002
0000
0203
0000
,
2300
3002
0023
2030
,
3200
0302
2003
3020
,
0032
0000
0203
0000
0320
0000
2030
3000
,
1000
0000
0001
0010
0001
0000
0000
0000
1100
0000
0000
0000
0000
0000
0002
0000
,
0103
0000
0020
2000
0030
3000
0001
0000
0020
0000
0030
0000
0101
0000
0000
0000
,
1010
0000
0000
0000
2002
0000
0003
0000
0000
3000
0001
0000
0100
0000
0001
0000
,
0100
0010
1000
0000
0010
0000
1000
0000
0001
0010
0100
0000
1000
1000
0000
0000
,
0001
0001
0000
0000
1001
0000
0000
0000
1010
0000
0001
0000
0101
0000
0000
0000
,
1000
0100
00M0
0100
0001
0000
0000
0000
1010
0000
0001
0000
1001
0000
0000
0000
,
0001
0010
0M00
0010
1000
0000
0000
0000
0011
0000
1000
0000
1010
0000
0000
0000
,
1001
0000
0012
0003
2100
3000
0002
0000
,
0003
0000
0200
0300
0101
0001
0011
0000
,
0010
0001
0000
1000
0010
0000
0000
0000
1010
0000
1000
0000
1100
0000
0000
0000
,
1000
0010
0000
0100
0001
0000
0000
0000
1001
0000
1000
0000
1010
0000
0000
0000
,
0011
0000
2010
3001
0102
1003
1000
0100
,
0010
0001
2002
3003
0011
0001
0101
0000
,
0001
0100
00M0
0100
1000
0000
0000
0000
1010
0000
1000
0000
1100
0000
0000
0000
,
1000
0010
0M00
0010
0001
0000
0000
0000
0011
0000
1000
0000
1010
0000
0000
0000
,
0022
0030
1003
0000
2200
0300
3001
0000
0022
0030
1003
0000
2200
0300
3001
0000
,
0000
2000
3010
0000
1010
0010
0110
0000
,
0001
0100
0000
0100
0001
0000
0000
0000
0011
0000
1000
0000
1100
0000
0000
0000
,
1000
0100
0000
0100
1000
0000
0000
0000
1001
0000
0001
0000
0012
0000
1003
0000
,
2100
3001
1000
0010
0001
1000
0100
0001
,
1000
0000
2MM2
0000
3003
0000
1000
1000
,
0010
0010
0100
0100
0001
0001
0010
0010
,
1000
1000
0010
0010
0001
0001
0100
0100
,
1000
1000
0100
0100
0001
0001
1000
1000
,
0010
0010
0220
0300
0030
0100
0002
0000
,
0003
0010
0200
0000
0000
0300
2000
0000
,
0000
3000
0004
0000
0000
0000
0003
0000
,
0000
0000
0000
0000
1010
0000
1000
0010
0100
0000
0001
0010
0001
0000
1000
0010
,
0100
0000
0001
1000
0100
0000
0010
0000
0011
0000
1000
0000
1100
0000
0000
0000
,
2002
3003
0010
0000
0011
1000
1010
0000
,
0001
0000
0010
0000
0100
0000
1000
0000
2200
0300
3001
0000
0022
0030
1003
0000
,
2200
0300
3001
0000
0022
0030
1003
0000
2200
0300
3001
0000
0100
0000
0000
0000
,
1001
0000
2000
3000
0101
1000
1010
0000
,
1000
0010
0000
0010
1000
0000
0000
0000
1100
0000
0001
0000
0011
0000
0000
0000
,
0001
0010
0000
0010
0001
0000
0000
0000
0101
0000
1000
0000
2100
0000
3001
0000
,
0012
1003
0001
0010
1000
0001
0100
1000
,
0001
0000
0100
0000
1000
0000
0001
0000
0010
0000
1000
0000
0001
0010
0001
0000
,
1000
0100
1000
0000
2200
0000
0000
0000
0000
0000
0000
0000
0000
0000
0000
0000
,
0000
0000
0000
3300
0000
0000
0000
0000
0000
0000
0000
0000
0000
0000
0000
0000
,
0000
0000
0000
0000
0000
00MM
0000
0000
0000
0000
0000
0000
0000
0000
0000
0000
,
0000
0000
0000
0000
,
0000
0000
0000
0000
0011
0000
0001
0000
0101
0000
1000
0000
1010
0000
0000
1000
,
0100
0000
0000
0000
1000
0000
0001
0000
0100
0000
0000
0000
0000
0000
0000
0000
1000
0000
0000
0000
0100
00M0
0100
0000
0001
0000
0000
0000
1000
0000
0000
0000
,
1200
0000
0300
0000
0020
0000
0030
0000
0001
0000
1000
0010
1000
0000
1100
0000
,
0001
0000
0000
0000
0001
0000
0000
0100
0010
0000
1000
0001
0010
0000
0001
0000
,
0101
0000
0000
0000
2000
0000
0000
0000
3020
0000
1030
0100
0010
0000
0001
0000
,
0011
0000
0000
0000
2000
0000
0000
0000
3000
0000
0001
0100
0001
0000
1000
0000
,
1100
0000
0000
0000
0000
0000
0000
0000
0002
0000
0000
0000
0003
0000
0000
0000
0001
0000
0000
0000
0010
0M00
0010
0000
1000
0000
0000
0000
0001
0000
0000
0000
,
1100
0000
0000
0010
0002
0000
0000
0003
0100
0000
0001
0010
0100
0000
1000
0000
,
0101
0000
1010
0001
0011
1000
1010
0001
,
0011
0000
0000
0000
1000
0000
0100
0000
2100
0000
0000
0000
3000
0000
0000
0000
0001
0000
0000
0000
0010
0M00
0010
0000
1000
0000
0000
0000
0001
0000
0000
0000
,
0021
0000
0030
0000
0200
0000
0300
0000
1000
0000
0001
0100
0001
0000
1000
0000
,
1100
0000
0000
0000
1000
0000
0000
0010
0100
0000
0001
1000
0100
0000
1000
0000
,
1010
0000
0000
0000
0002
0000
0000
0000
0203
0000
0301
0010
0100
0000
1000
0000
,
1100
0000
0000
0000
0002
0000
0000
0000
0003
0000
1000
0010
1000
0000
0001
0000
,
0011
0000
0000
0000
0000
0000
0000
0000
2000
0000
0000
0000
3000
0000
0000
0000
1000
0000
0000
0000
0100
00M0
0100
0000
0001
0000
0000
0000
1000
0000
0000
0000
,
2001
3000
0000
0100
2000
0000
0000
3000
0010
0000
1000
0100
0010
0000
0001
0000
,
1010
0000
0101
1000
1100
0001
0101
1000
,
1100
0000
0001
0100
0020
0000
0030
0000
0000
0000
0000
0000
0000
0000
0000
0000
;
