#TITLE:Halloween;
#SUBTITLE:;
#ARTIST:BrokiX;
#TITLETRANSLIT:;
#SUBTITLETRANSLIT:;
#ARTISTTRANSLIT:;
#GENRE:;
#CREDIT:;
#MUSIC:Halloween [Jenro].ogg;
#BANNER:Halloween [Jenro]-bn.png;
#BACKGROUND:Halloween [Jenro]-bg.png;
#CDTITLE:;
#SAMPLESTART:41.342;
#SAMPLELENGTH:12.000;
#SELECTABLE:YES;
#OFFSET:-0.092;
#BPMS:0.000=160.000;
#STOPS:;
#BGCHANGES:;
#FGCHANGES:;

//--------------- dance-single - Jenro (2022) ----------------
#NOTES:
     dance-single:
     Jenro (2022):
     Beginner:
     3:
     0,0,0,0,0:
0000
0000
0000
0000
,
0000
0000
0000
0000
,
0000
0000
0000
0000
,
0000
0000
0000
0000
,
0000
0000
1000
0000
,
0000
0000
0001
0000
,
0000
0000
0010
0000
,
0000
0000
0001
0000
,
0000
0000
0100
0000
,
0000
0000
0010
0000
,
0000
0000
1000
0000
,
0000
0000
0010
0000
,
0000
0000
0100
0000
,
0000
0000
0001
0000
,
0000
0000
1000
0000
,
0000
0000
0100
0000
,
0000
0000
0010
0000
,
0000
0000
0010
0000
,
0000
0000
0000
0010
,
0010
0000
0000
0000
,
1000
0000
0001
0000
,
1000
0000
0000
0000
,
0010
0000
0001
0000
,
0100
0000
0000
0000
,
0001
0000
1000
0000
,
0001
0000
0000
0000
,
0010
0000
1000
0000
,
0100
0000
0000
0000
,
1000
1000
1000
1000
,
1000
0000
0000
0000
,
0001
0001
0001
0001
,
0001
0000
0000
0000
,
0010
0000
0000
0000
,
0100
0000
0000
0000
,
0010
0000
0010
0000
,
1000
0001
0000
0000
,
0100
0000
0101
0000
,
0100
0000
0000
0000
,
1000
0000
1100
0000
,
1000
0000
0100
0000
,
0100
0000
1000
0000
,
0100
0000
0000
0000
,
0100
0000
0000
0000
,
0001
0001
0001
0000
,
1000
0000
0100
0000
,
0000
0000
0000
0000
,
0001
0000
0100
0000
,
1000
0000
0100
0000
,
0001
0000
0001
0000
,
0010
0000
0010
0000
,
1000
0000
0001
0000
,
0000
0000
0000
0000
,
1001
0000
0000
0000
,
0100
0000
0000
0000
,
0010
0000
0001
0000
,
0010
0000
1000
0000
,
0001
0000
1000
0000
,
0001
0000
0100
0000
,
0010
0000
1000
0000
,
0001
0000
0000
0000
,
1000
1000
1000
1000
,
1000
0000
0100
0000
,
0001
0001
0001
0001
,
0001
0000
0010
0000
,
0100
0000
0010
0000
,
0010
0000
0000
0000
,
1001
0000
0000
0000
,
1000
0000
0000
0000
;

//--------------- dance-single - Jenro (2022) ----------------
#NOTES:
     dance-single:
     Jenro (2022):
     Easy:
     5:
     0,0,0,0,0:
0000
0000
0000
0000
,
0000
0000
0000
0000
,
0000
0000
0000
0000
,
0000
0000
0000
0000
,
0000
0000
0001
1000
,
0100
0010
0100
1000
,
0000
1000
0001
0100
,
0000
0001
1000
0010
,
0000
0000
1000
0001
,
0010
0100
0010
0001
,
0000
0001
1000
0010
,
0000
1000
0001
0100
,
0000
0000
0010
0001
,
1000
0100
2000
0000
,
3000
0000
0100
1000
,
0001
0010
0002
0000
,
0003
0000
0100
0001
,
1000
0010
0200
0000
,
0300
0000
0000
1002
,
1003
0000
0001
1000
,
0010
0100
0010
0001
,
0100
0000
1000
0001
,
0100
0010
0100
1000
,
0010
0000
0001
0001
,
0010
0100
1000
0001
,
0100
0000
1000
1000
,
0100
0010
0001
1000
,
0010
0000
0002
0000
,
1003
0100
0010
0010
,
0001
0000
2000
0000
,
3001
0010
0100
0100
,
1000
0000
0010
0100
,
0001
0000
0010
0100
,
1000
0000
0000
1001
,
0000
0000
0100
0001
,
0100
0100
0000
0000
,
0000
0000
1010
0100
,
0000
0000
0011
0100
,
0000
0000
1000
0001
,
1000
0001
0001
1000
,
0010
0000
0100
0001
,
0100
0100
0100
1000
,
0010
0000
0010
0000
,
0101
0000
1001
0100
,
1000
0000
0001
0000
,
0200
0000
0300
0000
,
1000
0000
0001
0000
,
0020
0000
0030
0000
,
0100
0000
1000
0000
,
0100
0000
0001
0000
,
0001
0000
0001
0000
,
0020
0000
0030
0000
,
0001
1000
0100
0010
,
0100
0000
0000
0000
,
1000
0001
0010
0100
,
0010
0000
0100
0001
,
0100
0000
0001
0010
,
0001
0000
0100
1000
,
0100
0000
1000
0010
,
1000
0000
0002
0000
,
1003
0100
0010
0010
,
0001
0000
2000
0000
,
3001
0010
0100
0100
,
1000
0000
0010
0100
,
0001
0000
0010
0100
,
1000
0000
0000
1001
,
0000
0000
0100
0001
,
0100
0100
0000
0000
;

//--------------- dance-single - Jenro (2022) ----------------
#NOTES:
     dance-single:
     Jenro (2022):
     Medium:
     7:
     0,0,0,0,0:
0000
0000
0000
0000
,
0000
0000
0000
0000
,
0000
0000
0000
0000
,
0000
0000
0000
0000
,
0000
0000
0001
1000
,
0100
0010
0100
1000
,
0000
1000
0100
0001
,
0000
1000
0010
0001
,
0000
0000
1000
0001
,
0010
0100
0010
0001
,
0000
0001
0010
1000
,
0000
0001
0100
1000
,
0000
0000
0100
0001
,
0010
0000
0001
0000
0200
0000
0000
0310
,
0000
0000
0010
1000
,
0100
0000
1000
0000
0020
0000
0000
0130
,
0000
0000
0001
1000
,
1001
0000
1000
0000
0002
0000
0000
0013
,
0000
0000
0000
1100
,
2200
3300
1000
0100
,
0001
1000
0001
0100
,
1000
0000
0001
0010
,
1000
0001
1000
0010
,
0001
0000
0010
1000
,
0001
0010
0001
0100
,
1000
0000
0100
0001
,
1000
0100
1000
0010
,
0001
0000
0001
0100
,
0110
1000
0110
1000
,
0110
0000
1000
0010
,
0110
0001
0110
0001
,
0110
0000
1000
0010
,
0202
0303
0001
0010
,
2200
3300
0000
0110
,
0220
0330
1000
0001
,
0110
0220
0330
0000
,
0002
0000
0003
0100
0010
0000
1000
0000
,
0200
0000
0300
0000
1000
0001
1000
0000
,
2000
0000
3000
0010
0100
0000
0001
0000
,
0020
0000
0030
0000
0001
1000
0001
0000
,
0020
0030
0100
1000
,
0001
0100
0001
1000
0010
0000
1000
0000
,
0110
0000
0010
0001
,
1000
0010
1000
0001
0100
0000
0001
0000
,
0110
0000
2000
3000
,
0000
0000
0000
0000
,
0100
0001
0100
1000
,
0010
1000
0010
1000
0010
1000
0001
1000
,
0002
0000
0103
0000
,
2000
0000
3100
0000
,
0110
0000
0000
0010
0100
0000
1000
0000
,
0002
0003
0001
0010
,
1000
0001
1000
0010
,
0002
0003
1000
0100
,
0001
1000
0001
0100
,
2000
3000
0100
0001
,
1000
0100
1000
0010
,
0002
0003
0010
1000
,
0001
0010
0001
0100
,
2000
3000
1000
0010
,
0110
0001
0110
0001
,
0220
0330
0001
0100
,
0110
1000
0110
1000
,
0220
0330
0001
0100
,
2020
3030
1000
0100
,
0022
0033
0000
0110
,
0220
0330
0001
1000
,
0100
0200
0300
0000
;

//--------------- dance-single - Jenro (2022) ----------------
#NOTES:
     dance-single:
     Jenro (2022):
     Hard:
     11:
     0,0,0,0,0:
0000
0000
0000
0000
,
0000
0000
0000
0000
,
0000
0000
0000
0000
,
0000
0000
0000
0000
,
0000
0000
0000
1000
0001
1000
0100
1000
,
0001
0100
0001
0010
0100
0010
0001
0000
,
0000
1000
0100
1000
0100
1000
0100
0000
,
0000
0001
0100
0001
0100
0001
0100
0000
,
0000
0000
0000
0001
1000
0001
0010
0001
,
1000
0010
1000
0100
0010
0100
1000
0000
,
0000
0001
0010
0001
0010
0001
1000
0000
,
0000
1000
0010
1000
0010
1000
0001
0000
,
0000
0000
0100
0001
0200
0000
0320
0000
,
2030
0000
3100
0010
0002
0000
0000
1003
,
0000
0000
0010
1000
0020
0000
0230
0000
,
0302
0000
0013
0100
2000
0000
0000
3001
,
0000
0000
0010
0100
,
1000
0000
0100
0000
0020
0000
0000
0031
,
0000
0000
0000
0101
,
0202
0303
0002
0003
,
1000
0000
0100
0010
0001
0000
0101
0000
,
1001
0000
2000
3000
,
0001
0000
0010
0100
1000
0000
1010
0000
,
1001
0000
0000
0000
0100
0010
0100
0000
,
0002
0000
1003
0100
2000
0000
3001
0000
,
1010
0000
0001
1000
0010
0100
0010
0000
,
2000
0000
3001
0010
0002
0000
1003
0000
,
0101
0000
0000
0000
1000
0001
1000
0000
,
1100
0010
0101
0010
,
1001
0000
0000
0000
0001
1000
0001
0000
,
0011
0100
1010
0100
,
1001
0000
0000
0000
0000
0000
1000
0000
0001
0000
0000
0010
0000
0000
0100
0000
,
0010
0000
0000
0001
0000
0000
0001
0000
1000
0000
0000
0100
0000
0000
0010
0000
,
0100
0000
0000
1000
0000
0000
0001
0000
0000
0000
0000
0000
0101
0000
0000
0000
,
1100
0000
0000
0000
0000
0000
0000
0000
0010
0000
0000
0100
0000
0000
0100
0000
,
0110
0220
0330
2000
,
3001
0000
0000
0001
0010
0000
0100
0000
,
1100
0000
0000
0000
0010
0010
0010
0000
,
1000
0000
0000
1000
0100
0000
0010
0000
,
0011
0000
0000
0000
0100
0100
0100
0000
,
0010
0000
0000
1001
0000
0000
0100
0000
,
1000
0100
1000
0100
0010
0001
0010
0000
,
0012
0000
0203
0000
,
1300
0001
0100
0010
2000
0000
3001
0000
,
0101
0000
0010
0200
0000
1300
0000
0000
,
1000
0100
0010
0001
0100
0001
0100
0010
,
1000
0010
1000
0001
0100
0010
1000
0000
,
0001
0010
0100
1000
0010
1000
0010
0100
,
0001
0100
0001
1000
0010
0100
0001
0000
,
2000
3200
0302
0000
,
0013
0000
0101
0000
,
1000
0000
0000
0010
1000
0100
0010
0000
,
1001
0000
0010
0100
1000
0000
1010
0000
,
1001
0000
0000
0100
0001
0010
0100
0000
,
1001
0000
0100
0010
0001
0000
0101
0000
,
1001
0000
0000
0000
0010
0100
0010
0000
,
2000
0000
3001
0010
0002
0000
1003
0000
,
0101
0000
1000
0001
0100
0010
0100
0000
,
1002
0000
1003
0100
2000
0000
3001
0000
,
1010
0000
0000
0000
0001
1000
0001
0000
,
0011
0101
1010
1100
,
2002
0000
3003
0000
1000
0001
1000
0000
,
1100
1010
0101
0011
,
2002
0000
0000
0000
3003
0000
0001
0000
1000
0000
0000
0100
0000
0000
0010
0000
,
0100
0000
0000
1000
0000
0000
1000
0000
0001
0000
0000
0010
0000
0000
0100
0000
,
0010
0000
0000
0001
0000
0000
1000
0000
0000
0000
0000
0000
1010
0000
0000
0000
,
0022
0000
0000
0000
0033
0000
0000
0000
0100
0000
0000
0010
0000
0000
0010
0000
,
0100
0000
0000
0001
0000
0000
2000
0000
0000
0000
3000
0000
0000
0000
0000
0000
;
