#TITLE:H4sta la Muerte;
#SUBTITLE:;
#ARTIST:Fant4stik;
#TITLETRANSLIT:;
#SUBTITLETRANSLIT:;
#ARTISTTRANSLIT:;
#GENRE:;
#CREDIT:darkanine and DJEmbrace;
#BANNER:H4sta la Muerte.png;
#BACKGROUND:H4sta la Muerte-bg.png;
#LYRICSPATH:;
#CDTITLE:;
#MUSIC:H4sta la Muerte.ogg;
#OFFSET:0.000000;
#SAMPLESTART:27.343000;
#SAMPLELENGTH:13.913000;
#SELECTABLE:YES;
#BPMS:0.000000=138.000000
,128.000000=138.322998
,129.000000=138.968994
,130.000000=139.615005
,131.000000=140.261002
,132.000000=140.906998
,133.000000=141.554001
,134.000000=142.199997
,135.000000=142.845993
,136.000000=143.492004
,137.000000=144.138000
,138.000000=144.783997
,139.000000=145.431000
,140.000000=146.076996
,141.000000=146.723007
,142.000000=147.369003
,143.000000=148.014999
,144.000000=148.660995
,145.000000=149.307007
,146.000000=149.953995
,147.000000=150.600006
,148.000000=151.246002
,149.000000=151.891998
,150.000000=152.537994
,151.000000=153.184006
,152.000000=153.830994
,153.000000=154.477005
,154.000000=155.123001
,155.000000=155.768997
,156.000000=156.414993
,157.000000=157.061005
,158.000000=157.707001
,159.000000=158.354004
,160.000000=159.000000
,161.000000=159.645996
,162.000000=160.292007
,163.000000=160.938004
,164.000000=161.584000
,165.000000=162.231003
,166.000000=162.876999
,167.000000=163.522995
,168.000000=164.169006
,169.000000=164.815002
,170.000000=165.460999
,171.000000=166.106995
,172.000000=166.753998
,173.000000=167.399994
,174.000000=168.046005
,175.000000=168.692001
,176.000000=169.337997
,177.000000=169.983994
,178.000000=170.630997
,179.000000=171.276993
,180.000000=171.923004
,181.000000=172.569000
,182.000000=173.214996
,183.000000=173.860992
,184.000000=174.507004
,185.000000=175.154007
,186.000000=175.800003
,187.000000=176.445999
,188.000000=177.091995
,189.000000=177.738007
,190.000000=178.384003
,191.000000=179.031006
,192.000000=179.677002
,193.000000=180.000000
;
#STOPS:
;
#BGCHANGES:;
#KEYSOUNDS:;
#ATTACKS:;

//---------------dance-single - ----------------
#NOTES:
     dance-single:
     :
     Beginner:
     5:
     0.178594,0.358834,0.085948,0.078135,0.000000,160.000000,149.000000,11.000000,10.000000,0.000000,0.000000,0.178594,0.358834,0.085948,0.078135,0.000000,160.000000,149.000000,11.000000,10.000000,0.000000,0.000000:
0000
0000
0000
0000
,
0000
0000
0000
0000
,
0000
0000
0000
0000
,
0000
0000
0000
0000
,
0000
0000
0000
0000
,
0000
0000
0000
0000
,
0000
0000
0000
0000
,
0000
0000
0000
0000
,
1001
1000
0100
0100
,
0001
0100
1000
0100
,
0000
0010
0001
0001
,
0100
1000
0100
0001
,
1001
1000
0001
0010
,
0000
0100
1000
0000
,
1001
0000
1000
0000
,
0020
0000
0000
0030
,
1001
1000
0100
0100
,
0001
0001
0100
0100
,
1001
0001
0100
0100
,
1000
0100
0001
0010
,
1001
0001
1000
1000
,
0010
0010
0100
0001
,
1000
1000
0001
0001
,
1000
0100
0100
0100
,
0000
0000
0000
0000
,
0000
0000
0000
0000
,
0000
0000
0000
0000
,
0000
0000
0000
0000
,
0000
0000
0000
0000
,
0000
0000
0000
0000
,
0000
0000
0000
0000
,
0000
0000
0000
0000
,
1000
0000
0000
0000
,
0001
0000
0001
0000
,
0010
0000
0000
0000
,
0100
0000
0100
0000
,
1000
0000
0000
0000
,
0010
0000
0010
0000
,
0100
0000
0000
0000
,
0001
0000
0001
0000
,
1000
0000
0000
0000
,
0001
0001
0001
0000
,
1000
0000
0000
0000
,
0100
0100
0100
0000
,
0010
0000
0001
0000
,
0100
0000
0010
0020
,
0000
0000
0030
0000
,
0000
0000
0000
0000
,
1000
0000
0001
0000
,
1000
0000
0100
0000
,
0010
0000
0001
0000
,
0100
0000
0010
0000
,
1000
0000
0100
0000
,
0001
0000
0100
0000
,
1000
0000
0000
0000
,
0000
0000
0000
0000
,
1001
0000
0001
0000
,
0001
0000
1000
1000
,
1000
0000
0100
0000
,
0010
0000
0001
0001
,
0001
0000
0100
0000
,
0010
0000
1000
1000
,
1000
0000
1000
0000
,
0001
0001
0001
0001
,
0002
0000
0003
0000
,
2000
0000
3000
0000
,
0200
0000
0300
0000
,
0020
0000
0030
0000
,
0001
0000
1000
0000
,
0001
0000
0100
0100
,
0100
0000
0010
0000
,
1000
1000
1000
0000
,
1001
1001
1001
0000
,
0001
0000
0001
0001
,
0001
0001
0001
0000
,
1000
0000
1000
1000
,
2000
0000
3000
0000
,
0002
0000
0003
0000
,
0010
0000
0010
0000
,
0100
0100
0100
0000
,
0220
0000
0000
0000
,
0000
0000
0000
0000
,
0000
0000
0000
0000
,
0000
0000
0330
0000
;

//---------------dance-single - ----------------
#NOTES:
     dance-single:
     :
     Easy:
     9:
     0.276820,0.456698,0.156270,0.273472,0.003907,248.000000,228.000000,20.000000,35.000000,0.000000,0.000000,0.276820,0.456698,0.156270,0.273472,0.003907,248.000000,228.000000,20.000000,35.000000,0.000000,0.000000:
0000
0000
0000
0000
,
0000
0000
0000
0000
,
0000
0000
0000
0000
,
0000
0000
0000
0000
,
0000
0000
0000
0000
,
0000
0000
0000
0000
,
0000
0000
0000
0000
,
0000
0000
0000
0000
,
1001
0000
1000
0010
0200
0000
0010
0000
,
1000
1000
0001
0301
,
1001
0000
0001
0010
0200
0000
0010
0000
,
0001
0001
1300
0100
,
1001
0000
1000
0100
0001
0000
0100
1000
,
0001
2000
0010
3001
,
1001
0000
0000
0000
0000
0000
0000
0000
1000
0000
0000
1000
0000
0000
0000
0000
,
0001
0000
0000
0001
0000
0000
0001
0000
,
0110
0000
1000
0001
0200
0000
0310
0000
,
0002
0010
1000
0103
,
0110
0000
0001
1000
0200
0000
0310
0000
,
2000
0010
0001
3100
,
0110
0000
0010
0001
0200
0000
1000
0000
,
0010
0010
0001
0301
,
2000
0000
3100
1000
0002
0000
0103
0001
,
1000
1001
1001
1001
,
0000
0000
0000
0000
,
0000
0000
0000
0000
,
0000
0000
0000
0000
,
0000
0000
0000
0000
,
0000
0000
0000
0000
,
0000
0000
0000
0000
,
0000
0000
0000
0000
,
0000
0000
0000
0000
,
2000
3000
0001
0000
,
1000
1000
0100
0100
,
0020
0030
0100
0000
,
1000
1000
0001
0001
,
0200
0300
0010
0000
,
1000
1000
0001
0001
,
0020
0030
0100
0000
,
1000
1000
0001
0001
,
0100
0000
0100
0000
,
0010
1000
0010
1000
,
0001
0000
0001
0000
,
0010
0001
0010
0001
,
0100
0000
0100
0000
,
0010
1000
0010
2000
,
0000
0000
3000
0000
,
0000
0000
0000
0000
,
0002
0000
1003
0000
,
1000
0100
0010
0001
,
2000
0000
3010
0000
,
0100
0010
1000
0001
,
0020
0000
0230
0000
,
1300
0001
0200
0000
,
0310
0000
0000
0000
,
0000
0000
0000
0000
,
1001
0001
0002
0013
,
0020
0031
0002
0103
,
0101
1000
2000
3100
,
0200
1300
2000
3010
,
0110
0001
0002
1003
,
2000
0000
3100
0000
0200
0000
0310
0100
,
0020
0030
0001
0000
,
1000
1000
0001
1000
,
1001
0001
0010
0100
,
1000
0100
0010
0001
,
1001
1000
0010
0100
,
0001
0100
0010
1000
,
1001
0001
0010
0100
,
0010
0000
0001
0000
0100
0000
0010
1000
,
0010
0000
0100
0000
,
0001
0001
1000
0001
,
1001
0110
1001
1000
,
1000
0000
1000
0000
1000
0020
0000
1030
,
0001
1000
0001
0000
0001
0000
0001
0000
,
0001
0000
0001
0000
0002
0000
1003
0100
,
2000
0001
0001
3001
,
1000
0001
1000
0001
1000
0001
1000
0001
,
0000
0000
0000
0000
,
0010
0010
0010
0000
,
2002
0000
0000
0000
,
0000
0000
0000
0000
,
0000
0000
0000
0000
,
0000
0000
3003
0000
;

//---------------dance-single - ----------------
#NOTES:
     dance-single:
     :
     Medium:
     12:
     0.446484,0.652425,0.210964,0.242218,0.230498,400.000000,373.000000,27.000000,31.000000,0.000000,0.000000,0.446484,0.652425,0.210964,0.242218,0.230498,400.000000,373.000000,27.000000,31.000000,0.000000,0.000000:
0000
0000
0000
0000
,
0000
0000
0000
0000
,
0000
0000
0000
0000
,
0000
0000
0000
0000
,
0000
0000
0000
0000
,
0000
0000
0000
0000
,
0000
0000
0000
0000
,
0000
0000
0000
0000
,
1001
0000
0000
0000
0001
0000
0001
0100
0000
0100
0010
0000
1000
0000
0010
0000
,
0100
0000
0001
0000
0010
0001
0010
0000
0100
0010
0000
0010
0000
0000
0001
0000
,
1000
0000
0000
0000
1000
0000
1000
0100
0000
0100
0010
0000
0100
0000
1000
0000
,
0001
0000
0100
0000
0010
1000
0001
0000
0010
0100
0000
0010
0000
0000
0001
0000
,
1000
0000
0000
0000
1000
0000
1000
0010
0000
0010
0100
0000
0001
0000
0010
0000
,
0100
0000
0000
0000
0010
0001
0010
0000
0001
0000
0100
0000
0010
0000
1000
0000
,
1001
0000
0000
0000
0000
0000
0000
0000
1010
0000
0000
1000
0000
0000
0001
0000
,
0010
0000
0000
0010
0000
0000
0010
0000
0000
0010
0000
0000
0100
0000
0000
0000
,
1001
0000
0000
0000
1000
0000
0010
1000
0000
0001
1000
0000
0100
0000
0010
0000
,
0001
0000
1000
0000
0100
0010
0100
0000
0010
0001
0000
0001
0000
0000
1000
0000
,
0001
0000
0000
0000
0100
0000
0001
0100
0000
0010
1000
0000
0001
0000
0010
0000
,
0100
0000
1000
0000
0001
1000
0001
0000
0100
0010
0000
1000
0001
0000
0000
0000
,
1001
0000
0000
0000
1000
0000
0001
0100
0000
0010
0100
0000
0001
0000
0010
0000
,
0100
0000
0010
0000
0001
1000
0001
0000
0100
0010
0000
0010
0100
0000
0000
0000
,
1001
0000
0000
0000
1000
0000
0001
0100
0000
1000
0100
0000
0001
0000
1000
0000
,
0200
0001
0001
0301
,
0000
0000
0000
0000
,
0000
0000
0000
0000
,
0000
0000
0000
0000
,
0000
0000
0000
0000
,
0000
0000
0000
0000
,
0000
0000
0000
0000
,
0000
0000
0000
0000
,
0000
0000
0000
0000
,
0002
0000
0000
0000
0003
0000
0000
0000
0001
0000
0000
0100
0000
0000
0001
0000
,
1000
0000
0000
0100
0000
0000
1000
0000
0001
0000
0000
0010
0000
0000
0001
0000
,
2000
0000
0000
0000
3000
0000
0000
0000
1000
0000
0000
0010
0000
0000
1000
0000
,
0001
0000
0000
0010
0000
0000
0100
0000
1000
0000
0000
0100
0000
0000
0010
0000
,
0002
0000
0000
0000
0003
0000
0000
0000
0001
0000
0000
0010
0000
0000
0001
0000
,
0100
0000
0000
0010
0000
0000
0100
0000
0001
0000
0000
0010
0000
0000
0001
0000
,
2000
0000
0000
0000
3000
0000
0000
0000
1000
0000
0000
0010
0000
0000
1000
0000
,
0100
0000
0000
0010
0000
0000
0001
0000
0100
0000
0000
0001
0000
0000
0010
0000
,
0200
0000
0300
1000
1000
0000
0001
0000
,
1000
0000
0001
0000
1000
0000
0010
1000
0000
0010
1000
0000
0001
0000
0000
0000
,
0010
0000
0000
0001
0001
0000
1000
0000
,
0001
0000
1000
0000
0001
0000
0010
0001
0000
0010
0001
0000
1000
0000
0000
0000
,
0010
0100
0001
0000
0010
0100
1000
0000
,
0001
0000
0100
0000
0001
0000
1000
0100
0000
1000
0100
0000
0010
0000
0002
0000
,
0000
0000
0003
0000
,
0000
0000
0000
0000
,
1000
0001
0100
0010
,
1000
0000
0000
0000
0100
0000
0000
0000
1000
0000
0000
0010
0000
0000
0100
0000
,
0002
2003
3200
0320
,
0032
0000
0000
0000
0203
0000
0000
0000
0301
0000
0000
0010
0000
0000
0100
0000
,
2000
0000
3000
0001
0200
0000
0300
0010
,
0100
0001
1000
0001
0020
0000
0030
0100
,
1000
0000
0000
0000
,
0000
0000
0000
0000
,
1001
0000
1000
0100
0010
0000
0010
0100
,
1000
0000
1000
0010
0100
0000
0001
1000
,
1001
0000
0001
0010
0100
0000
0100
0010
,
0001
0000
0001
0100
0010
1000
0001
1000
,
1001
0000
0001
0010
0100
1000
0100
0010
,
0001
0100
0010
1000
0010
0100
0001
1000
,
0200
0000
0000
0000
0300
0000
0000
0000
0010
0000
0000
0001
0000
0000
1000
0000
,
0001
0000
0000
1000
0000
0000
0010
0000
0100
0000
0000
0001
0000
0000
0010
0000
,
0100
1000
0002
0000
0013
0100
2000
0000
,
3001
0100
0020
0000
1030
0010
0100
0001
,
0102
0000
1003
0000
0100
0010
0002
0000
,
1003
0100
0020
0000
0031
0100
0010
1000
,
2010
0000
3001
0010
0100
0010
0001
0100
,
0010
1000
0100
0010
0100
1000
0010
0100
,
0220
0000
0000
0000
0330
0000
0000
0000
1001
0000
0000
0001
0000
0000
0010
0000
,
0100
0000
0000
1000
0000
0000
0010
0000
0100
0000
0000
0010
0000
0000
1000
0000
,
0002
1000
1000
1000
1003
0000
1001
0000
,
1001
0000
1001
0000
1000
0020
0000
1030
,
0010
1000
1010
0000
0011
0000
0011
0000
,
1100
0000
1100
0000
0110
0000
0010
0001
,
0011
0011
0101
0101
,
1000
0010
1000
0010
0100
0001
0100
0001
,
1000
1000
0000
0001
0001
0000
1000
1000
,
0100
0100
0200
0300
,
2002
0000
0000
0000
,
0000
0000
0000
0000
,
0000
0000
0000
0000
,
0000
0000
3003
0000
;

//---------------dance-single - ----------------
#NOTES:
     dance-single:
     :
     Hard:
     14:
     0.544711,0.750289,0.335979,0.539130,0.398487,488.000000,445.000000,43.000000,69.000000,9.000000,0.000000,0.544711,0.750289,0.335979,0.539130,0.398487,488.000000,445.000000,43.000000,69.000000,9.000000,0.000000:
// measure 0
0000
0000
0000
0000
,  // measure 1
0000
0000
0000
0000
,  // measure 2
0000
0000
0000
0000
,  // measure 3
0000
0000
0000
0000
,  // measure 4
0000
1000
0000
0010
0000
0001
0000
0010
,  // measure 5
0000
1000
0000
0100
0000
0001
0000
0100
,  // measure 6
2000
0010
0000
0001
0000
0100
3000
1000
,  // measure 7
0000
0000
0000
0000
,  // measure 8
2010
0000
0000
0000
0000
0000
0000
0000
3001
0000
0010
0001
0010
0000
0100
0000
0000
0000
0100
0000
1000
0000
0000
0000
0100
0000
0000
0000
0001
0000
0000
0000
,  // measure 9
0100
0000
1000
0000
0100
0010
0001
0000
0100
0010
0000
0010
1000
0000
0001
0000
,  // measure 10
0012
0000
0000
0000
0000
0000
0000
0000
1003
0000
0010
1000
0010
0000
0100
0000
0000
0000
0100
0000
0001
0000
0000
0000
0100
0000
0000
0000
1000
0000
0000
0000
,  // measure 11
0100
0000
0001
0000
1000
0010
0100
0000
0001
0010
0000
1000
0000
0000
0010
0000
,  // measure 12
0210
0000
0000
0000
0000
0000
0000
0000
1300
0000
0001
1000
0001
0000
0010
0000
0000
0000
0010
0000
0100
0000
0000
0000
1000
0000
0000
0000
0010
0000
0000
0000
,  // measure 13
0002
0000
0000
0000
0013
0100
0010
0000
1000
0000
0100
0000
0010
0000
0100
0000
,  // measure 14
0220
0000
0000
0000
0330
0000
0000
0000
1001
0000
0000
0010
0000
0000
0100
0000
,  // measure 15
0110
0000
0000
1010
0000
0000
1001
0000
0000
0011
0000
0000
MMMM
0000
0000
0000
,  // measure 16
2001
0000
0000
0000
0000
0000
0000
0000
3001
0000
0100
00M0
0100
0000
1000
0000
0000
0000
0001
0000
0010
0000
0000
0000
0200
0000
0000
0000
1300
0000
0000
0000
,  // measure 17
0200
0000
0301
0000
0100
1000
0001
0000
0100
0001
0000
1000
0000
0000
0001
0000
,  // measure 18
1002
0000
0000
0000
0000
0000
0000
0000
1003
0000
0100
00M0
0100
0000
0001
0000
0000
0000
1000
0000
0010
0000
0000
0000
0200
0000
0000
0000
0301
0000
0000
0000
,  // measure 19
0200
0000
1300
0000
0100
0001
0010
0000
0100
1000
0000
0010
0000
0000
0000
0000
,  // measure 20
1001
0000
0000
0000
0000
0000
0000
0000
0001
0000
0010
0M00
0010
0000
1000
0000
0000
0000
0001
0000
0100
0000
0000
0000
1000
0000
0000
0000
0100
0000
0000
0000
,  // measure 21
0001
0000
0010
0000
0100
0010
0001
0000
2000
0010
0000
0010
0000
0000
3001
0000
,  // measure 22
0110
0000
0000
0000
0000
0000
0000
0000
1000
0000
0010
0M00
0010
0000
0001
0000
0000
0000
0001
0000
0100
0000
00M0
0000
0100
0000
0000
0000
1000
0000
0000
0000
,  // measure 23
0002
0100
0100
0103
,  // measure 24
0000
0000
0000
0000
,  // measure 25
0000
0000
0000
0000
,  // measure 26
0000
0000
0000
0000
,  // measure 27
0000
0000
0000
0000
,  // measure 28
2000
0000
0000
0000
,  // measure 29
3020
0000
0000
0000
,  // measure 30
0230
0000
0000
0000
,  // measure 31
0302
0000
0000
0003
,  // measure 32
2000
0000
0000
0000
3000
0000
0000
0000
1000
0000
0000
0100
0000
0000
1000
0000
,  // measure 33
0010
0000
0000
0010
0000
0000
0100
0000
0001
0000
0000
0001
0000
0000
0010
0000
,  // measure 34
0200
0000
0000
0000
0300
0000
0000
0000
0100
0000
0000
0010
0000
0000
0001
0000
,  // measure 35
1000
0000
0000
1000
0000
0000
0100
0000
0010
0000
0000
0010
0000
0000
0001
0000
,  // measure 36
0200
0000
0000
0000
0300
0000
0000
0000
0100
0000
0000
0010
0000
0000
1000
0000
,  // measure 37
0001
0000
0000
0001
0000
0000
1000
0000
0010
0000
0000
0010
0000
0000
0100
0000
,  // measure 38
0002
0000
0000
0000
0003
0000
0000
0000
0010
0000
0000
0100
0000
0000
1000
0000
,  // measure 39
0010
0000
0000
0010
0000
0000
1000
0000
0001
0000
0000
1000
0000
0000
0100
0000
,  // measure 40
0010
0001
1000
0010
,  // measure 41
0100
0000
0100
0000
0010
0000
1000
0001
0000
1000
0001
0000
0010
0000
0100
0000
,  // measure 42
1000
0001
0100
0010
,  // measure 43
1000
0000
1000
0000
0001
0000
0010
0001
0000
0010
0001
0000
1000
0000
0010
0000
,  // measure 44
0100
0001
0100
0001
1000
0010
1000
0010
,  // measure 45
0100
0000
0100
0000
0001
0000
1000
0100
0000
1000
0100
0000
0010
0000
0002
0000
,  // measure 46
0000
0000
0003
0000
,  // measure 47
0000
0000
0000
0000
,  // measure 48
0001
0000
0000
1000
0100
0000
0010
0000
0001
0000
0000
1000
0000
0000
0001
0000
,  // measure 49
0100
0000
0010
0000
0000
1000
0000
0000
0100
0000
0000
0010
0000
0000
0001
0000
,  // measure 50
0100
0000
0001
0000
0000
1000
0000
0000
0010
0000
0000
0100
0000
0000
0010
0000
,  // measure 51
1000
0000
0100
0000
0000
1000
0000
0000
0001
0000
0000
0010
0000
0000
0100
0000
,  // measure 52
1000
0000
0010
0000
0000
0001
0000
0000
0020
0000
0000
0000
1030
0000
0100
0000
,  // measure 53
0001
0100
1000
0001
0200
0000
0310
1000
,  // measure 54
0001
0000
0000
0000
,  // measure 55
0000
0000
0000
0000
,  // measure 56
1001
0000
0000
0000
0001
0000
0010
0000
0100
1000
0100
0000
0010
0000
0001
0000
,  // measure 57
1000
0010
1000
0000
0001
0000
0010
0000
0100
1000
0100
0000
0010
0000
0001
0000
,  // measure 58
1001
0000
0000
0000
0001
0000
0100
0000
0010
1000
0010
0000
0100
0000
0001
0000
,  // measure 59
1000
0100
1000
0000
0001
0000
0100
0000
0010
1000
0010
0000
0100
0000
0001
0000
,  // measure 60
1001
0000
0000
0000
1000
0000
0100
0000
0010
0100
0010
0000
0001
0000
1000
0000
,  // measure 61
0010
0100
0010
0000
1000
0000
0001
0000
0010
0100
0010
0000
0100
0000
1000
0000
,  // measure 62
2200
0000
0000
0000
3300
0000
0000
0000
1100
0000
0000
0001
0000
0000
0100
0000
,  // measure 63
0101
0000
0000
0010
0000
0000
1000
0000
1010
0000
0000
0001
0000
0000
0010
0000
,  // measure 64
0110
0100
1000
0010
0100
0010
1000
0100
,  // measure 65
1000
0000
0010
0000
0100
0000
0001
0000
0010
0001
0010
0000
0001
0000
1000
0000
,  // measure 66
2010
0000
3001
0010
0001
0100
0010
1000
,  // measure 67
0100
1000
0001
0100
0010
1000
2002
3003
,  // measure 68
0021
0000
0000
0000
0130
0000
1000
0000
0001
0010
0100
0000
0010
0000
0001
0000
,  // measure 69
1000
0100
0010
0000
0100
0000
1000
0000
0001
0100
0010
0000
1000
0000
0001
0000
,  // measure 70
2002
0000
0000
0000
3003
0000
0000
0000
0011
0000
0000
1000
0000
0000
0010
0000
,  // measure 71
0110
0000
0000
1000
0000
0000
0001
0000
0011
0000
0000
1000
0000
0000
0100
0000
,  // measure 72
0010
0100
0010
0000
0100
0000
0010
0000
2002
0000
3003
0000
2002
0000
3003
0000
,  // measure 73
2020
0000
3030
0000
2020
0000
3030
0000
0001
0000
0100
0020
0000
0130
0001
0000
,  // measure 74
1000
0001
0022
0033
0220
0330
0220
0330
,  // measure 75
2200
3300
2200
3300
2002
3003
0001
0100
,  // measure 76
0220
0330
0220
0330
2020
3030
2020
3030
,  // measure 77
0001
0010
0001
0010
0100
1000
0100
1000
,  // measure 78
0001
0010
0001
0010
0000
0000
0100
1000
0100
1000
0000
0000
0001
0100
0001
0000
,  // measure 79
2000
3000
2000
3000
2000
0000
0002
3003
,  // measure 80
2002
0000
0000
0000
,  // measure 81
0000
0000
0000
0000
,  // measure 82
0000
0000
0000
0000
,  // measure 83
0000
0000
3003
0000
;
