#VERSION:0.83;
#TITLE:Goosebumps;
#SUBTITLE:;
#ARTIST:Lemon Demon;
#TITLETRANSLIT:;
#SUBTITLETRANSLIT:;
#ARTISTTRANSLIT:;
#GENRE:;
#CREDIT:MrTwinkles;
#MUSIC:Goosebumps.ogg;
#BANNER:Goosebumps-bn.avi;
#BACKGROUND:Goosebumps-bg.png;
#CDTITLE:;
#SAMPLESTART:111.431;
#SAMPLELENGTH:20.816;
#SELECTABLE:YES;
#OFFSET:0.123;
#BPMS:0.000=98.000;
#STOPS:;
#SPEEDS:0.000=1.000=0.000=0;
#SCROLLS:77.000=1.000,
77.250=0.900,
77.500=0.800,
77.750=0.700,
78.000=0.600,
78.250=0.500,
78.500=0.400,
78.750=0.300,
79.500=0.400,
79.750=0.500,
80.000=0.700,
80.250=0.900,
80.500=1.000,
181.500=0.900,
181.750=0.800,
182.000=0.700,
182.250=0.600,
182.500=0.500,
182.750=0.400,
183.000=0.300,
184.000=0.500,
184.250=0.700,
184.500=0.900,
184.750=1.000
;
#TICKCOUNTS:0.000=4;
#TIMESIGNATURES:0.000=4=4;
#LABELS:0.000=Song Start;
#COMBOS:0.000=1;
#ORIGIN:;
#PREVIEWVID:;
#JACKET:Goosebumps-jk.png;
#CDIMAGE:;
#DISCIMAGE:;
#BGCHANGES:0.621=Goosebumps-bga.avi=1.000=0=0=0=StretchNoLoop==CrossFadeFast==,
99999.000=-nosongbg-=1.000=0=0=0=StretchNoLoop====
;
#FGCHANGES:;

//--------------- dance-single - ----------------
#NOTEDATA:;
#STEPSTYPE:dance-single;
#DESCRIPTION:;
#DIFFICULTY:Medium;
#METER:8;
#RADARVALUES:0.312311,0.344516,0.307536,0.247366,0.003343,327,281,46,37,15,0,13,0,0,0.312311,0.344516,0.307536,0.247366,0.003343,327,281,46,37,15,0,13,0,0;
#CHARTNAME:;
#CHARTSTYLE:;
#CREDIT:omgukk;
#NOTES:
0000
0000
0000
0000
,
0101
0100
0002
0003
0002
0003
0010
0000
,
0011
0000
2000
3000
2000
3000
0001
0100
,
0110
0000
0020
0030
0020
0030
1000
0100
,
1100
0000
0001
0001
1000
1000
0100
0010
,
0110
0000
0002
0003
0002
0003
1000
0010
,
1010
0000
0200
0300
0200
0300
0001
1000
,
1100
0000
0020
0030
0020
0030
0001
0010
,
0110
0000
1000
1000
0001
0001
1000
0010
,
1010
1000
0200
0300
0200
1300
0010
0100
,
0101
0000
2000
3000
2000
3000
0001
0010
,
0011
0001
0040
0030
0040
0030
0040
0030
,
0110
0100
1000
0001
1000
0010
0100
0001
,
0001
2000
0000
0000
0000
3200
0000
0300
,
0010
0002
0000
0203
0000
0320
0000
2030
,
0000
3100
0000
0010
0000
0001
0000
1000
,
0001
0010
1000
0010
0001
0000
1000
0010
,
0001
0010
1000
0000
0001
0000
1001
0000
,
0001
0100
1000
0100
0001
0000
0110
0000
,
1001
M41M
0000
0000
,
0000
0300
10M1
0000
1000
0010
0200
0000
,
0000
0302
0003
0100
0010
0000
1000
0001
,
0010
1000
0010
0000
0002
0003
1000
1000
,
0010
0010
0000
0100
0010
0000
1000
0000
,
0002
0013
0100
0000
,
0000
0M00
0000
0M00
0000
0M00
0000
0000
,
0M00
0M00
0001
0001
1000
1000
0000
0000
,
0001
0100
0010
1000
0001
0000
1000
0100
,
2100
3010
0100
0001
,
0011
0000
0001
0000
1000
0000
0001
0100
,
0101
0000
1000
1000
0001
0001
0000
0000
,
0000
1000
0020
0030
0020
0030
0000
0000
,
0000
0000
0000
0000
2000
0000
0000
0000
0020
0000
0030
0000
3002
0000
0000
0013
,
0000
1001
0000
0000
4000
0000
0000
0000
,
0000
3000
0000
0000
0001
0000
0001
0000
1000
0000
1000
0000
0010
0000
0100
0000
,
0101
0000
0001
0000
0010
0100
0000
0000
,
1001
0000
0002
0000
1003
0000
1000
0010
,
0010
0000
4000
3000
4000
3000
4000
3000
,
0000
1001
0000
1000
0100
1000
0000
0001
,
0100
0002
0003
0000
1000
0100
1000
0001
,
0010
1000
0010
0001
0100
0002
0003
0001
,
1000
0010
0100
0010
,
1000
0100
0001
0100
1000
0000
0001
0100
,
1000
0100
0001
0000
1000
0000
1010
0000
,
1000
0010
0001
0010
1000
0000
0110
0000
,
1001
M41M
0000
0000
,
0000
0300
1M01
0000
0001
0100
0020
0000
,
0000
2030
3000
0010
0100
0000
0001
1000
,
0100
0001
0100
0000
2000
3000
0001
0001
,
0100
0100
0000
0010
0100
0000
0001
0000
,
0201
0320
0000
0000
,
0000
2030
0000
0000
0000
3000
0001
0000
,
0001
0000
0010
0100
4000
3000
0100
0100
,
0010
0010
0000
1001
0000
0000
0011
0000
,
0001
1000
0100
0001
0000
0001
0100
1000
,
0000
2000
0000
3000
0000
0002
0000
0003
,
1000
0001
0100
1000
0000
1000
0100
0001
,
0000
0012
0000
0003
0000
1001
0000
0000
,
0000
0000
2002
0M00
0M00
0000
00M0
0000
,
0M00
3003
0000
1000
0010
0000
0100
0000
,
0000
0000
0001
0001
1000
1000
0000
0000
;

//--------------- dance-single - ----------------
#NOTEDATA:;
#STEPSTYPE:dance-single;
#DESCRIPTION:;
#DIFFICULTY:Hard;
#METER:12;
#RADARVALUES:0.47372,0.486375,0.508103,0.36102,0.14374,496,420,76,54,13,1,26,0,0,0.47372,0.486375,0.508103,0.36102,0.14374,496,420,76,54,13,1,26,0,0;
#CHARTNAME:;
#CHARTSTYLE:;
#CREDIT:MrTwinkles;
#NOTES:
0000
0000
0000
0000
,
0101
0000
0100
0001
0020
0000
0030
0000
0020
0000
0031
1000
0100
0000
1000
0000
,
1010
0000
0001
0000
0200
0000
0300
0000
0002
0000
0003
0000
1000
0000
0100
0010
,
0001
0000
0100
0000
0020
0000
0030
0000
0020
0000
0030
0000
1000
0000
0001
0010
,
0001
0000
0011
1100
0011
1100
0000
0001
,
011M
0000
0000
0000
1000
0000
0000
1000
0010
0000
0100
0000
0000
0010
0100
0000
,
1001
0000
0002
0000
1003
0100
0010
0000
,
0011
0000
0001
0000
0000
0000
1000
0000
0001
1000
0100
0010
0001
0100
0010
0000
,
1001
0000
1010
0101
1010
0101
0000
1000
,
2100
0000
3001
1000
0020
0000
0030
0000
0020
0000
0130
0001
1000
0100
0010
0000
,
1001
1000
0020
0000
0230
0000
0301
0010
,
0210
0000
0300
0000
0040
0030
0040
0030
0040
0030
0040
0030
0040
0030
0100
1000
,
0001
0100
0000
0101
0001
1000
0100
0011
,
0011
0000
2000
0000
3000
0000
0102
0000
0103
0000
0001
0000
1000
0000
0010
0100
,
0001
0000
0100
0000
0000
0000
0101
0000
1000
0000
0100
0010
0001
0000
0011
0000
,
0010
0000
0200
0000
0300
0000
1100
0000
1000
0000
0100
0000
0000
1000
0010
0100
,
0010
1000
0001
0010
1000
0010
0001
0100
,
0010
0000
0020
0000
1000
0000
0000
0000
1000
0000
0130
0000
0001
0010
0001
0000
,
0010
2000
0000
3002
0000
0203
0000
2300
,
3000
0000
1001
0000
022M
0000
0330
0000
0400
0300
0400
0300
0400
0300
0400
0300
,
0400
0300
0400
0300
1001
0000
1000
0000
0100
0000
0010
0000
0002
0000
0000
0000
,
0103
0000
0010
0000
1000
0000
0100
0000
0010
0001
1000
0000
0010
0000
1000
0000
,
0001
1000
0100
0000
0010
0000
0100
0000
2000
0000
3000
0000
0100
00M0
0100
0000
,
0010
0M00
0010
0000
0001
0000
0100
0000
0010
0000
1000
0000
1100
0000
0000
0000
,
0021
0130
2001
3010
1000
1010
0000
1000
,
0000
1100
0000
0002
0203
0300
0002
0003
,
2000
0000
3100
0000
0110
0000
1001
0000
0110
0000
1001
0000
0001
1000
0010
0000
,
0100
0000
0001
0000
0020
0000
0030
0000
0020
0000
0031
0010
0100
0000
1000
0000
,
1100
0000
0001
0000
0200
0000
0300
0000
0200
0000
0300
0000
0010
1000
0100
0000
,
1100
0000
0001
0000
0020
0000
0030
0000
0020
0000
0031
0000
0100
0010
1000
0000
,
1001
0000
1100
0101
1100
0101
0000
0000
,
0000
0000
2000
0000
3020
0000
0000
0000
2030
0000
0400
0300
0400
3300
0400
0300
,
0400
0300
0010
0000
0020
0000
0000
0000
0032
0000
0000
0000
2003
0000
0000
0002
,
3003
1001
0000
0000
4000
0000
0000
0000
,
0000
3000
0011
1010
0011
1010
0000
0001
,
1100
0000
0000
0000
2000
0000
3000
0010
0200
0000
0302
0000
1003
0100
0010
0000
,
1001
1000
0200
0300
0200
1300
0002
0103
,
0102
0000
0000
0000
4003
3000
4000
3000
4000
3000
4000
3000
4000
3000
4000
3001
,
0010
0100
0000
1100
1000
0001
0100
1010
,
1010
0000
0002
0000
0003
0000
0100
0000
0101
0000
1000
0000
0001
0000
0010
0100
,
1000
0000
0100
0000
0000
0000
1100
0000
0001
0000
0100
0010
1000
0000
1010
0000
,
0010
0000
0200
0000
0300
0000
0101
0000
0001
0000
0010
0000
0000
0001
0010
0100
,
0010
0001
1000
0010
0001
0010
1000
0100
,
0010
0000
0020
0000
0001
0000
0000
0000
0001
0000
0130
0000
1000
0010
1000
0000
,
0010
0002
0000
2003
0000
3200
0000
0302
,
0003
0000
1MM1
0000
0000
0000
0000
0000
4000
3000
4000
3000
1010
0000
0101
0000
,
1010
0101
1001
0001
0010
0100
2000
0000
,
3010
0000
0100
0000
0001
0000
0010
0000
0100
1000
0001
0000
0100
0000
0001
0000
,
1000
0001
0010
0000
0100
0000
0010
0000
0002
0000
0003
0000
0010
0M00
0010
0000
,
0100
00M0
0100
0000
1000
0000
0010
0000
0100
0000
0001
0000
0011
0000
0000
0000
,
1100
0000
1001
1000
0010
0100
0002
0000
,
0013
0000
0100
0000
1000
0000
0010
0000
0100
0001
1000
0000
0100
0000
1000
0000
,
0001
1000
0010
0000
0100
0000
0010
0000
2000
0000
3000
0000
0010
0M00
0010
0000
,
0100
00M0
0100
0000
0001
0000
0010
0000
0100
0000
0010
0000
0110
0000
0000
0000
,
1001
1000
0100
0001
0001
0100
1000
1000
,
0010
0000
2010
0000
0000
0000
3001
0000
0000
0000
1002
0000
0013
0000
0000
0100
,
1000
0001
0100
1000
1000
0100
0001
0001
,
0010
0000
0012
0000
0000
0000
1003
0000
0000
0000
1001
0000
0001
0000
0000
0100
,
0010
1000
0001
0100
0001
0101
0000
0001
,
0000
0011
0000
2000
3200
0300
0020
0030
,
0001
0100
0110
1001
0110
1001
0000
0000
;
